osu file format v5

[General]
AudioFilename: 1.01_-_laharl-sama_no_sanbika.mp3
AudioLeadIn: 0
PreviewTime: -1
Countdown: 1
SampleSet: Normal
StackLeniency: 0.7
Mode: 0
EditorBookmarks: 28731,49969,70899,78173,105200,139930,166139,187567,200398,223134,247566,253598

[Metadata]
Title:Laharl-Sama No Sanbika
Artist:Disgaea OST
Creator:Hitoshirenu Shourai
Version:Prinny
Source:
Tags:

[Difficulty]
HPDrainRate:2
CircleSize:3
OverallDifficulty:2
SliderMultiplier:1
SliderTickRate:2

[Events]
//Background and Video events
0,0,"disgaea_tv0100.jpg"
//Break Periods
2,46379,48575
//Storyboard Layer 0 (Background)
//Storyboard Layer 1 (Failing)
//Storyboard Layer 2 (Passing)
//Storyboard Layer 3 (Foreground)
//Storyboard Sound Samples
//Background Colour Transformations
3,100,0,128,255

[TimingPoints]
355,329.67032967033,4,1,0,100
71229,370.37037037037,4,1,0,100
78371,315.789473684211,4,1,0,100
105170,329.67032967033,4,1,0,100
187567,361.44578313253,4,1,0,100
200398,315.789473684211,4,1,0,100
223134,309.278350515464,4,1,0,100
247566,326.086956521739,4,1,0,100
253608,309.278350515464,4,1,0,100

[HitObjects]
96,56,29036,2,0,B|96:344,1,200
264,336,30355,1,0
432,336,31014,1,0
432,168,31673,6,0,B|432:16,2,100
312,168,32992,2,0,B|312:280,2,100
256,192,34311,12,0,36289
48,192,36948,5,0
48,192,37278,1,0
48,192,37607,1,0
464,192,38267,5,0
464,192,38596,1,0
464,192,38926,1,0
256,192,39585,12,0,40904
128,40,41563,5,0
248,40,42223,1,0
304,40,42552,1,0
360,40,42882,1,0
40,192,43541,5,0
96,192,43871,1,0
152,192,44201,1,0
256,192,44860,12,0,46179
256,192,50135,12,0,55409
72,192,56069,1,0
192,192,56728,1,0
312,192,57387,1,0
312,128,57717,6,0,B|392:128,2,50
312,64,58376,5,0
248,64,58706,1,0
184,64,59036,1,0
120,64,59365,5,0
56,64,59695,1,0
56,120,60025,1,0
56,176,60355,6,0,B|56:240,2,50
144,256,61344,6,0,B|352:256,1,200
336,136,62662,2,0,B|128:136,1,200
136,72,63651,5,0
192,72,63981,2,0,B|336:72,1,100
352,72,64640,2,0,B|488:72,1,100
456,128,65300,2,0,B|456:256,1,100
256,192,65959,12,0,70574
256,192,71229,12,0,76043
48,192,78371,2,0,B|168:192,2,100
448,72,79634,6,0,B|328:72,2,100
96,64,80897,5,0
96,120,81213,1,0
152,120,81528,1,0
152,176,81844,1,0
152,232,82160,5,0
88,232,82476,1,0
88,288,82792,1,0
256,192,83423,12,0,84055
448,312,84686,2,0,B|320:312,1,100
288,312,85318,2,0,B|160:312,1,100
128,312,85949,2,0,B|48:248,1,100
48,192,86581,6,0,B|48:72,1,100
96,56,87213,2,0,B|240:56,1,100
256,56,87844,5,0
256,56,88002,1,0
256,56,88160,1,0
368,56,88476,6,0,B|512:56,2,100
368,112,89423,5,0
368,168,89739,6,0,B|232:168,2,100
368,224,90686,5,0
368,280,91002,6,0,B|256:280,1,100
272,336,91634,2,0,B|160:336,1,100
176,272,92265,2,0,B|64:272,2,100
256,192,93213,12,0,95107
256,192,95739,12,0,97634
256,192,98265,12,0,103002
472,192,103634,6,0,B|344:192,2,100
256,192,104581,6,0,B|152:192,2,100
