osu file format v5

[General]
AudioFilename: 2.06_-_akai_tsuki.mp3
AudioLeadIn: 2000
PreviewTime: -1
Countdown: 1
SampleSet: Soft
StackLeniency: 0.7
Mode: 0
EditorBookmarks: 135,6402,13087,26458,34814,40768

[Metadata]
Title:Akai Tsuki
Artist:Disgaea OST
Creator:Hitoshirenu Shourai
Version:Insane
Source:
Tags:

[Difficulty]
HPDrainRate:7
CircleSize:6
OverallDifficulty:7
SliderMultiplier:2
SliderTickRate:0.5

[Events]
//Background and Video events
0,0,"prinnies.jpg"
//Break Periods
//Storyboard Layer 0 (Background)
//Storyboard Layer 1 (Failing)
//Storyboard Layer 2 (Passing)
//Storyboard Layer 3 (Foreground)
//Storyboard Sound Samples
//Background Colour Transformations
3,100,163,162,255

[TimingPoints]
215,833.333333333333,4,2,0,100

[Colours]
Combo1 : 224,224,224
Combo2 : 255,0,0

[HitObjects]
64,336,215,2,0,B|64:120,1,200
64,40,1464,1,0
112,40,1673,1,0
160,40,1881,2,0,B|392:40,2,200
160,88,3756,1,0
160,136,3964,1,0
160,184,4173,1,0
160,232,4381,1,0
160,280,4589,1,0
160,328,4798,2,0,B|296:328,1,100
312,328,5423,1,0
360,328,5631,1,0
408,328,5840,2,0,B|408:296,2,25
408,280,6256,1,0
408,232,6465,1,0
408,184,6673,1,0
408,128,6881,6,0,B|408:368,1,200
360,328,7923,1,0
328,288,8131,1,0
296,248,8340,1,0
264,288,8548,1,0
232,328,8756,1,0
200,288,8965,1,0
168,248,9173,1,0
120,248,9381,1,0
120,200,9590,1,0
120,152,9798,1,0
120,104,10006,1,0
160,128,10214,2,0,B|280:128,1,100
360,128,11048,2,0,B|248:128,1,100
256,24,11881,2,0,B|256:248,1,200
256,320,13131,2,0,B|256:288,2,25
256,192,13548,12,0,14798
160,192,15214,2,0,B|376:192,1,200
160,88,16985,2,0,B|440:88,1,275
448,216,18548,2,0,B|440:344|272:336,1,200
96,336,20214,2,0,B|96:104,3,200
200,96,23131,2,0,B|240:96,2,25
256,192,23652,12,0,25319
456,328,26881,2,0,B|288:328,1,100
304,328,27506,1,0
256,328,27715,1,0
208,328,27923,1,0
176,288,28131,1,0
128,264,28340,1,0
136,216,28548,2,0,B|138:46|264:80,1,200
344,80,29798,2,0,B|344:112,2,25
344,192,30214,2,0,B|344:336|200:336,1,200
128,296,31464,1,0
56,216,31880,1,0
56,160,32089,1,0
56,104,32297,1,0
56,160,32505,1,0
56,216,32714,1,0
256,192,32819,12,0,34381
256,192,35215,2,0,B|256:32,1,100
152,120,36048,2,0,B|152:152,2,25
104,152,36465,2,0,B|104:120,2,25
104,208,36881,2,0,B|104:112|256:112,2,200
256,192,38652,12,0,40214
64,192,41048,5,0
152,248,41464,2,0,B|192:248,2,25
208,248,41881,2,0,B|96:248|96:104|296:104|288:183|232:232,1,300
256,224,43548,2,0,B|256:16,2,200
256,192,45319,12,0,46881
