osu file format v5

[General]
AudioFilename: 108_discotronic_-_tricky_disco.mp3
AudioLeadIn: 3000
PreviewTime: -1
Countdown: 1
SampleSet: Normal
StackLeniency: 0.7
Mode: 0
LetterboxInBreaks: 1

[Metadata]
Title:Tricky Disco
Artist:Discotronic
Creator:Hikato
Version:Tricky
Source:
Tags:

[Difficulty]
HPDrainRate:7
CircleSize:5
OverallDifficulty:8
SliderMultiplier:2
SliderTickRate:2

[Events]
//Background and Video events
0,0,"disco-fractal-wallpaper.jpg"
//Break Periods
2,14778,31366
//Storyboard Layer 0 (Background)
//Storyboard Layer 1 (Failing)
//Storyboard Layer 2 (Passing)
//Storyboard Layer 3 (Foreground)
//Storyboard Sound Samples
//Background Colour Transformations
3,100,163,162,255

[TimingPoints]
1700,422.535211267606,4,1,0,100,1
99496,-100,4,2,0,100,0
112842,-100,4,1,0,100,0

[HitObjects]
96,64,1699,1,0
192,64,2122,1,0
288,64,2545,2,0,B|128:192,1,200
230,189,3390,1,0
128,192,3812,1,0
128,288,4235,2,0,B|352:288,1,200,0|8
328,192,5080,1,0
424,192,5502,1,0
424,96,5925,2,0,B|200:96,1,200
128,96,6770,1,0
32,96,7192,1,0
32,192,7615,1,0
80,192,7826,2,8,B|208:192,2,100
80,144,8460,5,0
80,240,8883,1,0
176,240,9305,2,0,B|400:240,1,200
376,144,10150,2,0,B|376:368,1,200
320,256,10995,1,0
272,256,11207,1,8
120,256,11840,6,0,B|344:256,1,200
320,160,12685,1,0
416,160,13108,1,0
416,256,13530,1,0
320,256,13953,1,0
224,256,14376,2,4,B|96:256,1,100
96,64,32122,6,8,B|224:64,1,100
248,64,32545,1,0
344,64,32967,1,0
344,160,33390,2,8,B|344:288,1,100
344,312,33812,1,0
248,312,34235,1,0
152,312,34657,1,0
56,312,35080,1,4
56,216,35502,6,8,B|56:88,1,100
56,64,35925,2,2,B|56:288,1,200
152,264,36770,1,0
200,264,36981,1,0
152,264,37192,1,0
152,168,37615,1,0
152,72,38038,2,6,B|376:72,1,200
448,72,38883,6,2,B|448:296,1,200
352,272,39728,1,0
256,272,40150,1,0
256,320,40361,1,0
208,320,40573,1,0
112,320,40995,1,0
112,224,41418,1,4
112,320,41840,1,4
208,320,42263,5,0
208,224,42685,1,0
208,128,43108,1,0
304,128,43530,2,8,B|304:256,1,100
256,192,43953,12,4,45432
72,320,45643,6,0,B|200:320,9,100
224,320,47756,1,0
272,320,47967,1,0
224,320,48178,1,0
272,320,48390,1,0
320,320,48601,1,0
320,224,49023,5,0
320,176,49235,1,0
320,128,49446,1,0
320,176,49657,1,0
320,128,49869,1,0
320,80,50080,1,0
368,80,50291,1,0
416,80,50502,1,0
416,80,50608,1,0
416,112,50714,1,0
416,160,50925,1,0
416,208,51136,1,0
416,256,51347,1,0
416,208,51559,1,0
416,160,51770,1,0
368,160,51981,1,0
320,160,52192,1,0
320,160,52404,6,0,B|192:160,4,100
320,208,53460,1,0
320,256,53671,1,0
272,256,53883,1,0
248,256,53988,1,0
224,256,54094,1,0
176,256,54305,1,0
176,304,54516,1,0
128,304,54728,1,0
80,304,54939,1,0
80,256,55150,1,0
128,256,55361,1,0
336,248,55784,6,0,L|336:136,1,100,0|0
240,128,56207,2,0,L|240:232,1,100
240,328,56629,2,0,L|240:216,1,100,0|0
240,176,57052,1,0
240,120,57263,1,0
240,120,57369,1,0
208,120,57474,1,0
152,120,57685,1,0
96,120,57897,1,0
96,176,58108,1,0
96,232,58319,1,0
96,288,58530,1,0
152,296,58742,1,0
200,304,58953,1,0
336,304,59164,5,4
384,304,59376,1,4
336,304,59587,1,4
384,304,59798,1,0
384,256,60009,1,0
384,304,60221,1,2
432,304,60432,1,2
384,136,60854,5,4
384,80,61066,1,4
432,112,61277,1,4
432,56,61488,1,0
384,24,61700,1,0
336,56,61911,1,2
336,112,62122,1,2
200,64,62545,5,4
152,64,62756,1,4
104,40,62967,1,4
104,88,63178,1,0
104,136,63390,1,0
160,136,63601,1,2
104,136,63812,1,2
104,224,64235,5,4
56,256,64446,1,4
56,312,64657,1,4
104,336,64869,1,0
152,312,65080,1,0
152,256,65291,1,2
104,280,65502,1,2
224,96,65925,6,0,B|280:96,1,50
226,96,66242,2,0,B|176:96,1,50
232,192,66559,1,8
280,280,66770,6,0,B|216:280,1,50
278,280,67087,2,0,B|328:280,1,50
304,184,67404,1,8
304,88,67615,6,0,B|304:152,1,50
304,90,67932,2,0,B|304:40,1,50
200,96,68249,1,8
200,192,68460,6,0,B|200:136,1,50
200,240,68777,2,0,B|256:240,1,50
256,136,69094,1,8
352,136,69305,6,6,B|352:192,3,50
352,184,69728,2,6,B|352:240,3,50
352,232,70150,2,6,B|352:288,7,50
304,280,70995,5,4
192,280,71418,5,8
96,40,72685,6,4,B|96:168,1,100
96,240,73108,6,4,B|96:368,1,100
200,336,73530,6,4,B|200:208,1,100,4|4
200,136,73953,6,4,B|200:8,1,100,4|4
304,40,74376,6,4,B|304:160,1,100,4|4
304,240,74798,6,4,B|304:352,1,100,4|4
408,336,75221,6,4,B|408:208,1,100,4|12
408,136,75643,6,4,B|408:8,1,100,4|12
312,64,76066,5,0
312,64,76277,1,0
208,64,76488,5,0
208,64,76700,1,0
104,64,76911,5,0
104,64,77122,1,0
104,168,77333,5,0
104,168,77545,1,0
104,272,77756,5,0
104,272,77967,1,0
192,328,78178,5,0
192,328,78390,1,0
296,328,78601,5,8
296,328,78812,1,8
400,328,79023,5,8
400,328,79235,1,8
448,240,79446,6,0,B|371:142,1,100,2|8
310,97,79869,6,2,B|182:97,1,100,2|8
126,157,80291,6,2,B|33:236,1,100
50,324,80714,6,8,B|178:324,1,100
251,324,81136,6,2,B|123:324,1,100
152,323,81559,6,2,B|152:195,1,100
153,119,81981,6,2,B|256:119,1,100
352,120,82404,1,12
336,320,82826,5,0
336,216,83038,1,0
248,272,83249,1,0
248,168,83460,1,0
152,128,83671,1,0
152,232,83883,1,2
56,192,84094,1,2
248,320,84516,5,0
248,216,84728,1,0
336,264,84939,1,0
336,160,85150,1,0
336,160,85256,1,0
336,160,85361,1,0
248,216,85573,1,10
248,320,85784,1,10
48,264,86207,6,12,B|272:264,1,200
404,139,87052,6,12,B|244:267,1,200,12|12
316,333,87897,6,12,B|169:185,1,200
340,77,88742,6,12,B|160:201,1,200,12|12
48,32,89587,5,0
120,104,89798,1,0
192,32,90009,1,0
264,104,90221,1,0
344,40,90432,1,0
424,104,90643,1,0
424,208,90854,1,0
312,208,91066,5,0
280,208,91171,1,0
248,208,91277,1,0
144,208,91488,1,0
40,208,91700,1,0
144,208,91911,1,0
144,312,92122,1,0
144,208,92333,1,0
248,208,92545,1,4
352,208,92756,1,4
456,208,92967,6,0,B|456:336,1,100
353,308,93390,2,0,B|217:308,1,100,0|0
152,312,93812,1,0
48,312,94023,1,0
48,208,94235,1,0
104,120,94446,1,0
104,120,94552,1,0
104,120,94657,1,0
152,208,94869,1,0
152,312,95080,1,0
256,312,95291,1,0
256,208,95502,1,0
152,208,95714,1,0
256,208,95925,1,8
440,128,96347,5,0
336,128,96559,1,0
336,232,96770,1,0
232,232,96981,1,0
232,128,97192,1,0
232,232,97404,1,0
232,336,97615,1,8
256,32,98883,5,8
224,80,99094,1,8
288,80,99305,1,8
88,80,99728,6,2,B|88:208,1,100
186,180,100150,1,2
184,80,100361,1,2
280,80,100573,1,2
184,80,100784,1,2
280,80,100995,1,2
376,80,101207,1,2
280,80,101418,2,10,B|280:208,2,100
376,80,102052,1,8
376,176,102263,1,6
64,128,103108,5,0
64,224,103319,1,2
160,224,103530,1,2
64,224,103742,1,2
160,224,103953,1,2
64,224,104164,1,2
64,320,104376,1,2
160,320,104587,1,2
256,320,104798,1,2
160,320,105009,1,2
256,320,105221,1,2
352,320,105432,1,10
352,224,105643,1,12
88,72,106488,5,0
88,168,106699,1,0
184,168,106911,1,0
280,168,107122,1,0
280,264,107333,1,0
184,272,107545,1,0
88,272,107756,1,2
184,272,107967,1,2
184,168,108178,1,4
184,368,108601,1,8
360,272,109023,1,4
360,64,109869,5,0
264,64,110080,1,0
264,160,110291,1,0
168,160,110502,1,0
264,160,110714,1,0
360,160,110925,1,0
264,160,111136,1,0
264,256,111347,1,0
264,160,111559,1,0
168,160,111770,1,0
264,160,111981,1,0
64,160,112404,1,4
256,128,113249,5,2
256,224,113460,1,2
256,320,113671,1,2
344,272,113883,1,2
256,272,114094,1,2
160,272,114305,1,0
160,168,114516,1,2
264,168,114728,5,0
304,168,114833,1,0
344,168,114939,1,0
440,168,115150,1,0
344,168,115361,1,0
256,168,115573,1,0
160,168,115784,1,0
160,264,115995,1,0
160,360,116207,1,0
352,352,116629,5,0
408,272,116840,1,0
344,200,117052,1,0
344,104,117263,1,0
256,152,117474,1,0
256,56,117685,1,2
256,152,117897,1,2
168,104,118108,6,0,B|168:168,2,50
96,200,118530,1,0
144,288,118742,1,0
248,288,118953,1,0
344,288,119164,1,0
248,288,119376,1,8
344,288,119587,2,6,B|120:288,1,200,6|6
248,288,120221,5,0
144,288,120432,1,0
48,288,120643,1,0
48,192,120854,1,0
48,88,121066,1,0
144,88,121277,1,0
240,88,121488,6,4,B|240:152,2,50
240,216,121911,1,0
336,216,122122,1,0
336,312,122333,1,0
336,216,122545,1,0
336,120,122756,1,0
336,216,122967,1,0
128,136,123390,6,4,B|128:208,1,50
192,136,123707,6,4,B|192:200,1,50
296,256,124023,5,8
296,328,124235,1,4
248,328,124340,1,0
136,328,124552,1,4
176,328,124657,1,0
176,200,124869,1,2
272,200,125080,2,4,B|216:200|216:200,15,50
