osu file format v14

[General]
AudioFilename: omen.MP3
AudioLeadIn: 0
PreviewTime: 107882
Countdown: 0
SampleSet: Soft
StackLeniency: 0.7
Mode: 0
LetterboxInBreaks: 0
WidescreenStoryboard: 1

[Editor]
Bookmarks: 4603,166406
DistanceSpacing: 1.6
BeatDivisor: 4
GridSize: 4
TimelineZoom: 1.2

[Metadata]
Title:Omen ft. Sam Smith (DropBlasterz Remix)
TitleUnicode:Omen ft. Sam Smith (DropBlasterz Remix)
Artist:Disclosure
ArtistUnicode:Disclosure
Creator:BakaHuang
Version:Insane
Source:
Tags:
BeatmapID:776626
BeatmapSetID:352427

[Difficulty]
HPDrainRate:7
CircleSize:4
OverallDifficulty:8
ApproachRate:8.3
SliderMultiplier:1.6
SliderTickRate:1

[Events]
//Background and Video events
0,0,"bg.png",0,0
//Break Periods
//Storyboard Layer 0 (Background)
//Storyboard Layer 1 (Fail)
//Storyboard Layer 2 (Pass)
//Storyboard Layer 3 (Foreground)
//Storyboard Sound Samples

[TimingPoints]
190,491.803278688525,4,2,1,43,1,0
19862,-125,4,2,1,43,0,0
41009,-80,4,2,1,43,0,1
56259,-80,4,2,1,43,0,0
73468,-100,4,2,1,43,0,0
88222,-125,4,2,1,43,0,0
107894,-80,4,2,1,43,0,1
122649,-80,4,2,1,43,0,0
123632,-80,4,2,1,43,0,1
138878,-80,4,2,1,43,0,0
150190,-153.846153846154,4,2,1,43,0,0
150927,-79.9999999999999,4,2,1,43,0,0

[Colours]
Combo1 : 137,200,237
Combo2 : 255,128,128
Combo3 : 243,202,139
Combo4 : 182,231,152

[HitObjects]
72,128,4616,6,0,L|80:212,1,80,0|2,0:0|0:0,0:0:0:0:
88,296,5108,1,4,0:0:0:0:
24,356,5353,1,0,0:0:0:0:
172,336,5599,6,0,L|260:340,1,80,8|0,0:0|0:0,0:0:0:0:
363,244,6091,2,0,L|243:251,1,120,4|0,0:0|0:0,0:0:0:0:
252,236,6583,2,0,P|260:188|248:144,1,80
188,28,7075,1,4,0:0:0:0:
180,116,7321,1,0,0:0:0:0:
92,128,7567,6,0,L|4:144,1,80
173,250,8058,2,0,L|251:235,1,80,4|0,0:0|0:0,0:0:0:0:
116,200,8550,2,0,L|92:244,1,40
88,252,8796,2,0,P|84:288|88:344,1,80,0|4,0:0|0:0,0:0:0:0:
256,360,9288,1,0,0:0:0:0:
344,280,9534,6,0,L|428:288,1,80
344,104,10026,2,0,L|428:96,1,80,4|0,0:0|0:0,0:0:0:0:
256,192,10517,2,0,L|132:192,1,120
92,116,11009,6,0,P|56:192|88:260,1,160,0|8,0:0|0:0,0:0:0:0:
176,336,11747,1,0,0:0:0:0:
273,270,11993,2,0,L|256:192,1,80
176,336,12485,1,8,0:0:0:0:
256,192,12730,1,0,0:0:0:0:
336,336,12976,1,4,0:0:0:0:
128,88,13468,6,0,L|145:166,1,80,8|0,0:0|0:0,0:0:0:0:
256,192,13960,1,4,0:0:0:0:
176,336,14206,1,0,0:0:0:0:
132,252,14452,2,0,L|212:264,1,80,8|0,0:0|0:0,0:0:0:0:
380,252,14944,2,0,L|300:264,1,80,4|0,0:0|0:0,0:0:0:0:
448,308,15435,6,0,P|464:272|464:232,1,80
412,124,15927,1,4,0:0:0:0:
296,156,16173,1,0,0:0:0:0:
296,156,16296,1,0,0:0:0:0:
296,156,16419,2,0,L|228:164,1,40
216,92,16665,2,0,L|176:88,1,40
124,148,16911,2,0,P|80:156|32:152,1,80,4|0,0:0|0:0,0:0:0:0:
8,136,17280,1,0,0:0:0:0:
8,136,17403,6,0,L|12:48,1,80
92,236,17894,2,0,L|95:315,1,80
252,352,18386,1,0,0:0:0:0:
400,292,18632,1,0,0:0:0:0:
412,312,18755,1,0,0:0:0:0:
424,332,18878,2,0,L|428:244,1,80
436,132,19370,5,0,0:0:0:0:
328,184,19616,1,0,0:0:0:0:
208,176,19862,2,0,B|184:176|168:164|168:164|128:160|76:188,1,128
60,200,20476,1,0,0:0:0:0:
60,200,20599,1,0,0:0:0:0:
136,248,20845,2,0,L|140:320,1,64
216,360,21337,5,8,0:0:0:0:
292,256,21583,1,0,0:0:0:0:
392,336,21829,1,0,0:0:0:0:
392,336,21952,1,0,0:0:0:0:
392,336,22075,2,0,P|444:336|476:340,1,64,0|8,0:0|0:0,0:0:0:0:
304,348,22567,1,0,0:0:0:0:
428,256,22812,2,0,P|436:228|432:188,1,64
320,116,23304,6,0,L|332:192,1,64
360,216,23673,1,0,0:0:0:0:
360,216,23796,2,0,L|352:256,1,32
294,284,24042,2,0,L|306:360,1,64
308,380,24411,1,0,0:0:0:0:
308,380,24534,1,0,0:0:0:0:
136,332,24780,1,0,0:0:0:0:
136,240,25026,5,0,0:0:0:0:
220,380,25271,1,0,0:0:0:0:
56,372,25517,1,0,0:0:0:0:
136,240,25763,2,0,L|192:136,1,96
196,128,26255,2,0,P|164:136|132:136,1,64
316,256,26747,6,0,P|348:248|380:248,1,64
412,256,27116,1,0,0:0:0:0:
412,256,27239,1,0,0:0:0:0:
480,364,27485,1,0,0:0:0:0:
500,224,27730,2,0,L|508:148,1,64
508,128,28099,1,0,0:0:0:0:
508,128,28222,2,0,P|448:136|380:128,1,128
280,72,28960,1,0,0:0:0:0:
292,188,29206,6,0,L|298:251,1,64
168,120,29698,1,0,0:0:0:0:
168,120,29821,1,0,0:0:0:0:
168,120,29944,2,0,L|161:183,1,64
144,300,30435,1,0,0:0:0:0:
84,148,30681,1,0,0:0:0:0:
24,344,30927,1,0,0:0:0:0:
144,300,31173,6,0,L|224:304,1,64
236,304,31542,1,0,0:0:0:0:
236,304,31665,2,0,P|220:272|212:232,1,64
320,164,32157,1,0,0:0:0:0:
320,164,32280,1,0,0:0:0:0:
320,164,32403,1,0,0:0:0:0:
375,96,32649,5,0,0:0:0:0:
450,216,32894,1,0,0:0:0:0:
320,164,33140,1,0,0:0:0:0:
456,129,33386,1,0,0:0:0:0:
365,237,33632,2,0,P|361:268|365:300,1,64
456,129,34124,2,0,P|460:98|456:66,1,64
372,16,34616,5,0,0:0:0:0:
264,128,34862,1,0,0:0:0:0:
365,237,35108,1,0,0:0:0:0:
372,44,35353,1,0,0:0:0:0:
264,128,35599,2,0,P|200:136|156:140,1,96
116,88,36091,1,0,0:0:0:0:
116,88,36214,1,0,0:0:0:0:
96,116,36337,2,0,P|88:152|88:188,1,64
84,308,36829,5,0,0:0:0:0:
208,260,37075,2,0,L|288:264,1,64
76,332,37567,1,0,0:0:0:0:
272,288,37812,2,0,L|352:292,1,64
440,352,38304,1,0,0:0:0:0:
492,260,38550,1,0,0:0:0:0:
408,360,38796,1,0,0:0:0:0:
432,172,39042,5,0,0:0:0:0:
272,288,39288,2,0,L|260:156,1,128
164,72,40026,1,0,0:0:0:0:
164,72,40149,1,0,0:0:0:0:
164,72,40271,2,0,L|160:148,1,64,0|4,0:0|0:0,0:0:0:0:
144,336,40763,1,0,0:0:0:0:
260,160,41009,6,0,P|312:160|360:156,1,100,0|0,1:0|0:0,0:0:0:0:
424,116,41378,1,0,0:0:0:0:
432,192,41501,2,0,B|416:228|456:260|440:288,1,100,0|0,1:0|0:0,0:0:0:0:
396,348,41870,1,0,0:0:0:0:
396,348,41993,1,0,1:0:0:0:
152,288,42239,2,0,P|132:288|84:296,1,50
44,340,42485,2,0,P|28:292|48:240,1,100,0|0,1:0|0:0,0:0:0:0:
108,208,42853,1,0,0:0:0:0:
108,208,42976,6,0,L|100:100,1,100,0|0,1:0|0:0,0:0:0:0:
224,40,43345,1,0,0:0:0:0:
224,40,43468,2,0,L|220:92,1,50,0|0,1:0|0:0,0:0:0:0:
184,156,43714,2,0,L|188:212,1,50
252,248,43960,2,0,P|304:240|356:248,1,100,0|0,1:0|0:0,0:0:0:0:
416,212,44329,1,0,0:0:0:0:
416,212,44452,5,0,1:0:0:0:
488,376,44698,1,0,0:0:0:0:
308,352,44944,2,0,P|256:360|204:352,1,100,0|0,1:0|0:0,0:0:0:0:
140,320,45312,1,0,0:0:0:0:
140,320,45435,5,0,1:0:0:0:
76,160,45681,1,0,0:0:0:0:
44,344,45927,1,8,1:2:0:0:
172,136,46173,1,0,0:0:0:0:
44,344,46419,2,0,L|64:232,1,100,0|0,1:0|0:0,0:0:0:0:
224,48,46911,5,0,0:0:0:0:
76,160,47157,1,0,1:0:0:0:
240,232,47403,2,0,L|296:228,1,50,0|0,1:0|0:0,0:0:0:0:
340,172,47649,2,0,L|392:176,1,50
452,136,47894,1,0,1:0:0:0:
500,332,48140,1,0,0:0:0:0:
308,272,48386,5,4,1:2:0:0:
308,272,48878,2,0,L|324:376,1,100,0|0,1:0|0:0,0:0:0:0:
248,360,49247,1,0,0:0:0:0:
248,360,49370,2,0,P|176:364|148:368,1,100,0|0,1:0|0:0,0:0:0:0:
24,224,49862,2,0,L|34:272,1,50
108,220,50108,2,0,L|112:164,1,50
64,112,50353,2,0,P|104:96|164:116,1,100,0|0,1:0|0:0,0:0:0:0:
308,160,50845,6,0,P|268:176|208:156,1,100,0|0,1:0|0:0,0:0:0:0:
264,48,51214,1,0,0:0:0:0:
264,48,51337,2,0,L|260:100,1,50,0|0,1:0|0:0,0:0:0:0:
214,161,51583,2,0,L|220:212,1,50
280,351,51829,2,0,L|284:252,1,100,0|0,1:0|0:0,0:0:0:0:
376,212,52198,1,0,0:0:0:0:
376,212,52321,5,0,1:0:0:0:
264,48,52567,1,0,0:0:0:0:
284,251,52812,1,0,1:0:0:0:
392,104,53058,1,0,0:0:0:0:
476,268,53304,6,0,P|436:280|376:304,1,100,0|0,1:0|0:0,0:0:0:0:
189,284,53796,2,0,P|229:272|289:248,1,100,0|0,1:0|0:0,0:0:0:0:
180,192,54165,1,0,0:0:0:0:
156,184,54288,6,0,P|109:202|61:217,1,100,0|0,1:0|0:0,0:0:0:0:
7,26,54780,2,0,P|4:51|4:76,1,50,0|0,1:0|0:0,0:0:0:0:
92,124,55026,2,0,P|88:84|88:60,1,50
156,184,55271,6,0,L|152:296,1,100,0|0,1:0|0:0,0:0:0:0:
256,148,55763,2,0,L|260:48,1,100,0|0,1:0|0:0,0:0:0:0:
444,192,56255,6,0,P|416:196|376:188,1,50
296,108,56501,2,0,P|324:104|364:112,1,50
416,72,56747,2,0,P|420:100|412:140,1,50
324,228,56993,2,0,P|320:200|328:160,1,50
188,156,57239,6,0,P|192:184|184:224,1,50
96,312,57485,2,0,P|92:284|100:244,1,50
68,192,57730,2,0,P|96:188|136:196,1,50
216,276,57976,2,0,P|188:280|148:272,1,50
296,316,58222,6,0,P|324:312|364:320,1,50
464,212,58468,2,0,P|436:216|396:208,1,50
324,228,58714,2,0,L|312:176,1,50
436,300,58960,2,0,L|448:352,1,50
312,179,59206,6,0,P|344:112|304:48,1,150
202,51,59698,2,0,P|167:114|200:179,1,150
256,116,60190,1,0,0:0:0:0:
256,116,60681,5,0,0:0:0:0:
256,264,60927,1,0,0:0:0:0:
388,196,61173,2,0,P|412:152|428:104,1,100
396,36,61542,1,0,0:0:0:0:
396,36,61665,1,0,0:0:0:0:
256,116,61911,1,0,0:0:0:0:
124,188,62157,6,0,P|100:232|84:280,1,100
96,352,62526,1,0,0:0:0:0:
216,355,62649,2,0,P|240:311|256:263,1,100
256,116,63140,1,0,0:0:0:0:
388,192,63386,1,0,0:0:0:0:
388,192,63509,1,0,0:0:0:0:
388,192,63632,1,0,0:0:0:0:
255,263,63878,1,0,0:0:0:0:
124,192,64124,6,0,L|74:192,1,50
127,63,64370,2,0,L|162:98,1,50
256,60,64616,2,0,L|256:10,1,50
384,63,64862,2,0,L|349:98,1,50
388,192,65108,6,0,L|438:192,1,50
384,320,65353,2,0,L|349:285,1,50
256,324,65599,2,0,L|256:374,1,50
126,320,65845,2,0,L|162:285,1,50
124,192,66091,6,0,L|184:168,1,50
388,192,66337,2,0,L|328:168,1,50
144,104,66583,2,0,L|204:80,1,50
368,104,66829,2,0,L|308:80,1,50
248,24,67075,6,0,B|216:72|288:128|256:168,1,150
188,244,67567,2,0,B|220:276|296:276|328:240,1,150
388,192,68058,5,4,0:0:0:0:
480,52,68304,1,0,0:0:0:0:
471,204,68550,2,0,L|464:304,1,100
480,52,69042,1,0,0:0:0:0:
388,192,69288,1,0,0:0:0:0:
388,192,69411,1,0,0:0:0:0:
388,192,69534,2,0,P|320:196|260:184,1,100
68,108,70026,6,0,P|117:104|167:108,1,100
212,168,70394,1,0,0:0:0:0:
212,168,70517,2,0,L|228:272,1,100,8|0,0:0|0:0,0:0:0:0:
336,192,71009,1,8,0:0:0:0:
360,340,71255,1,0,0:0:0:0:
448,152,71501,1,8,0:0:0:0:
448,152,71624,1,8,0:0:0:0:
448,152,71747,1,8,0:0:0:0:
56,184,73468,6,0,L|64:304,1,120,8|0,0:0|0:0,0:0:0:0:
68,328,73960,2,0,P|113:321|149:325,1,80
256,336,74452,1,4,0:0:0:0:
324,192,74698,1,0,0:0:0:0:
324,192,74821,1,0,0:0:0:0:
324,192,74944,6,0,L|316:72,1,120,8|0,0:0|0:0,0:0:0:0:
312,48,75435,2,0,P|267:55|231:51,1,80
156,36,75804,1,0,0:0:0:0:
156,36,75927,1,0,0:0:0:0:
180,152,76173,1,0,0:0:0:0:
202,270,76419,6,0,P|266:266|330:270,1,120
344,276,76911,2,0,P|337:237|349:193,1,80
496,256,77403,2,0,P|503:295|491:339,1,80
424,108,77894,6,0,P|360:112|296:108,1,120
244,68,78386,1,0,0:0:0:0:
104,28,78632,1,0,0:0:0:0:
104,28,78755,1,0,0:0:0:0:
104,28,78878,2,0,L|112:88,1,40
168,108,79124,2,0,L|160:156,1,40
140,216,79370,1,0,0:0:0:0:
256,316,79616,1,0,0:0:0:0:
372,216,79862,1,0,0:0:0:0:
372,216,80353,5,0,0:0:0:0:
168,108,80599,1,0,0:0:0:0:
252,32,80845,2,0,L|248:92,1,40
264,112,81091,2,0,L|272:192,1,80
380,336,81583,1,0,0:0:0:0:
460,280,81829,2,0,L|452:200,1,80
380,52,82321,6,0,L|372:140,1,80
360,256,82812,1,4,0:0:0:0:
256,188,83058,1,0,0:0:0:0:
256,188,83181,1,0,0:0:0:0:
256,188,83304,2,0,L|188:196,1,40
196,268,83550,2,0,L|156:264,1,40
136,188,83796,2,0,L|32:196,1,80
36,196,84165,1,0,0:0:0:0:
12,200,84288,6,0,P|16:240|28:280,1,80
112,96,84780,2,0,P|75:79|34:69,1,80
144,240,85271,2,0,P|176:216|205:186,1,80
256,52,85763,6,0,P|284:132|296:212,1,160
256,320,86501,1,0,0:0:0:0:
256,320,86747,1,0,0:0:0:0:
256,192,86870,12,0,88222,0:0:0:0:
192,64,89206,5,0,0:0:0:0:
398,200,90190,1,0,0:0:0:0:
177,311,91173,1,0,0:0:0:0:
192,64,91665,2,0,L|200:144,1,64
320,320,92157,2,0,L|312:240,1,64
440,160,92649,6,0,P|400:168|340:160,1,96
280,128,93140,2,0,L|272:48,1,64
440,160,93632,6,0,L|456:276,1,96
464,328,94124,1,0,0:0:0:0:
344,232,94370,1,0,0:0:0:0:
248,352,94616,2,0,L|144:360,1,96
164,336,95108,2,0,P|172:304|164:256,1,64
40,212,95599,2,0,P|32:244|40:292,1,64
120,144,96091,6,0,L|188:136,1,64
392,144,96583,2,0,L|324:136,1,64
256,128,96952,1,0,0:0:0:0:
256,128,97075,5,0,0:0:0:0:
144,300,97321,1,0,0:0:0:0:
368,300,97567,1,0,0:0:0:0:
256,240,97812,1,0,0:0:0:0:
144,300,98058,2,0,P|96:304|64:312,1,64
44,324,98427,1,0,0:0:0:0:
44,324,98550,6,0,L|36:368,1,32
88,232,98796,2,0,L|80:184,1,32
96,124,99042,1,0,0:0:0:0:
256,32,99288,1,0,0:0:0:0:
204,120,99534,6,0,L|212:204,1,64
297,311,100026,2,0,L|304:248,1,64
448,160,100517,6,0,P|396:148|320:160,1,128
212,228,101255,1,0,0:0:0:0:
112,112,101501,5,0,0:0:0:0:
172,308,101747,1,0,0:0:0:0:
212,132,101993,1,0,0:0:0:0:
44,280,102239,1,0,0:0:0:0:
212,228,102485,6,0,P|216:184|212:132,1,96
196,56,102976,1,0,0:0:0:0:
68,28,103222,1,0,0:0:0:0:
32,192,103468,6,0,P|84:188|140:192,1,96
127,190,103960,1,0,0:0:0:0:
256,284,104206,1,0,0:0:0:0:
480,192,104452,6,0,P|428:196|372:192,1,96
384,193,104944,1,0,0:0:0:0:
256,100,105190,1,0,0:0:0:0:
256,120,105312,1,0,0:0:0:0:
256,140,105435,5,0,0:0:0:0:
256,284,105681,1,0,0:0:0:0:
384,193,105927,1,0,0:0:0:0:
127,193,106173,1,0,0:0:0:0:
256,192,106296,12,0,107403,0:0:0:0:
127,193,107649,5,0,0:0:0:0:
304,112,107894,6,0,P|352:116|424:120,1,100
432,52,108263,1,0,0:0:0:0:
416,192,108386,2,0,P|420:244|428:292,1,100
468,352,108755,1,0,0:0:0:0:
468,352,108878,1,0,0:0:0:0:
220,312,109124,2,0,L|164:316,1,50
112,364,109370,2,0,L|12:360,1,100
76,272,109739,1,0,0:0:0:0:
76,272,109862,6,0,P|88:224|76:172,1,100
12,128,110230,1,0,0:0:0:0:
12,128,110353,2,0,L|0:68,1,50
152,144,110599,2,0,L|161:193,1,50
92,84,110845,2,0,P|128:64|192:72,1,100
256,112,111214,1,0,0:0:0:0:
256,112,111337,5,0,1:0:0:0:
392,192,111583,1,0,0:0:0:0:
480,40,111829,2,0,L|476:156,1,100
468,240,112198,1,0,0:0:0:0:
468,240,112321,5,0,1:0:0:0:
324,340,112567,1,0,0:0:0:0:
256,112,112812,2,0,L|268:228,1,100
236,360,113304,1,0,0:0:0:0:
392,192,113550,1,0,0:0:0:0:
172,220,113796,6,0,L|120:224,1,50
104,320,114042,2,0,L|153:323,1,50
44,264,114288,2,0,P|32:216|48:168,1,100
92,104,114657,1,0,0:0:0:0:
92,104,114780,1,0,1:0:0:0:
220,56,115026,1,0,0:0:0:0:
364,272,115271,5,4,1:2:0:0:
376,264,115763,2,0,P|436:268|492:276,1,100
308,340,116255,2,0,P|248:344|192:352,1,100
216,220,116747,2,0,L|211:273,1,50
128,368,116993,2,0,L|132:312,1,50
56,192,117239,2,0,P|44:244|64:296,1,100,0|0,1:0|0:0,0:0:0:0:
220,256,117730,6,0,P|232:204|212:152,1,100
136,104,118099,1,0,0:0:0:0:
136,104,118222,2,0,L|132:156,1,50,0|0,1:0|0:0,0:0:0:0:
260,92,118468,2,0,L|263:42,1,50,0|0,1:0|0:0,0:0:0:0:
372,208,118714,2,0,L|376:109,1,100,0|0,1:0|0:0,0:0:0:0:
380,32,119083,1,0,0:0:0:0:
380,32,119206,5,0,1:0:0:0:
464,216,119452,1,0,0:0:0:0:
500,60,119698,1,0,0:0:0:0:
456,260,119944,1,0,0:0:0:0:
256,344,120190,1,0,0:0:0:0:
296,168,120435,1,0,0:0:0:0:
228,364,120681,2,0,P|168:368|128:376,1,100
176,284,121050,1,0,0:0:0:0:
192,264,121173,6,0,L|184:160,1,100
96,204,121542,1,0,0:0:0:0:
96,204,121665,2,0,P|92:244|92:268,1,50,0|0,1:0|0:0,0:0:0:0:
16,120,121911,2,0,P|20:160|20:184,1,50,0|0,1:0|0:0,0:0:0:0:
88,60,122157,6,0,P|136:68|192:56,1,100
256,32,122526,1,0,0:0:0:0:
256,32,122649,2,0,L|264:136,1,100
392,232,123017,1,0,0:0:0:0:
404,248,123140,2,0,L|407:148,1,100
256,344,123632,6,0,P|212:340|148:352,1,100
80,368,124001,1,0,0:0:0:0:
100,288,124124,2,0,L|116:184,1,100
0,24,124616,2,0,L|8:88,1,50
64,128,124862,1,0,0:0:0:0:
64,128,124985,1,0,0:0:0:0:
64,128,125108,2,0,P|108:112|168:100,1,100
408,128,125599,2,0,P|364:144|304:156,1,100
236,124,125968,1,0,0:0:0:0:
236,124,126091,5,0,0:0:0:0:
216,308,126337,1,0,0:0:0:0:
392,252,126583,2,0,P|440:260|496:280,1,100
408,336,126952,1,0,0:0:0:0:
408,336,127075,2,0,P|360:364|352:372,1,50
304,300,127321,2,0,P|292:328|288:368,1,50
160,232,127567,2,0,L|152:160,1,50
72,252,127812,2,0,L|80:308,1,50
92,120,128058,6,0,P|140:100|204:104,1,100
392,192,128550,2,0,P|344:212|280:208,1,100
472,92,129042,1,0,0:0:0:0:
496,304,129288,1,0,0:0:0:0:
472,92,129534,6,0,L|480:160,1,50
380,104,129780,2,0,L|374:54,1,50
284,80,130026,2,0,P|240:96|188:84,1,100
108,64,130394,1,0,0:0:0:0:
108,64,130517,2,0,L|116:168,1,100
24,340,131009,2,0,L|16:240,1,100
280,192,131501,6,0,L|287:291,1,100
368,320,131870,1,0,0:0:0:0:
368,320,131993,2,0,P|416:324|464:304,1,100
512,172,132485,1,0,0:0:0:0:
312,108,132730,1,0,0:0:0:0:
312,108,132853,1,0,0:0:0:0:
312,108,132976,2,0,P|264:104|216:124,1,100
100,304,133468,5,0,0:0:0:0:
32,228,133714,2,0,L|24:172,1,50
148,100,133960,2,0,L|155:149,1,50
220,240,134206,2,0,L|227:289,1,50
328,328,134452,2,0,P|384:324|440:336,1,100
368,140,134944,5,0,0:0:0:0:
426,331,135190,1,0,0:0:0:0:
472,104,135435,1,0,0:0:0:0:
328,328,135681,1,0,0:0:0:0:
328,328,135804,1,0,0:0:0:0:
328,328,135927,5,0,0:0:0:0:
102,186,136173,1,0,0:0:0:0:
337,61,136419,1,0,0:0:0:0:
328,328,136665,1,0,0:0:0:0:
328,328,136788,1,0,0:0:0:0:
328,328,136911,2,0,L|252:336,1,50
204,248,137157,2,0,L|253:242,1,50
102,186,137403,2,0,P|96:224|100:260,1,50
224,160,137649,2,0,P|230:122|226:86,1,50
200,32,137894,5,0,0:0:0:0:
248,26,138017,1,0,0:0:0:0:
292,48,138140,1,0,0:0:0:0:
317,91,138263,1,0,0:0:0:0:
313,140,138386,1,0,0:0:0:0:
319,188,138509,1,0,0:0:0:0:
296,232,138632,1,0,0:0:0:0:
252,254,138755,1,0,0:0:0:0:
204,248,138878,6,0,P|168:256|152:264,1,50
186,159,139124,2,0,P|167:128|155:115,1,50
265,116,139370,2,0,P|289:88|297:72,1,50
330,177,139616,2,0,P|364:191|382:194,1,50
291,308,139862,6,0,P|289:283|293:258,1,50
139,227,140108,2,0,P|164:225|189:229,1,50
220,75,140353,2,0,P|222:100|218:125,1,50
372,156,140599,2,0,P|347:158|322:154,1,50
220,75,140845,6,0,P|222:100|218:125,1,50
291,308,141091,2,0,P|289:283|293:258,1,50
372,156,141337,2,0,P|347:158|322:154,1,50
139,227,141583,2,0,P|164:225|189:229,1,50
291,308,141829,6,0,P|368:312|440:304,1,150
372,156,142321,2,0,P|295:152|223:160,1,150
139,227,142812,1,0,0:0:0:0:
184,36,143058,1,0,0:0:0:0:
68,172,143304,2,0,P|52:220|64:272,1,100
208,360,143796,1,0,0:0:0:0:
324,296,144042,2,0,L|380:304,2,50
256,156,144534,1,0,0:0:0:0:
216,328,144780,5,0,0:0:0:0:
156,116,145026,1,0,0:0:0:0:
56,336,145271,1,0,0:0:0:0:
52,132,145517,2,0,L|56:208,1,50
156,116,145763,2,0,L|153:66,1,50
256,156,146009,1,0,0:0:0:0:
256,156,146132,1,0,0:0:0:0:
256,156,146255,2,0,P|312:156|360:152,1,100
336,72,146624,1,0,0:0:0:0:
336,72,146747,5,0,0:0:0:0:
432,192,146993,1,0,0:0:0:0:
256,368,147239,1,0,0:0:0:0:
256,368,147485,1,0,0:0:0:0:
80,192,147730,1,0,0:0:0:0:
80,192,147976,1,0,0:0:0:0:
256,16,148222,1,0,0:0:0:0:
256,16,148468,1,0,0:0:0:0:
324,272,148714,6,0,P|308:256|288:228,1,50
188,112,148960,2,0,P|204:128|224:156,1,50
176,260,149206,2,0,P|192:244|220:223,1,50
336,124,149452,2,0,P|320:140|292:160,1,50
151,183,149698,2,0,P|173:183|207:189,1,50
360,200,149944,2,0,P|338:200|304:194,1,50
264,87,150190,6,0,P|264:109|258:143,1,51.999997619629
247,296,150681,2,0,P|247:274|253:240,1,51.999997619629
460,196,151173,6,0,L|360:200,1,100
52,196,151665,2,0,L|152:200,1,100
264,87,152157,1,0,0:0:0:0:
248,297,152403,1,0,0:0:0:0:
187,112,152649,1,0,0:0:0:0:
324,271,152894,1,0,0:0:0:0:
151,184,153140,1,0,0:0:0:0:
361,200,153386,1,0,0:0:0:0:
361,200,153509,1,0,0:0:0:0:
361,200,153632,6,0,L|372:144,1,50
460,136,153878,2,0,L|449:79,1,50
352,44,154124,2,0,P|300:52|244:48,1,100
168,28,154493,1,0,0:0:0:0:
168,28,154616,5,0,0:0:0:0:
108,176,154862,1,0,0:0:0:0:
240,340,155108,1,0,0:0:0:0:
240,340,155353,1,0,0:0:0:0:
404,208,155599,1,0,0:0:0:0:
404,208,155845,1,0,0:0:0:0:
272,44,156091,1,0,0:0:0:0:
272,44,156337,1,0,0:0:0:0:
108,176,156583,6,0,B|132:172|132:172|164:176,1,50
162,76,156829,2,0,B|182:90|182:90|202:115,1,50
272,43,157075,2,0,B|276:67|276:67|272:100,1,50
371,98,157321,2,0,B|357:118|357:118|332:138,1,50
404,207,157567,6,0,B|380:212|380:212|348:208,1,50
349,307,157812,2,0,B|329:293|329:293|309:268,1,50
240,340,158058,2,0,B|236:316|236:316|240:284,1,50
140,285,158304,2,0,B|154:265|154:265|179:245,1,50
256,192,158550,5,0,0:0:0:0:
124,132,158796,1,0,0:0:0:0:
144,320,159042,1,0,0:0:0:0:
201,31,159288,1,0,0:0:0:0:
201,31,159411,1,0,0:0:0:0:
201,31,159534,1,0,0:0:0:0:
422,224,159780,1,0,0:0:0:0:
243,318,160026,2,0,P|193:316|144:320,1,100
24,192,160517,6,0,P|73:194|123:190,1,100
204,180,160886,1,0,0:0:0:0:
204,180,161009,1,0,0:0:0:0:
132,16,161255,1,0,0:0:0:0:
132,16,161378,1,0,0:0:0:0:
132,16,161501,2,0,L|152:124,1,100
380,16,161993,2,0,L|360:124,1,100
328,272,162485,5,0,0:0:0:0:
328,272,162730,1,0,0:0:0:0:
176,264,162976,1,0,0:0:0:0:
176,264,163222,1,0,0:0:0:0:
184,112,163468,1,0,0:0:0:0:
184,112,163714,1,0,0:0:0:0:
336,120,163960,1,0,0:0:0:0:
336,120,164206,1,0,0:0:0:0:
328,272,164452,6,0,P|296:320|256:340,1,100
184,111,164944,2,0,P|209:69|252:44,1,100
403,188,165435,2,0,P|378:145|336:120,1,100
108,195,165927,2,0,P|133:238|176:264,1,100
256,192,166419,5,0,0:0:0:0:
