osu file format v13

[General]
AudioFilename: 15 Shake a Leg (feat. Disasterpeace).mp3
AudioLeadIn: 0
PreviewTime: 14652
Countdown: 0
SampleSet: None
StackLeniency: 0.2
Mode: 0
LetterboxInBreaks: 1
WidescreenStoryboard: 0

[Editor]
DistanceSpacing: 1
BeatDivisor: 3
GridSize: 8
TimelineZoom: 1

[Metadata]
Title:Shake a Leg
TitleUnicode:Shake a Leg
Artist:Disasterpeace
ArtistUnicode:Disasterpeace
Creator:TheGrimOfCrazy
Version:Extra
Source:BIT.TRIP Presents... Runner2: Future Legend of Rhythm Alien
Tags:osu!speedmap speed map osu! challenge #2 Lust
BeatmapID:603377
BeatmapSetID:264745

[Difficulty]
HPDrainRate:7
CircleSize:4.6
OverallDifficulty:8
ApproachRate:9
SliderMultiplier:2.34
SliderTickRate:1

[Events]
//Background and Video events
0,0,"osmc2bg.png",0,0
//Break Periods
//Storyboard Layer 0 (Background)
//Storyboard Layer 1 (Fail)
//Storyboard Layer 2 (Pass)
//Storyboard Layer 3 (Foreground)
//Storyboard Sound Samples

[TimingPoints]
27,375,4,3,0,13,1,0
14652,-100,4,1,0,13,0,0

[Colours]
Combo1 : 50,172,218
Combo2 : 18,214,135
Combo3 : 232,30,116

[HitObjects]
88,128,27,5,8,0:0:0:0:
158,125,152,1,0,0:0:0:0:
49,187,277,1,0,0:0:0:0:
50,63,402,5,4,0:0:0:0:
106,290,652,1,8,0:0:0:0:
213,79,902,1,8,0:0:0:0:
49,187,1152,6,2,P|135:217|211:181,1,156
394,103,1527,6,0,P|401:147|386:198,1,78,8|0,0:0|0:0,0:0:0:0:
271,275,1777,1,0,0:0:0:0:
426,273,1902,1,0,0:0:0:0:
433,263,2152,5,8,0:0:0:0:
304,348,2277,1,0,0:0:0:0:
198,303,2402,2,0,P|192:268|242:204,1,78,8|0,0:0|0:0,0:0:0:0:
327,216,2652,2,2,P|350:282|268:358,1,156,8|0,0:0|0:0,0:0:0:0:
110,303,3027,5,8,0:0:0:0:
235,378,3152,1,0,0:0:0:0:
257,218,3277,1,0,0:0:0:0:
122,293,3402,5,8,0:0:0:0:
256,72,3652,1,8,0:0:0:0:
390,293,3902,1,8,0:0:0:0:
248,218,4152,2,2,B|294:272|217:311|256:368,1,156
266,217,4527,5,8,0:0:0:0:
187,266,4652,1,0,0:0:0:0:
106,230,4777,1,0,0:0:0:0:
96,147,4902,1,0,0:0:0:0:
96,147,5152,5,0,0:0:0:0:
155,80,5277,2,0,P|190:65|251:76,2,78,8|0|8,0:0|0:0|0:0,0:0:0:0:
106,230,5652,2,0,P|159:274|246:271,1,156,0|8,0:0|0:0,0:0:0:0:
242,272,6152,5,2,0:0:0:0:
106,230,6277,1,2,0:0:0:0:
307,246,6402,6,0,P|273:209|188:229,1,78,8|0,0:0|0:0,0:0:0:0:
341,306,6652,2,0,P|371:315|430:298,1,78,8|0,0:0|0:0,0:0:0:0:
272,306,6902,2,0,P|246:332|234:393,1,78,8|0,0:0|0:0,0:0:0:0:
238,246,7152,2,2,P|155:222|75:257,1,156
71,318,7527,5,8,0:0:0:0:
15,210,7652,1,0,0:0:0:0:
138,144,7777,1,0,0:0:0:0:
185,270,7902,1,0,0:0:0:0:
144,126,8152,1,8,0:0:0:0:
221,117,8277,1,0,0:0:0:0:
280,167,8402,2,8,P|298:226|229:310,1,156,8|10,0:0|0:0,0:0:0:0:
250,301,9027,6,0,L|109:297,1,78,8|0,0:0|0:0,0:0:0:0:
138,201,9277,2,0,L|47:186,1,78
440,148,9652,5,8,0:0:0:0:
248,326,9902,1,8,0:0:0:0:
114,51,10152,2,2,P|179:35|289:121,1,156,8|0,0:0|0:0,0:0:0:0:
300,135,10527,6,0,L|281:221,1,78,8|0,0:0|0:0,0:0:0:0:
134,345,10777,2,0,L|166:231,1,78
152,260,11152,5,8,0:0:0:0:
248,173,11277,2,0,P|260:126|237:55,1,78
334,261,11527,1,8,0:0:0:0:
391,218,11652,2,2,P|415:168|348:27,1,156
398,71,12027,6,0,L|488:68,1,78,8|0,0:0|0:0,0:0:0:0:
255,131,12277,2,0,L|349:153,1,78
217,34,12652,5,8,0:0:0:0:
37,310,12902,1,8,0:0:0:0:
369,293,13152,2,2,P|274:235|177:282,1,156,8|0,0:0|0:0,0:0:0:0:
172,286,13527,6,0,L|166:370,1,78,8|0,0:0|0:0,0:0:0:0:
326,201,13777,2,0,L|334:96,1,78,8|0,0:0|0:0,0:0:0:0:
352,115,14152,5,8,0:0:0:0:
202,163,14277,2,0,P|178:227|182:272,1,78
171,313,14527,1,0,0:0:0:0:
219,52,14652,1,8,0:0:0:0:
219,52,14902,1,0,0:0:0:0:
219,52,15027,6,0,P|157:69|111:55,1,78
70,43,15277,1,0,0:0:0:0:
96,116,15402,2,2,P|106:206|56:304,1,156
14,302,15777,1,0,0:0:0:0:
242,251,16152,1,0,0:0:0:0:
242,251,16527,6,0,L|254:359,1,78
314,373,16777,1,0,0:0:0:0:
374,323,16902,2,2,P|392:252|348:139,1,156
302,140,17277,1,0,0:0:0:0:
312,132,17652,1,0,0:0:0:0:
323,120,18027,5,0,0:0:0:0:
138,95,18152,1,0,0:0:0:0:
237,189,18277,1,0,0:0:0:0:
212,10,18402,1,0,0:0:0:0:
219,232,18652,6,0,P|259:271|332:264,1,117,8|0,0:0|0:0,0:0:0:0:
224,156,18902,2,0,P|174:166|145:241,1,117,8|0,0:0|0:0,0:0:0:0:
289,202,19152,2,0,P|304:155|265:87,1,117,8|0,0:0|0:0,0:0:0:0:
277,95,19527,5,0,0:0:0:0:
317,271,19652,1,0,0:0:0:0:
142,220,19777,1,0,0:0:0:0:
367,209,19902,2,0,P|395:261|342:349,1,156
355,342,20527,5,0,0:0:0:0:
90,271,20652,1,8,0:0:0:0:
90,271,20902,5,0,0:0:0:0:
90,271,21277,5,0,0:0:0:0:
248,217,21402,2,0,P|289:222|348:264,2,78,0|0|0,0:0|0:0|0:0,0:0:0:0:
178,254,21777,2,0,P|139:184|167:103,1,156
243,296,22152,1,0,0:0:0:0:
243,296,22402,1,0,0:0:0:0:
243,296,22652,5,0,0:0:0:0:
247,218,22777,1,0,0:0:0:0:
303,164,22902,6,0,P|359:154|434:298,1,234
439,284,23527,1,0,0:0:0:0:
356,36,23652,1,8,0:0:0:0:
356,36,23902,6,0,P|257:-12|130:89,1,234
244,174,24402,1,8,0:0:0:0:
57,177,24652,2,0,P|138:234|248:167,1,234
333,134,25152,2,0,P|340:104|445:44,1,156,8|0,0:0|0:0,0:0:0:0:
331,222,25527,2,0,P|311:330|201:289,3,234,0|0|0|0,0:0|0:0|0:0|0:0,0:0:0:0:
272,269,27027,2,0,P|256:224|396:180,1,234
331,222,27652,5,0,0:0:0:0:
267,176,27777,2,0,P|219:169|175:183,1,78
330,295,28027,1,0,0:0:0:0:
400,80,28152,1,0,0:0:0:0:
400,80,28402,2,2,P|389:156|436:239,1,156
422,225,28902,6,0,L|512:217,1,78,8|0,0:0|0:0,0:0:0:0:
330,295,29152,2,0,L|3:313,1,312,8|0,0:0|0:0,0:0:0:0:
