osu file format v13

[General]
AudioFilename: Bit.Trip Runner2 - Jolly Frolic.mp3
AudioLeadIn: 0
PreviewTime: 3618
Countdown: 0
SampleSet: Soft
StackLeniency: 0.7
Mode: 0
LetterboxInBreaks: 0
WidescreenStoryboard: 0

[Editor]
Bookmarks: 15722,27722
DistanceSpacing: 0.5
BeatDivisor: 4
GridSize: 4
TimelineZoom: 1

[Metadata]
Title:Jolly Frolic
TitleUnicode:Jolly Frolic
Artist:Disasterpeace
ArtistUnicode:Disasterpeace
Creator:Timorisu
Version:Hard
Source:Bit.Trip Presents Runner2: Future Legend of Rhythm Alien
Tags:8-bit 8bit bit platformer chiptune nwolf
BeatmapID:452185
BeatmapSetID:189825

[Difficulty]
HPDrainRate:5
CircleSize:4
OverallDifficulty:6
ApproachRate:7.5
SliderMultiplier:1.8
SliderTickRate:1

[Events]
//Background and Video events
0,0,"GettOutOfThisFolderImmediately.png",0,0
//Break Periods
//Storyboard Layer 0 (Background)
//Storyboard Layer 1 (Fail)
//Storyboard Layer 2 (Pass)
//Storyboard Layer 3 (Foreground)
//Storyboard Sound Samples
//Background Colour Transformations
3,100,163,162,255

[TimingPoints]
712,375,4,2,1,25,1,0
2212,-100,4,2,1,20,0,0
2305,-100,4,2,1,25,0,0
2399,-100,4,2,1,20,0,0
2587,-100,4,2,1,25,0,0
4649,-100,4,2,1,20,0,0
4743,-100,4,2,1,25,0,0
4837,-100,4,2,1,20,0,0
5024,-100,4,2,1,25,0,0
7649,-100,4,2,1,20,0,0
7743,-100,4,2,1,25,0,0
7837,-100,4,2,1,20,0,0
8024,-100,4,2,1,25,0,0
10649,-100,4,2,1,20,0,0
10743,-100,4,2,1,25,0,0
10837,-100,4,2,1,20,0,0
11024,-100,4,2,1,25,0,0
13649,-100,4,2,1,20,0,0
13743,-100,4,2,1,25,0,0
13837,-100,4,2,1,20,0,0
14024,-100,4,2,1,25,0,0
18712,-100,4,2,1,20,0,0
18805,-100,4,2,1,25,0,0
18899,-100,4,2,1,20,0,0
18993,-100,4,2,1,25,0,0
19087,-100,4,2,1,20,0,0
19274,-100,4,2,1,25,0,0
19462,-100,4,2,1,20,0,0
19743,-100,4,2,1,25,0,0
19837,-100,4,2,1,20,0,0
20024,-100,4,2,1,25,0,0
20212,-100,4,2,1,20,0,0
20305,-100,4,2,1,25,0,0
20399,-100,4,2,1,20,0,0
20587,-100,4,2,1,25,0,0

[Colours]
Combo1 : 254,243,1
Combo2 : 166,136,190
Combo3 : 255,154,192
Combo4 : 135,211,234
Combo5 : 255,167,3

[HitObjects]
255,192,712,6,0,P|213:204|170:193,1,90,0|0,0:0|0:0,0:0:0:0:
212,116,1087,2,0,P|254:103|297:114,1,90,0|0,1:0|0:0,0:0:0:0:
348,192,1462,2,0,L|397:267,1,90,0|0,0:0|0:0,0:0:0:0:
476,220,1837,2,0,L|426:144,1,90,0|0,1:0|0:0,0:0:0:0:
380,68,2212,6,0,L|355:30,2,45,2|0|2,0:0|0:0|0:0,0:0:0:0:
297,117,2587,2,0,P|254:128|212:116,1,90,0|0,1:0|0:0,0:0:0:0:
132,76,2962,2,0,P|120:118|133:161,1,90,0|0,0:0|0:0,0:0:0:0:
184,236,3337,2,0,P|195:278|182:321,1,90,0|0,1:0|0:0,0:0:0:0:
104,276,3712,5,0,0:0:0:0:
52,200,3899,1,2,0:0:0:0:
133,161,4087,1,2,1:0:0:0:
224,156,4274,2,0,P|308:135|340:54,1,180,2|2,0:0|0:0,0:0:0:0:
340,54,4743,1,0,0:0:0:0:
340,54,4837,1,2,1:0:0:0:
248,64,5024,1,2,0:0:0:0:
159,92,5212,6,0,P|135:174|191:240,1,180,2|0,0:0|1:0,0:0:0:0:
224,156,5774,1,2,0:0:0:0:
248,64,5962,2,0,L|360:204,1,180,2|0,0:0|1:0,0:0:0:0:
479,340,6712,6,0,P|439:359|395:355,1,90,0|2,0:0|0:0,0:0:0:0:
312,324,7087,1,2,1:0:0:0:
228,292,7274,2,0,P|141:285|90:355,1,180,2|2,0:0|0:0,0:0:0:0:
90,353,7743,1,0,0:0:0:0:
90,353,7837,1,2,1:0:0:0:
180,368,8024,1,2,0:0:0:0:
228,292,8212,1,2,0:0:0:0:
256,192,8305,12,0,9337,0:0:0:0:
348,192,9712,6,0,L|397:267,1,90,2|2,0:0|0:0,0:0:0:0:
476,220,10087,2,0,L|426:144,1,90,2|2,1:0|0:0,0:0:0:0:
272,236,10649,1,2,0:0:0:0:
272,236,10743,1,0,0:0:0:0:
272,236,10837,2,0,L|195:282,1,90,2|0,1:0|0:0,0:0:0:0:
112,320,11212,6,0,B|96:292|100:252|124:224|124:224|196:180,1,180,2|0,0:0|1:0,0:0:0:0:
268,140,11774,1,2,0:0:0:0:
188,96,11962,2,0,L|31:185,1,180,2|0,0:0|1:0,0:0:0:0:
32,276,12524,1,0,0:0:0:0:
112,320,12712,6,0,P|155:331|198:319,1,90,0|2,0:0|0:0,0:0:0:0:
276,272,13087,2,0,P|318:260|362:271,1,90,2|2,1:0|0:0,0:0:0:0:
316,348,13462,1,0,0:0:0:0:
404,348,13649,1,2,0:0:0:0:
404,348,13743,1,0,0:0:0:0:
404,348,13837,1,2,1:0:0:0:
448,272,14024,1,2,0:0:0:0:
404,192,14212,1,2,0:0:0:0:
256,192,14305,12,0,15337,0:0:0:0:
256,108,15712,6,0,L|206:32,1,90
128,80,16087,2,0,L|177:155,1,90,0|0,1:0|0:0,0:0:0:0:
180,248,16462,1,0,0:0:0:0:
256,200,16649,1,0,0:0:0:0:
256,296,16837,1,0,1:0:0:0:
332,248,17024,1,0,0:0:0:0:
332,344,17212,6,0,L|410:299,1,90
410,203,17587,2,0,L|332:248,1,90,0|0,1:0|0:0,0:0:0:0:
324,156,17962,2,0,L|403:112,1,90
403,20,18337,2,0,L|324:64,1,90,0|0,1:0|0:0,0:0:0:0:
247,112,18712,5,2,0:0:0:0:
225,113,18805,1,0,0:0:0:0:
203,109,18899,1,2,0:0:0:0:
183,98,18993,1,0,0:0:0:0:
167,83,19087,1,2,1:0:0:0:
232,28,19274,1,0,0:0:0:0:
316,56,19462,1,2,0:0:0:0:
328,144,19649,1,2,0:0:0:0:
328,144,19743,1,0,0:0:0:0:
327,144,19837,2,0,P|301:179|260:196,1,90,2|0,1:0|0:0,0:0:0:0:
172,212,20212,5,2,0:0:0:0:
172,212,20305,1,0,0:0:0:0:
172,212,20399,2,0,P|130:228|104:264,1,90,2|0,0:0|1:0,0:0:0:0:
184,299,20774,1,0,0:0:0:0:
264,332,20962,2,0,P|237:367|196:384,1,90
184,299,21337,2,0,P|210:263|251:246,1,90,0|0,1:0|0:0,0:0:0:0:
340,236,21712,6,0,L|429:225,1,90
420,136,22087,2,0,L|330:146,1,90,0|0,1:0|0:0,0:0:0:0:
248,104,22462,1,0,0:0:0:0:
248,192,22649,1,0,0:0:0:0:
167,147,22837,2,0,P|155:105|167:62,1,90,0|0,1:0|0:0,0:0:0:0:
248,104,23212,6,0,P|260:146|248:189,1,90
340,176,23587,2,0,P|336:220|308:260,1,90,0|0,1:0|0:0,0:0:0:0:
395,280,23962,2,0,P|374:319|336:341,1,90
248,348,24337,2,0,L|158:354,1,90,0|0,1:0|0:0,0:0:0:0:
67,360,24712,5,0,0:0:0:0:
8,296,24899,1,0,0:0:0:0:
22,210,25087,1,0,1:0:0:0:
98,167,25274,1,0,0:0:0:0:
173,212,25462,2,0,P|142:244|100:256,1,90
98,167,25837,2,0,P|129:135|171:123,1,90,0|0,1:0|0:0,0:0:0:0:
264,112,26212,6,0,L|352:98,1,90
368,188,26587,2,0,L|279:201,1,90,0|0,1:0|0:0,0:0:0:0:
296,292,26962,2,0,L|384:278,1,90
400,368,27337,2,0,L|311:381,1,90,0|0,1:0|0:0,0:0:0:0:
224,352,27712,5,0,0:0:0:0:
140,324,27899,1,0,0:0:0:0:
208,264,28087,1,0,1:0:0:0:
124,236,28274,1,0,0:0:0:0:
192,176,28462,5,0,0:0:0:0:
276,148,28649,1,0,0:0:0:0:
208,88,28837,1,0,1:0:0:0:
292,60,29024,1,0,0:0:0:0:
360,120,29212,5,0,0:0:0:0:
344,208,29399,1,0,0:0:0:0:
260,240,29587,1,0,1:0:0:0:
192,176,29774,1,0,0:0:0:0:
208,88,29962,5,4,0:0:0:0:
344,208,30337,1,4,0:0:0:0:
208,88,30712,1,4,0:0:0:0:
256,192,30805,12,2,32024,0:0:0:0:
