osu file format v14

[General]
AudioFilename: I Am Only a Man (feat. Disasterpeace).mp3
AudioLeadIn: 0
PreviewTime: 13020
Countdown: 0
SampleSet: Soft
StackLeniency: 0.7
Mode: 2
LetterboxInBreaks: 0
WidescreenStoryboard: 0

[Editor]
Bookmarks: 5707
DistanceSpacing: 2
BeatDivisor: 4
GridSize: 8
TimelineZoom: 1.200001

[Metadata]
Title:I Am Only a Man
TitleUnicode:I Am Only a Man
Artist:Disasterpeace
ArtistUnicode:Disasterpeace
Creator:JamesHappy15
Version:Salad
Source:Bit.Trip Presents Runner2: Future Legend of Rhythm Alien
Tags:chiptune 8bit 8-bit Runner2 EP Gaijin Games newtoniorock8 - Magic Bomb -
BeatmapID:694996
BeatmapSetID:308662

[Difficulty]
HPDrainRate:5
CircleSize:3
OverallDifficulty:7
ApproachRate:7
SliderMultiplier:0.959999999999999
SliderTickRate:1

[Events]
//Background and Video events
0,0,"bg6mmS.jpg",0,0
//Break Periods
//Storyboard Layer 0 (Background)
//Storyboard Layer 1 (Fail)
//Storyboard Layer 2 (Pass)
//Storyboard Layer 3 (Foreground)
//Storyboard Sound Samples

[TimingPoints]
1020,375,4,2,0,43,1,0
10020,-100,4,2,0,43,0,1
13020,-100,4,2,0,43,0,0
16020,-100,4,2,0,43,0,1
19020,-100,4,2,0,43,0,0
31770,-100,4,2,0,43,0,0
31863,-100,4,2,0,5,0,0

[Colours]
Combo1 : 0,64,128
Combo2 : 40,122,162
Combo3 : 118,210,62
Combo4 : 128,128,64

[HitObjects]
384,192,1020,6,0,L|480:160,1,95.9999999999999,0|0,0:0|0:0,0:0:0:0:
128,192,1770,2,0,L|224:160,1,95.9999999999999,0|0,0:0|0:0,0:0:0:0:
384,192,2332,1,0,0:0:0:0:
384,192,2520,2,0,L|480:192,1,95.9999999999999,0|0,0:0|0:0,0:0:0:0:
160,192,3270,2,0,L|224:192,1,48,8|0,3:0|0:0,0:0:0:0:
384,192,3645,2,0,L|448:192,1,48,8|0,3:0|0:0,0:0:0:0:
224,192,4020,5,0,0:0:0:0:
416,192,4395,1,8,0:0:0:0:
128,192,4770,1,0,0:0:0:0:
320,192,5145,1,8,0:0:0:0:
32,192,5520,5,0,0:0:0:0:
128,192,5707,1,0,0:0:0:0:
224,192,5895,1,8,0:0:0:0:
128,192,6270,2,0,L|192:192,1,48,0|0,3:0|0:0,0:0:0:0:
288,192,6645,2,0,L|336:192,1,48,0|0,3:0|0:0,0:0:0:0:
111,138,7020,6,0,L|32:192,2,95.9999999999999,0|8|0,0:0|0:0|0:0,0:0:0:0:
256,192,8145,1,8,0:0:0:0:
512,192,8520,2,0,L|416:128,1,95.9999999999999,0|8,0:0|0:0,0:0:0:0:
192,192,9270,2,0,L|288:128,1,95.9999999999999,8|0,3:0|0:0,0:0:0:0:
0,192,10020,6,0,L|96:160,1,95.9999999999999,0|8,0:0|0:0,0:0:0:0:
416,192,10770,2,0,L|320:160|320:160,1,95.9999999999999,0|8,0:0|0:0,0:0:0:0:
96,192,11520,2,0,L|192:128,1,95.9999999999999,0|8,0:0|0:0,0:0:0:0:
480,192,12270,1,8,3:0:0:0:
352,192,12645,1,0,3:0:0:0:
96,192,13020,6,0,L|0:192,2,95.9999999999999,0|8|0,0:0|0:0|0:0,0:0:0:0:
352,192,14145,1,8,0:0:0:0:
256,192,14332,1,0,0:0:0:0:
160,192,14520,2,0,L|256:192,1,95.9999999999999,0|8,0:0|0:0,0:0:0:0:
416,192,15270,2,0,L|320:192,1,95.9999999999999,8|0,3:0|0:0,0:0:0:0:
0,192,16020,6,0,L|96:128,1,95.9999999999999,0|8,0:0|0:0,0:0:0:0:
416,192,16770,2,0,L|320:128,1,95.9999999999999,0|8,0:0|0:0,0:0:0:0:
96,192,17520,2,0,L|192:128,1,95.9999999999999,0|8,0:0|0:0,0:0:0:0:
512,192,18270,2,0,L|416:128,1,95.9999999999999,0|0,3:0|3:0,0:0:0:0:
128,192,19020,6,0,L|192:192,2,48,0|0|8,0:0|0:0|0:0,0:0:0:0:
256,192,19582,1,0,0:0:0:0:
384,192,19770,2,0,L|448:96,1,95.9999999999999,0|8,0:0|0:0,0:0:0:0:
96,192,20520,2,0,L|160:96,1,95.9999999999999,0|8,0:0|0:0,0:0:0:0:
448,192,21270,2,0,L|384:96,1,95.9999999999999,0|0,0:0|0:0,0:0:0:0:
160,192,22020,6,0,L|64:192,2,95.9999999999999,0|8|0,0:0|0:0|0:0,0:0:0:0:
352,192,23145,1,8,0:0:0:0:
160,192,23520,2,0,L|96:96,1,95.9999999999999,0|8,0:0|0:0,0:0:0:0:
408,192,24270,2,0,B|392:168|488:168|304:144|512:128|304:112|504:112|352:96|408:96,1,95.9999999999999,0|8,0:0|0:0,0:0:0:0:
192,256,25020,6,0,L|256:256,2,48,0|0|8,0:0|0:0|0:0,0:0:0:0:
128,192,25770,1,0,0:0:0:0:
256,192,25957,1,0,0:0:0:0:
128,192,26145,1,8,0:0:0:0:
256,192,26332,1,0,0:0:0:0:
320,192,26520,6,0,L|320:96,1,95.9999999999999,0|0,3:0|0:0,0:0:0:0:
56,192,27270,2,0,B|40:168|136:168|-48:144|160:128|-48:112|152:112|0:96|56:96,1,95.9999999999999,8|0,3:0|0:0,0:0:0:0:
224,192,28020,2,0,L|320:192,2,95.9999999999999,0|8|0,0:0|0:0|3:0,0:0:0:0:
96,192,29145,1,0,3:0:0:0:
352,192,29520,6,0,L|448:192,1,95.9999999999999,0|8,0:0|0:0,0:0:0:0:
176,192,30270,2,0,B|160:168|256:168|72:144|280:128|72:112|272:112|120:96|176:96,1,95.9999999999999,0|0,0:0|0:0,0:0:0:0:
320,288,31020,2,0,L|384:288,1,48,0|0,3:0|3:0,0:0:0:0:
192,288,31395,2,0,L|128:288,1,48,8|0,3:0|3:0,0:0:0:0:
256,192,31770,12,0,33270,0:0:0:0:
