osu file format v14

[General]
AudioFilename: I Am Only a Man (feat. Disasterpeace).mp3
AudioLeadIn: 0
PreviewTime: 13020
Countdown: 0
SampleSet: Normal
StackLeniency: 0.7
Mode: 3
LetterboxInBreaks: 0
SpecialStyle: 1
WidescreenStoryboard: 0

[Editor]
DistanceSpacing: 2
BeatDivisor: 4
GridSize: 4
TimelineZoom: 1.200001

[Metadata]
Title:I Am Only a Man
TitleUnicode:I Am Only a Man
Artist:Disasterpeace
ArtistUnicode:Disasterpeace
Creator:JamesHappy15
Version:9K Hyper
Source:Bit.Trip Presents Runner2: Future Legend of Rhythm Alien
Tags:chiptune 8bit 8-bit Runner2 EP Gaijin Games newtoniorock8 - Magic Bomb -
BeatmapID:694190
BeatmapSetID:308662

[Difficulty]
HPDrainRate:8.5
CircleSize:9
OverallDifficulty:9
ApproachRate:9
SliderMultiplier:1.76
SliderTickRate:1

[Events]
//Background and Video events
0,0,"bg6mmS.jpg",0,0
//Break Periods
//Storyboard Layer 0 (Background)
//Storyboard Layer 1 (Fail)
//Storyboard Layer 2 (Pass)
//Storyboard Layer 3 (Foreground)
//Storyboard Sound Samples

[TimingPoints]
1020,375,4,2,0,40,1,0
4020,-100,4,2,0,40,0,0
4207,-100,4,2,0,40,0,0
10020,-100,4,2,0,40,0,1
13020,-100,4,2,0,40,0,0
13207,-100,4,2,0,40,0,0
16020,-100,4,2,0,40,0,1
19020,-100,4,2,0,40,0,0
19207,-100,4,2,0,40,0,0
31770,-100,4,1,0,20,0,0

[HitObjects]
142,192,1020,5,0,0:0:0:0:
28,192,1020,1,0,0:0:0:0:
199,192,1207,1,0,0:0:0:0:
312,192,1207,1,0,0:0:0:0:
369,192,1395,1,0,0:0:0:0:
483,192,1395,1,0,0:0:0:0:
85,192,1582,1,0,0:0:0:0:
199,192,1582,1,0,0:0:0:0:
426,192,1770,1,0,0:0:0:0:
312,192,1770,1,0,0:0:0:0:
28,192,2332,1,0,0:0:0:0:
483,192,2332,1,0,0:0:0:0:
28,192,2520,1,0,0:0:0:0:
483,192,2520,1,0,0:0:0:0:
96,192,3082,1,0,0:0:0:0:
224,192,3145,1,0,0:0:0:0:
426,192,3207,1,0,0:0:0:0:
312,192,3270,1,0,0:0:0:0:
142,192,3645,1,0,0:0:0:0:
256,192,3645,1,0,0:0:0:0:
369,192,3645,1,0,0:0:0:0:
28,192,4020,1,0,0:0:0:0:
85,192,4020,1,0,0:0:0:0:
199,192,4020,1,0,0:0:0:0:
483,192,4207,1,0,0:0:0:0:
369,192,4207,1,0,0:0:0:0:
256,192,4395,1,0,0:0:0:0:
85,192,4395,1,0,0:0:0:0:
199,192,4395,1,0,0:0:0:0:
142,192,4582,1,0,0:0:0:0:
28,192,4582,1,0,0:0:0:0:
312,192,4770,1,0,0:0:0:0:
416,192,4770,1,0,0:0:0:0:
85,192,4957,1,0,0:0:0:0:
199,192,4957,1,0,0:0:0:0:
369,192,5145,1,0,0:0:0:0:
312,192,5145,1,0,0:0:0:0:
483,192,5145,1,0,0:0:0:0:
256,192,5332,1,0,0:0:0:0:
142,192,5332,1,0,0:0:0:0:
483,192,5520,1,0,0:0:0:0:
369,192,5520,1,0,0:0:0:0:
199,192,5707,1,0,0:0:0:0:
85,192,5707,1,0,0:0:0:0:
312,192,5895,1,0,0:0:0:0:
426,192,5895,1,0,0:0:0:0:
256,192,5895,1,0,0:0:0:0:
28,192,6082,1,0,0:0:0:0:
142,192,6082,1,0,0:0:0:0:
483,192,6270,1,0,0:0:0:0:
369,192,6270,1,0,0:0:0:0:
256,192,6645,1,0,0:0:0:0:
199,192,6645,1,0,0:0:0:0:
312,192,6645,1,0,0:0:0:0:
28,192,7020,1,0,0:0:0:0:
142,192,7020,1,0,0:0:0:0:
369,192,7207,1,0,0:0:0:0:
483,192,7207,1,0,0:0:0:0:
199,192,7395,1,0,0:0:0:0:
256,192,7395,1,0,0:0:0:0:
85,192,7395,1,0,0:0:0:0:
426,192,7582,1,0,0:0:0:0:
312,192,7582,1,0,0:0:0:0:
142,192,7770,1,0,0:0:0:0:
256,192,7770,1,0,0:0:0:0:
369,192,8145,1,0,0:0:0:0:
199,192,8145,1,0,0:0:0:0:
312,192,8145,1,0,0:0:0:0:
28,192,8332,1,0,0:0:0:0:
142,192,8332,1,0,0:0:0:0:
483,192,8520,1,0,0:0:0:0:
369,192,8520,1,0,0:0:0:0:
312,192,8895,1,0,0:0:0:0:
256,192,8895,1,0,0:0:0:0:
224,192,8895,1,0,0:0:0:0:
460,192,9082,1,0,0:0:0:0:
426,192,9145,1,0,0:0:0:0:
28,192,9207,1,0,0:0:0:0:
85,192,9270,1,0,0:0:0:0:
369,192,9645,1,0,0:0:0:0:
256,192,9645,1,0,0:0:0:0:
142,192,9645,1,0,0:0:0:0:
85,192,10020,1,0,0:0:0:0:
199,192,10020,1,0,0:0:0:0:
256,192,10113,1,0,0:0:0:0:
369,192,10207,1,0,0:0:0:0:
483,192,10207,1,0,0:0:0:0:
28,192,10301,1,0,0:0:0:0:
256,192,10395,1,0,0:0:0:0:
85,192,10395,1,0,0:0:0:0:
199,192,10395,1,0,0:0:0:0:
312,192,10488,1,0,0:0:0:0:
369,192,10582,1,0,0:0:0:0:
483,192,10582,1,0,0:0:0:0:
85,192,10676,1,0,0:0:0:0:
142,192,10770,1,0,0:0:0:0:
312,192,10770,1,0,0:0:0:0:
369,192,10863,1,0,0:0:0:0:
28,192,10957,1,0,0:0:0:0:
426,192,10957,1,0,0:0:0:0:
142,192,11051,1,0,0:0:0:0:
199,192,11145,1,0,0:0:0:0:
369,192,11145,1,0,0:0:0:0:
312,192,11145,1,0,0:0:0:0:
426,192,11238,1,0,0:0:0:0:
28,192,11332,1,0,0:0:0:0:
256,192,11332,1,0,0:0:0:0:
369,192,11426,1,0,0:0:0:0:
312,192,11520,1,0,0:0:0:0:
142,192,11520,1,0,0:0:0:0:
85,192,11613,1,0,0:0:0:0:
369,192,11707,1,0,0:0:0:0:
483,192,11707,1,0,0:0:0:0:
312,192,11801,1,0,0:0:0:0:
85,192,11895,1,0,0:0:0:0:
256,192,11895,1,0,0:0:0:0:
199,192,11895,1,0,0:0:0:0:
28,192,11988,1,0,0:0:0:0:
483,192,12082,1,0,0:0:0:0:
369,192,12082,1,0,0:0:0:0:
256,192,12176,1,0,0:0:0:0:
142,192,12270,1,0,0:0:0:0:
199,192,12270,1,0,0:0:0:0:
28,192,12270,1,0,0:0:0:0:
256,192,12645,1,0,0:0:0:0:
142,192,12645,1,0,0:0:0:0:
369,192,12645,1,0,0:0:0:0:
142,192,13020,1,0,0:0:0:0:
96,192,13020,1,0,0:0:0:0:
312,192,13207,1,0,0:0:0:0:
369,192,13207,1,0,0:0:0:0:
199,192,13395,1,0,0:0:0:0:
142,192,13395,1,0,0:0:0:0:
256,192,13395,1,0,0:0:0:0:
426,192,13582,1,0,0:0:0:0:
369,192,13582,1,0,0:0:0:0:
85,192,13770,1,0,0:0:0:0:
28,192,13770,1,0,0:0:0:0:
199,192,14145,1,0,0:0:0:0:
312,192,14145,1,0,0:0:0:0:
256,192,14145,1,0,0:0:0:0:
85,192,14332,1,0,0:0:0:0:
28,192,14332,1,0,0:0:0:0:
426,192,14520,1,0,0:0:0:0:
460,192,14520,1,0,0:0:0:0:
199,192,14895,1,0,0:0:0:0:
312,192,14895,1,0,0:0:0:0:
256,192,14895,1,0,0:0:0:0:
483,192,15082,1,0,0:0:0:0:
426,192,15145,1,0,0:0:0:0:
369,192,15207,1,0,0:0:0:0:
312,192,15270,1,0,0:0:0:0:
256,192,15270,1,0,0:0:0:0:
85,192,15645,1,0,0:0:0:0:
142,192,15645,1,0,0:0:0:0:
28,192,15645,1,0,0:0:0:0:
85,192,16020,1,0,0:0:0:0:
199,192,16020,1,0,0:0:0:0:
369,192,16020,1,0,0:0:0:0:
256,192,16113,1,0,0:0:0:0:
426,192,16207,1,0,0:0:0:0:
312,192,16207,1,0,0:0:0:0:
483,192,16301,1,0,0:0:0:0:
28,192,16395,1,0,0:0:0:0:
312,192,16395,1,0,0:0:0:0:
142,192,16395,1,0,0:0:0:0:
199,192,16488,1,0,0:0:0:0:
256,192,16582,1,0,0:0:0:0:
369,192,16582,1,0,0:0:0:0:
426,192,16676,1,0,0:0:0:0:
483,192,16770,1,0,0:0:0:0:
85,192,16770,1,0,0:0:0:0:
142,192,16863,1,0,0:0:0:0:
199,192,16957,1,0,0:0:0:0:
312,192,16957,1,0,0:0:0:0:
369,192,17051,1,0,0:0:0:0:
426,192,17145,1,0,0:0:0:0:
28,192,17145,1,0,0:0:0:0:
199,192,17145,1,0,0:0:0:0:
256,192,17238,1,0,0:0:0:0:
312,192,17332,1,0,0:0:0:0:
85,192,17332,1,0,0:0:0:0:
142,192,17426,1,0,0:0:0:0:
369,192,17520,1,0,0:0:0:0:
199,192,17520,1,0,0:0:0:0:
312,192,17613,1,0,0:0:0:0:
256,192,17707,1,0,0:0:0:0:
483,192,17707,1,0,0:0:0:0:
426,192,17801,1,0,0:0:0:0:
369,192,17895,1,0,0:0:0:0:
199,192,17895,1,0,0:0:0:0:
28,192,17895,1,0,0:0:0:0:
142,192,17988,1,0,0:0:0:0:
312,192,18082,1,0,0:0:0:0:
85,192,18082,1,0,0:0:0:0:
256,192,18176,1,0,0:0:0:0:
142,192,18270,1,0,0:0:0:0:
199,192,18270,1,0,0:0:0:0:
426,192,18270,1,0,0:0:0:0:
256,192,18645,1,0,0:0:0:0:
199,192,18645,1,0,0:0:0:0:
312,192,18645,1,0,0:0:0:0:
426,192,19020,1,0,0:0:0:0:
483,192,19020,1,0,0:0:0:0:
85,192,19207,1,0,0:0:0:0:
142,192,19207,1,0,0:0:0:0:
312,192,19395,1,0,0:0:0:0:
199,192,19395,1,0,0:0:0:0:
256,192,19395,1,0,0:0:0:0:
426,192,19582,1,0,0:0:0:0:
369,192,19582,1,0,0:0:0:0:
85,192,19770,1,0,0:0:0:0:
28,192,19770,1,0,0:0:0:0:
426,192,19957,1,0,0:0:0:0:
483,192,19957,1,0,0:0:0:0:
256,192,20145,1,0,0:0:0:0:
312,192,20145,1,0,0:0:0:0:
199,192,20145,1,0,0:0:0:0:
85,192,20332,1,0,0:0:0:0:
142,192,20332,1,0,0:0:0:0:
369,192,20520,1,0,0:0:0:0:
426,192,20520,1,0,0:0:0:0:
256,192,20895,1,0,0:0:0:0:
312,192,20895,1,0,0:0:0:0:
199,192,20895,1,0,0:0:0:0:
483,192,21082,1,0,0:0:0:0:
426,192,21145,1,0,0:0:0:0:
369,192,21207,1,0,0:0:0:0:
256,192,21270,1,0,0:0:0:0:
312,192,21270,1,0,0:0:0:0:
256,192,21645,1,0,0:0:0:0:
142,192,21645,1,0,0:0:0:0:
199,192,21645,1,0,0:0:0:0:
28,192,22020,1,0,0:0:0:0:
142,192,22020,1,0,0:0:0:0:
369,192,22207,1,0,0:0:0:0:
483,192,22207,1,0,0:0:0:0:
256,192,22395,1,0,0:0:0:0:
142,192,22395,1,0,0:0:0:0:
369,192,22395,1,0,0:0:0:0:
199,192,22582,1,0,0:0:0:0:
85,192,22582,1,0,0:0:0:0:
312,192,22770,1,0,0:0:0:0:
426,192,22770,1,0,0:0:0:0:
369,192,23145,1,0,0:0:0:0:
142,192,23145,1,0,0:0:0:0:
256,192,23145,1,0,0:0:0:0:
28,192,23332,1,0,0:0:0:0:
85,192,23332,1,0,0:0:0:0:
460,192,23520,1,0,0:0:0:0:
426,192,23520,1,0,0:0:0:0:
369,192,23707,1,0,0:0:0:0:
256,192,23895,1,0,0:0:0:0:
312,192,23895,1,0,0:0:0:0:
199,192,23895,1,0,0:0:0:0:
28,192,24082,1,0,0:0:0:0:
85,192,24145,1,0,0:0:0:0:
142,192,24207,1,0,0:0:0:0:
199,192,24270,1,0,0:0:0:0:
369,192,24270,1,0,0:0:0:0:
199,192,24645,1,0,0:0:0:0:
256,192,24645,1,0,0:0:0:0:
288,192,24645,1,0,0:0:0:0:
483,192,25020,1,0,0:0:0:0:
426,192,25020,1,0,0:0:0:0:
28,192,25207,1,0,0:0:0:0:
85,192,25207,1,0,0:0:0:0:
256,192,25395,1,0,0:0:0:0:
312,192,25395,1,0,0:0:0:0:
199,192,25395,1,0,0:0:0:0:
426,192,25582,1,0,0:0:0:0:
483,192,25582,1,0,0:0:0:0:
224,192,25770,1,0,0:0:0:0:
85,192,25770,1,0,0:0:0:0:
369,192,25957,1,0,0:0:0:0:
256,192,25957,1,0,0:0:0:0:
142,192,26145,1,0,0:0:0:0:
312,192,26145,1,0,0:0:0:0:
28,192,26145,1,0,0:0:0:0:
483,192,26332,1,0,0:0:0:0:
369,192,26332,1,0,0:0:0:0:
199,192,26520,1,0,0:0:0:0:
312,192,26520,1,0,0:0:0:0:
142,192,26895,1,0,0:0:0:0:
426,192,26895,1,0,0:0:0:0:
256,192,26895,1,0,0:0:0:0:
28,192,27082,1,0,0:0:0:0:
85,192,27145,1,0,0:0:0:0:
142,192,27207,1,0,0:0:0:0:
199,192,27270,1,0,0:0:0:0:
460,192,27270,1,0,0:0:0:0:
426,192,27645,1,0,0:0:0:0:
312,192,27645,1,0,0:0:0:0:
199,192,27645,1,0,0:0:0:0:
96,192,28020,1,0,0:0:0:0:
28,192,28020,1,0,0:0:0:0:
369,192,28207,1,0,0:0:0:0:
426,192,28207,1,0,0:0:0:0:
312,192,28395,1,0,0:0:0:0:
256,192,28395,1,0,0:0:0:0:
224,192,28395,1,0,0:0:0:0:
142,192,28582,1,0,0:0:0:0:
85,192,28582,1,0,0:0:0:0:
426,192,28770,1,0,0:0:0:0:
483,192,28770,1,0,0:0:0:0:
142,192,29145,1,0,0:0:0:0:
85,192,29145,1,0,0:0:0:0:
28,192,29145,1,0,0:0:0:0:
369,192,29520,1,0,0:0:0:0:
312,192,29520,1,0,0:0:0:0:
426,192,29520,1,0,0:0:0:0:
256,192,29895,1,0,0:0:0:0:
224,192,29895,1,0,0:0:0:0:
142,192,29895,1,0,0:0:0:0:
483,192,30082,1,0,0:0:0:0:
426,192,30145,1,0,0:0:0:0:
369,192,30207,1,0,0:0:0:0:
312,192,30270,1,0,0:0:0:0:
256,192,30270,1,0,0:0:0:0:
28,192,30457,1,0,0:0:0:0:
85,192,30457,1,0,0:0:0:0:
460,192,30645,1,0,0:0:0:0:
199,192,30645,1,0,0:0:0:0:
142,192,30645,1,0,0:0:0:0:
426,192,30707,1,0,0:0:0:0:
369,192,30770,1,0,0:0:0:0:
312,192,30832,1,0,0:0:0:0:
256,192,30895,1,0,0:0:0:0:
199,192,30957,1,0,0:0:0:0:
142,192,31020,1,0,0:0:0:0:
85,192,31020,1,0,0:0:0:0:
28,192,31020,1,0,0:0:0:0:
312,192,31207,1,0,0:0:0:0:
369,192,31207,1,0,0:0:0:0:
142,192,31395,1,0,0:0:0:0:
199,192,31395,1,0,0:0:0:0:
85,192,31395,1,0,0:0:0:0:
369,192,31582,1,0,0:0:0:0:
426,192,31582,1,0,0:0:0:0:
199,192,31770,1,4,0:0:0:0:
142,192,31770,1,4,0:0:0:0:
256,192,31770,1,4,0:0:0:0:
312,192,31770,1,0,0:0:0:0:
