osu file format v14

[General]
AudioFilename: I Am Only a Man (feat. Disasterpeace).mp3
AudioLeadIn: 0
PreviewTime: 13020
Countdown: 0
SampleSet: Soft
StackLeniency: 0.7
Mode: 3
LetterboxInBreaks: 0
SpecialStyle: 0
WidescreenStoryboard: 0

[Editor]
DistanceSpacing: 2
BeatDivisor: 6
GridSize: 4
TimelineZoom: 1.200001

[Metadata]
Title:I Am Only a Man
TitleUnicode:I Am Only a Man
Artist:Disasterpeace
ArtistUnicode:Disasterpeace
Creator:JamesHappy15
Version:8K Hyper
Source:Bit.Trip Presents Runner2: Future Legend of Rhythm Alien
Tags:chiptune 8bit 8-bit Runner2 EP Gaijin Games newtoniorock8 - Magic Bomb -
BeatmapID:692611
BeatmapSetID:308662

[Difficulty]
HPDrainRate:8.5
CircleSize:8
OverallDifficulty:9
ApproachRate:9
SliderMultiplier:1.76
SliderTickRate:1

[Events]
//Background and Video events
0,0,"bg6mmS.jpg",0,0
//Break Periods
//Storyboard Layer 0 (Background)
//Storyboard Layer 1 (Fail)
//Storyboard Layer 2 (Pass)
//Storyboard Layer 3 (Foreground)
//Storyboard Sound Samples

[TimingPoints]
1020,375,4,2,0,40,1,0
4020,-100,4,2,0,40,0,0
4207,-100,4,2,0,40,0,0
10020,-100,4,2,0,40,0,1
13020,-100,4,2,0,40,0,0
13207,-100,4,2,0,40,0,0
16020,-100,4,2,0,40,0,1
19020,-100,4,2,0,40,0,0
19207,-100,4,2,0,40,0,0
31770,-100,4,1,0,20,0,0

[HitObjects]
160,192,1020,5,0,0:0:0:0:
352,192,1020,1,0,0:0:0:0:
224,192,1207,1,0,0:0:0:0:
416,192,1207,1,0,0:0:0:0:
96,192,1395,1,0,0:0:0:0:
288,192,1395,1,0,0:0:0:0:
160,192,1582,1,0,0:0:0:0:
358,192,1582,1,0,0:0:0:0:
224,192,1770,1,0,0:0:0:0:
416,192,1770,1,0,0:0:0:0:
153,192,2332,1,0,0:0:0:0:
358,192,2332,1,0,0:0:0:0:
153,192,2520,1,0,0:0:0:0:
358,192,2520,1,0,0:0:0:0:
480,192,3082,1,0,0:0:0:0:
352,192,3145,1,0,0:0:0:0:
224,192,3207,1,0,0:0:0:0:
96,192,3270,1,0,0:0:0:0:
32,192,3645,1,0,0:0:0:0:
256,192,3645,1,0,0:0:0:0:
416,192,3645,1,0,0:0:0:0:
96,192,4020,1,0,0:0:0:0:
358,192,4020,1,0,0:0:0:0:
153,192,4020,1,0,0:0:0:0:
416,192,4207,1,0,0:0:0:0:
224,192,4207,1,0,0:0:0:0:
51,192,4395,1,0,0:0:0:0:
358,192,4395,1,0,0:0:0:0:
96,192,4395,1,0,0:0:0:0:
153,192,4582,1,0,0:0:0:0:
256,192,4582,1,0,0:0:0:0:
224,192,4770,1,0,0:0:0:0:
416,192,4770,1,0,0:0:0:0:
96,192,4957,1,0,0:0:0:0:
256,192,4957,1,0,0:0:0:0:
460,192,5145,1,0,0:0:0:0:
160,192,5145,1,0,0:0:0:0:
32,192,5145,1,0,0:0:0:0:
358,192,5332,1,0,0:0:0:0:
256,192,5332,1,0,0:0:0:0:
224,192,5520,1,0,0:0:0:0:
416,192,5520,1,0,0:0:0:0:
460,192,5707,1,0,0:0:0:0:
96,192,5707,1,0,0:0:0:0:
51,192,5895,1,0,0:0:0:0:
153,192,5895,1,0,0:0:0:0:
288,192,5895,1,0,0:0:0:0:
416,192,6082,1,0,0:0:0:0:
224,192,6082,1,0,0:0:0:0:
256,192,6270,1,0,0:0:0:0:
358,192,6270,1,0,0:0:0:0:
224,192,6645,1,0,0:0:0:0:
480,192,6645,1,0,0:0:0:0:
32,192,6645,1,0,0:0:0:0:
288,192,7020,1,0,0:0:0:0:
416,192,7020,1,0,0:0:0:0:
96,192,7020,1,0,0:0:0:0:
352,192,7207,1,0,0:0:0:0:
160,192,7207,1,0,0:0:0:0:
32,192,7395,1,0,0:0:0:0:
416,192,7395,1,0,0:0:0:0:
224,192,7395,1,0,0:0:0:0:
352,192,7582,1,0,0:0:0:0:
160,192,7582,1,0,0:0:0:0:
96,192,7770,1,0,0:0:0:0:
288,192,7770,1,0,0:0:0:0:
358,192,8145,1,0,0:0:0:0:
51,192,8145,1,0,0:0:0:0:
224,192,8145,1,0,0:0:0:0:
153,192,8332,1,0,0:0:0:0:
460,192,8332,1,0,0:0:0:0:
460,192,8520,1,0,0:0:0:0:
153,192,8520,1,0,0:0:0:0:
51,192,8895,1,0,0:0:0:0:
256,192,8895,1,0,0:0:0:0:
224,192,8895,1,0,0:0:0:0:
460,192,9082,1,0,0:0:0:0:
358,192,9145,1,0,0:0:0:0:
96,192,9207,1,0,0:0:0:0:
224,192,9270,1,0,0:0:0:0:
358,192,9645,1,0,0:0:0:0:
256,192,9645,1,0,0:0:0:0:
51,192,9645,1,0,0:0:0:0:
460,192,10020,1,0,0:0:0:0:
358,192,10020,1,0,0:0:0:0:
153,192,10020,1,0,0:0:0:0:
256,192,10113,1,0,0:0:0:0:
358,192,10207,1,0,0:0:0:0:
224,192,10207,1,0,0:0:0:0:
416,192,10301,1,0,0:0:0:0:
460,192,10395,1,0,0:0:0:0:
224,192,10395,1,0,0:0:0:0:
51,192,10395,1,0,0:0:0:0:
288,192,10488,1,0,0:0:0:0:
96,192,10582,1,0,0:0:0:0:
352,192,10582,1,0,0:0:0:0:
153,192,10676,1,0,0:0:0:0:
224,192,10770,1,0,0:0:0:0:
358,192,10770,1,0,0:0:0:0:
460,192,10770,1,0,0:0:0:0:
416,192,10863,1,0,0:0:0:0:
358,192,10957,1,0,0:0:0:0:
160,192,10957,1,0,0:0:0:0:
224,192,11051,1,0,0:0:0:0:
460,192,11145,1,0,0:0:0:0:
288,192,11145,1,0,0:0:0:0:
51,192,11145,1,0,0:0:0:0:
416,192,11238,1,0,0:0:0:0:
96,192,11332,1,0,0:0:0:0:
352,192,11332,1,0,0:0:0:0:
160,192,11426,1,0,0:0:0:0:
480,192,11520,1,0,0:0:0:0:
224,192,11520,1,0,0:0:0:0:
288,192,11520,1,0,0:0:0:0:
416,192,11613,1,0,0:0:0:0:
153,192,11707,1,0,0:0:0:0:
358,192,11707,1,0,0:0:0:0:
224,192,11801,1,0,0:0:0:0:
51,192,11895,1,0,0:0:0:0:
256,192,11895,1,0,0:0:0:0:
358,192,11895,1,0,0:0:0:0:
96,192,11988,1,0,0:0:0:0:
160,192,12082,1,0,0:0:0:0:
460,192,12082,1,0,0:0:0:0:
416,192,12176,1,0,0:0:0:0:
352,192,12270,1,0,0:0:0:0:
224,192,12270,1,0,0:0:0:0:
96,192,12270,1,0,0:0:0:0:
160,192,12645,1,0,0:0:0:0:
32,192,12645,1,0,0:0:0:0:
288,192,12645,1,0,0:0:0:0:
224,192,13020,1,0,0:0:0:0:
96,192,13020,1,0,0:0:0:0:
153,192,13207,1,0,0:0:0:0:
288,192,13207,1,0,0:0:0:0:
51,192,13395,1,0,0:0:0:0:
480,192,13395,1,0,0:0:0:0:
352,192,13395,1,0,0:0:0:0:
288,192,13582,1,0,0:0:0:0:
416,192,13582,1,0,0:0:0:0:
224,192,13770,1,0,0:0:0:0:
352,192,13770,1,0,0:0:0:0:
51,192,14145,1,0,0:0:0:0:
153,192,14145,1,0,0:0:0:0:
256,192,14145,1,0,0:0:0:0:
460,192,14332,1,0,0:0:0:0:
224,192,14332,1,0,0:0:0:0:
224,192,14520,1,0,0:0:0:0:
460,192,14520,1,0,0:0:0:0:
96,192,14895,1,0,0:0:0:0:
51,192,14895,1,0,0:0:0:0:
256,192,14895,1,0,0:0:0:0:
416,192,15082,1,0,0:0:0:0:
358,192,15145,1,0,0:0:0:0:
256,192,15207,1,0,0:0:0:0:
224,192,15270,1,0,0:0:0:0:
153,192,15270,1,0,0:0:0:0:
224,192,15645,1,0,0:0:0:0:
256,192,15645,1,0,0:0:0:0:
32,192,15645,1,0,0:0:0:0:
358,192,16020,1,0,0:0:0:0:
153,192,16020,1,0,0:0:0:0:
460,192,16020,1,0,0:0:0:0:
256,192,16113,1,0,0:0:0:0:
460,192,16207,1,0,0:0:0:0:
224,192,16207,1,0,0:0:0:0:
416,192,16301,1,0,0:0:0:0:
224,192,16395,1,0,0:0:0:0:
358,192,16395,1,0,0:0:0:0:
51,192,16395,1,0,0:0:0:0:
288,192,16488,1,0,0:0:0:0:
96,192,16582,1,0,0:0:0:0:
352,192,16582,1,0,0:0:0:0:
160,192,16676,1,0,0:0:0:0:
224,192,16770,1,0,0:0:0:0:
416,192,16770,1,0,0:0:0:0:
288,192,16770,1,0,0:0:0:0:
352,192,16863,1,0,0:0:0:0:
256,192,16957,1,0,0:0:0:0:
96,192,16957,1,0,0:0:0:0:
160,192,17051,1,0,0:0:0:0:
224,192,17145,1,0,0:0:0:0:
51,192,17145,1,0,0:0:0:0:
460,192,17145,1,0,0:0:0:0:
416,192,17238,1,0,0:0:0:0:
224,192,17332,1,0,0:0:0:0:
352,192,17332,1,0,0:0:0:0:
160,192,17426,1,0,0:0:0:0:
96,192,17520,1,0,0:0:0:0:
256,192,17520,1,0,0:0:0:0:
460,192,17520,1,0,0:0:0:0:
416,192,17613,1,0,0:0:0:0:
352,192,17707,1,0,0:0:0:0:
160,192,17707,1,0,0:0:0:0:
224,192,17801,1,0,0:0:0:0:
352,192,17895,1,0,0:0:0:0:
256,192,17895,1,0,0:0:0:0:
51,192,17895,1,0,0:0:0:0:
416,192,17988,1,0,0:0:0:0:
460,192,18082,1,0,0:0:0:0:
224,192,18082,1,0,0:0:0:0:
256,192,18176,1,0,0:0:0:0:
358,192,18270,1,0,0:0:0:0:
460,192,18270,1,0,0:0:0:0:
160,192,18270,1,0,0:0:0:0:
256,192,18645,1,0,0:0:0:0:
51,192,18645,1,0,0:0:0:0:
153,192,18645,1,0,0:0:0:0:
224,192,19020,1,0,0:0:0:0:
416,192,19020,1,0,0:0:0:0:
460,192,19020,1,0,0:0:0:0:
153,192,19207,1,0,0:0:0:0:
358,192,19207,1,0,0:0:0:0:
256,192,19395,1,0,0:0:0:0:
96,192,19395,1,0,0:0:0:0:
32,192,19395,1,0,0:0:0:0:
358,192,19582,1,0,0:0:0:0:
153,192,19582,1,0,0:0:0:0:
416,192,19770,1,0,0:0:0:0:
224,192,19770,1,0,0:0:0:0:
288,192,19957,1,0,0:0:0:0:
153,192,20145,1,0,0:0:0:0:
358,192,20145,1,0,0:0:0:0:
32,192,20145,1,0,0:0:0:0:
256,192,20332,1,0,0:0:0:0:
416,192,20332,1,0,0:0:0:0:
256,192,20520,1,0,0:0:0:0:
416,192,20520,1,0,0:0:0:0:
153,192,20895,1,0,0:0:0:0:
480,192,20895,1,0,0:0:0:0:
32,192,20895,1,0,0:0:0:0:
352,192,21082,1,0,0:0:0:0:
288,192,21145,1,0,0:0:0:0:
224,192,21207,1,0,0:0:0:0:
416,192,21270,1,0,0:0:0:0:
153,192,21270,1,0,0:0:0:0:
358,192,21645,1,0,0:0:0:0:
460,192,21645,1,0,0:0:0:0:
32,192,21645,1,0,0:0:0:0:
96,192,22020,1,0,0:0:0:0:
288,192,22020,1,0,0:0:0:0:
160,192,22207,1,0,0:0:0:0:
352,192,22207,1,0,0:0:0:0:
416,192,22395,1,0,0:0:0:0:
32,192,22395,1,0,0:0:0:0:
224,192,22395,1,0,0:0:0:0:
288,192,22582,1,0,0:0:0:0:
96,192,22582,1,0,0:0:0:0:
160,192,22770,1,0,0:0:0:0:
352,192,22770,1,0,0:0:0:0:
288,192,22957,1,0,0:0:0:0:
358,192,23145,1,0,0:0:0:0:
51,192,23145,1,0,0:0:0:0:
224,192,23145,1,0,0:0:0:0:
153,192,23332,1,0,0:0:0:0:
460,192,23332,1,0,0:0:0:0:
460,192,23520,1,0,0:0:0:0:
153,192,23520,1,0,0:0:0:0:
224,192,23707,1,0,0:0:0:0:
256,192,23895,1,0,0:0:0:0:
358,192,23895,1,0,0:0:0:0:
32,192,23895,1,0,0:0:0:0:
96,192,24082,1,0,0:0:0:0:
153,192,24145,1,0,0:0:0:0:
416,192,24207,1,0,0:0:0:0:
358,192,24270,1,0,0:0:0:0:
224,192,24270,1,0,0:0:0:0:
153,192,24645,1,0,0:0:0:0:
51,192,24645,1,0,0:0:0:0:
288,192,24645,1,0,0:0:0:0:
96,192,25020,1,0,0:0:0:0:
256,192,25020,1,0,0:0:0:0:
153,192,25207,1,0,0:0:0:0:
358,192,25207,1,0,0:0:0:0:
51,192,25395,1,0,0:0:0:0:
256,192,25395,1,0,0:0:0:0:
96,192,25395,1,0,0:0:0:0:
358,192,25582,1,0,0:0:0:0:
153,192,25582,1,0,0:0:0:0:
224,192,25770,1,0,0:0:0:0:
416,192,25770,1,0,0:0:0:0:
358,192,25957,1,0,0:0:0:0:
153,192,25957,1,0,0:0:0:0:
51,192,26145,1,0,0:0:0:0:
256,192,26145,1,0,0:0:0:0:
96,192,26145,1,0,0:0:0:0:
153,192,26332,1,0,0:0:0:0:
358,192,26332,1,0,0:0:0:0:
224,192,26520,1,0,0:0:0:0:
416,192,26520,1,0,0:0:0:0:
352,192,26707,1,0,0:0:0:0:
480,192,26895,1,0,0:0:0:0:
32,192,26895,1,0,0:0:0:0:
256,192,26895,1,0,0:0:0:0:
160,192,27082,1,0,0:0:0:0:
224,192,27145,1,0,0:0:0:0:
256,192,27207,1,0,0:0:0:0:
358,192,27270,1,0,0:0:0:0:
460,192,27270,1,0,0:0:0:0:
51,192,27645,1,0,0:0:0:0:
153,192,27645,1,0,0:0:0:0:
256,192,27645,1,0,0:0:0:0:
96,192,28020,1,0,0:0:0:0:
224,192,28020,1,0,0:0:0:0:
288,192,28207,1,0,0:0:0:0:
153,192,28207,1,0,0:0:0:0:
352,192,28395,1,0,0:0:0:0:
51,192,28395,1,0,0:0:0:0:
224,192,28395,1,0,0:0:0:0:
288,192,28582,1,0,0:0:0:0:
416,192,28582,1,0,0:0:0:0:
460,192,28770,1,0,0:0:0:0:
352,192,28770,1,0,0:0:0:0:
288,192,29145,1,0,0:0:0:0:
224,192,29145,1,0,0:0:0:0:
32,192,29145,1,0,0:0:0:0:
460,192,29520,1,0,0:0:0:0:
153,192,29520,1,0,0:0:0:0:
416,192,29520,1,0,0:0:0:0:
256,192,29895,1,0,0:0:0:0:
224,192,29895,1,0,0:0:0:0:
32,192,29895,1,0,0:0:0:0:
416,192,30082,1,0,0:0:0:0:
358,192,30145,1,0,0:0:0:0:
256,192,30207,1,0,0:0:0:0:
224,192,30270,1,0,0:0:0:0:
96,192,30270,1,0,0:0:0:0:
416,192,30457,1,0,0:0:0:0:
256,192,30457,1,0,0:0:0:0:
480,192,30645,1,0,0:0:0:0:
224,192,30645,1,0,0:0:0:0:
32,192,30645,1,0,0:0:0:0:
160,192,30707,1,0,0:0:0:0:
96,192,30770,1,0,0:0:0:0:
416,192,30832,1,0,0:0:0:0:
352,192,30895,1,0,0:0:0:0:
288,192,30957,1,0,0:0:0:0:
224,192,31020,1,0,0:0:0:0:
460,192,31020,1,0,0:0:0:0:
96,192,31020,1,0,0:0:0:0:
153,192,31207,1,0,0:0:0:0:
256,192,31207,1,0,0:0:0:0:
352,192,31395,1,0,0:0:0:0:
460,192,31395,1,0,0:0:0:0:
32,192,31395,1,0,0:0:0:0:
224,192,31582,1,0,0:0:0:0:
96,192,31582,1,0,0:0:0:0:
288,192,31770,1,4,0:0:0:0:
32,192,31770,1,4,0:0:0:0:
460,192,31770,1,4,0:0:0:0:
416,192,31770,1,0,0:0:0:0:
