osu file format v14

[General]
AudioFilename: I Am Only a Man (feat. Disasterpeace).mp3
AudioLeadIn: 0
PreviewTime: 13020
Countdown: 0
SampleSet: Soft
StackLeniency: 0.7
Mode: 3
LetterboxInBreaks: 0
SpecialStyle: 0
WidescreenStoryboard: 1

[Editor]
DistanceSpacing: 2
BeatDivisor: 4
GridSize: 4
TimelineZoom: 1.200001

[Metadata]
Title:I Am Only a Man
TitleUnicode:I Am Only a Man
Artist:Disasterpeace
ArtistUnicode:Disasterpeace
Creator:JamesHappy15
Version:8K Beginner
Source:Bit.Trip Presents Runner2: Future Legend of Rhythm Alien
Tags:chiptune 8bit 8-bit Runner2 EP Gaijin Games newtoniorock8 - Magic Bomb -
BeatmapID:0
BeatmapSetID:308662

[Difficulty]
HPDrainRate:7
CircleSize:8
OverallDifficulty:7
ApproachRate:9
SliderMultiplier:1.76
SliderTickRate:1

[Events]
//Background and Video events
0,0,"bg6mmS.jpg",0,0
//Break Periods
//Storyboard Layer 0 (Background)
//Storyboard Layer 1 (Fail)
//Storyboard Layer 2 (Pass)
//Storyboard Layer 3 (Foreground)
//Storyboard Sound Samples

[TimingPoints]
1020,375,4,2,0,40,1,0
4020,-100,4,2,0,40,0,0
4207,-100,4,2,0,40,0,0
10020,-100,4,2,0,40,0,1
13020,-100,4,2,0,40,0,0
13207,-100,4,2,0,40,0,0
16020,-100,4,2,0,40,0,1
19020,-100,4,2,0,40,0,0
19207,-100,4,2,0,40,0,0
31770,-100,4,1,0,20,0,0

[HitObjects]
28,192,1020,5,0,0:0:0:0:
142,192,1395,1,0,0:0:0:0:
256,192,1770,1,0,0:0:0:0:
460,192,2520,1,0,0:0:0:0:
369,192,3270,1,0,0:0:0:0:
224,192,3645,1,0,0:0:0:0:
28,192,4020,1,0,0:0:0:0:
142,192,4395,1,0,0:0:0:0:
369,192,4770,1,0,0:0:0:0:
483,192,5145,1,0,0:0:0:0:
199,192,5520,1,0,0:0:0:0:
85,192,5895,1,0,0:0:0:0:
426,192,6270,1,0,0:0:0:0:
312,192,6645,1,0,0:0:0:0:
32,192,7020,1,0,0:0:0:0:
160,192,7395,1,0,0:0:0:0:
312,192,7770,1,0,0:0:0:0:
426,192,8145,1,0,0:0:0:0:
96,192,8520,1,0,0:0:0:0:
224,192,8895,1,0,0:0:0:0:
369,192,9270,1,0,0:0:0:0:
483,192,9645,1,0,0:0:0:0:
288,192,10020,1,0,0:0:0:0:
28,192,10395,1,0,0:0:0:0:
352,192,10770,1,0,0:0:0:0:
85,192,11145,1,0,0:0:0:0:
416,192,11520,1,0,0:0:0:0:
142,192,11895,1,0,0:0:0:0:
480,192,12270,1,0,0:0:0:0:
224,192,12645,1,0,0:0:0:0:
28,192,13020,1,0,0:0:0:0:
85,192,13395,1,0,0:0:0:0:
142,192,13770,1,0,0:0:0:0:
483,192,14145,1,0,0:0:0:0:
426,192,14520,1,0,0:0:0:0:
369,192,14895,1,0,0:0:0:0:
142,192,15270,1,0,0:0:0:0:
28,192,15645,1,0,0:0:0:0:
256,192,16020,1,0,0:0:0:0:
483,192,16395,1,0,0:0:0:0:
199,192,16770,1,0,0:0:0:0:
426,192,17145,1,0,0:0:0:0:
142,192,17520,1,0,0:0:0:0:
369,192,17895,1,0,0:0:0:0:
85,192,18270,1,0,0:0:0:0:
312,192,18645,1,0,0:0:0:0:
28,192,19020,1,0,0:0:0:0:
312,192,19395,1,0,0:0:0:0:
85,192,19770,1,0,0:0:0:0:
369,192,20145,1,0,0:0:0:0:
142,192,20520,1,0,0:0:0:0:
426,192,20895,1,0,0:0:0:0:
199,192,21270,1,0,0:0:0:0:
483,192,21645,1,0,0:0:0:0:
256,192,22020,1,0,0:0:0:0:
483,192,22395,1,0,0:0:0:0:
199,192,22770,1,0,0:0:0:0:
426,192,23145,1,0,0:0:0:0:
142,192,23520,1,0,0:0:0:0:
369,192,23895,1,0,0:0:0:0:
85,192,24270,1,0,0:0:0:0:
312,192,24645,1,0,0:0:0:0:
28,192,25020,1,0,0:0:0:0:
153,192,25395,1,0,0:0:0:0:
256,192,25770,1,0,0:0:0:0:
85,192,26145,1,0,0:0:0:0:
199,192,26520,1,0,0:0:0:0:
352,192,26895,1,0,0:0:0:0:
480,192,27270,1,0,0:0:0:0:
256,192,27645,1,0,0:0:0:0:
28,192,28020,1,0,0:0:0:0:
199,192,28395,1,0,0:0:0:0:
416,192,28770,1,0,0:0:0:0:
96,192,29145,1,0,0:0:0:0:
480,192,29520,1,0,0:0:0:0:
288,192,29895,1,0,0:0:0:0:
85,192,30270,1,0,0:0:0:0:
256,192,30457,1,0,0:0:0:0:
256,192,30645,1,0,0:0:0:0:
28,192,31020,1,0,0:0:0:0:
224,192,31395,1,0,0:0:0:0:
426,192,31770,1,4,0:0:0:0:
480,192,31770,1,4,0:0:0:0:
