osu file format v13

[General]
AudioFilename: Disasterpeace - Deleterious Abscondee.mp3
AudioLeadIn: 0
PreviewTime: 4835
Countdown: 0
SampleSet: Soft
StackLeniency: 0.7
Mode: 0
LetterboxInBreaks: 1
WidescreenStoryboard: 1

[Editor]
DistanceSpacing: 1
BeatDivisor: 4
GridSize: 4
TimelineZoom: 1

[Metadata]
Title:Deleterious Abscondee
TitleUnicode:Deleterious Abscondee
Artist:Disasterpeace
ArtistUnicode:Disasterpeace
Creator:Timorisu
Version:Normal
Source:Bit.Trip Presents: Runner 2 - Future Legend of Rhythm Alien
Tags:cheesiest Priti Irreversible 8-bit 8bit bit platformer chiptune
BeatmapID:438583
BeatmapSetID:183003

[Difficulty]
HPDrainRate:4
CircleSize:3.5
OverallDifficulty:4
ApproachRate:5
SliderMultiplier:1.2
SliderTickRate:2

[Events]
//Background and Video events
0,0,"tit-trip-sprinter.png",0,0
//Break Periods
//Storyboard Layer 0 (Background)
//Storyboard Layer 1 (Fail)
//Storyboard Layer 2 (Pass)
//Storyboard Layer 3 (Foreground)
//Storyboard Sound Samples
//Background Colour Transformations
3,100,163,162,255

[TimingPoints]
335,375,6,2,1,25,1,0
13835,375,2,2,1,25,1,1
13835,-100,6,2,1,25,0,1
14585,375,4,2,1,25,1,0
14585,-100,6,2,1,25,0,0
16835,-100,6,2,1,25,0,1
17585,-100,6,2,1,25,0,0
22835,-100,6,2,1,25,0,1
23585,-100,6,2,1,25,0,0
25835,-100,6,2,1,25,0,1
26210,-100,6,2,1,25,0,0
28835,-100,6,2,2,25,0,0
29022,-100,6,2,3,25,0,0
29210,-100,6,2,1,25,0,0

[Colours]
Combo1 : 255,230,0
Combo2 : 144,0,255
Combo3 : 255,84,176
Combo4 : 0,195,160
Combo5 : 255,143,0

[HitObjects]
256,192,335,5,0,0:0:0:0:
316,296,710,1,8,0:0:0:0:
316,296,897,1,8,0:0:0:0:
316,296,1085,1,8,0:0:0:0:
396,132,1647,1,4,0:0:0:0:
333,30,2022,1,0,0:0:0:0:
256,192,2585,5,0,0:0:0:0:
196,296,2960,1,8,0:0:0:0:
196,296,3147,1,8,0:0:0:0:
196,296,3335,1,8,0:0:0:0:
116,132,3897,1,4,0:0:0:0:
176,30,4272,1,0,0:0:0:0:
256,192,4835,6,0,P|309:214|364:192,1,120,0|8,0:0|0:0,0:0:0:0:
448,107,5585,2,0,P|489:147|489:206,1,120,0|8,0:0|0:0,0:0:0:0:
464,260,6147,1,0,0:0:0:0:
436,312,6335,2,0,L|322:352,1,120,0|8,0:0|0:0,0:0:0:0:
256,252,7085,5,0,0:0:0:0:
189,352,7460,2,0,L|76:312,1,120,8|0,0:0|0:0,0:0:0:0:
20,204,8210,2,0,L|60:91,1,120,8|0,0:0|0:0,0:0:0:0:
180,108,8960,2,0,L|239:117,2,60,8|0|0,0:0|0:0|0:0,0:0:0:0:
143,224,9710,6,0,P|153:282|196:322,1,120,8|0,0:0|0:0,0:0:0:0:
315,322,10460,2,0,P|358:282|368:224,1,120,8|0,0:0|0:0,0:0:0:0:
332,108,11210,2,0,L|272:117,2,60,8|0|0,0:0|0:0|0:0,0:0:0:0:
448,136,11960,5,8,0:0:0:0:
368,224,12335,1,2,0:0:0:0:
256,192,12710,1,8,0:0:0:0:
143,224,13085,1,2,0:0:0:0:
64,136,13460,1,8,0:0:0:0:
24,248,13835,6,0,L|1:303,4,60,4|0|0|0|0,0:0|0:0|0:0|0:0|0:0,0:0:0:0:
64,136,14960,1,0,0:0:0:0:
92,80,15147,2,0,P|148:97|206:84,1,120,8|0,0:0|0:0,0:0:0:0:
256,52,15710,1,0,0:0:0:0:
305,84,15897,1,0,0:0:0:0:
420,80,16272,2,0,P|407:138|367:181,1,120
316,211,16835,2,0,P|292:230|277:256,4,60,8|12|0|0|8,0:0|0:0|0:0|0:0|0:0,0:0:0:0:
256,108,17960,5,0,0:0:0:0:
195,212,18335,2,0,P|146:239|76:233,1,120,8|0,0:0|0:0,0:0:0:0:
120,124,19085,2,0,P|167:96|235:100,1,120,8|0,0:0|0:0,0:0:0:0:
324,172,19835,2,0,L|373:206,2,60,8|0|0,0:0|0:0|0:0,0:0:0:0:
188,172,20585,6,0,L|138:206,3,60,8|0|0|2,0:0|0:0|0:0|0:0,0:0:0:0:
184,316,21522,1,2,0:0:0:0:
256,220,21897,1,2,0:0:0:0:
256,99,22272,2,0,P|290:52|348:39,1,120
408,44,22835,2,0,L|467:47,4,60,8|12|0|0|0,0:0|0:0|0:0|0:0|0:0,0:0:0:0:
396,164,23960,5,0,0:0:0:0:
377,284,24335,2,0,P|352:337|304:372,1,120,8|0,0:0|0:0,0:0:0:0:
256,256,25085,1,8,0:0:0:0:
206,365,25460,1,0,0:0:0:0:
132,284,25835,2,0,L|92:238,2,60,10|0|0,0:0|0:0|0:0,0:0:0:0:
180,179,26585,6,0,P|261:148|339:187,1,180,4|8,0:0|0:0,0:0:0:0:
420,276,27522,2,0,L|462:318,2,60,0|0|0,0:0|0:0|0:0,0:0:0:0:
340,188,28272,2,0,B|308:148|264:144|256:152|248:144|216:148|180:179|180:179|172:116|104:68|36:92,1,360
32,148,29585,6,0,L|17:206,3,60,2|2|0|2,0:0|0:0|0:0|0:0,0:0:0:0:
116,272,30522,2,0,L|101:330,1,60,2|2,0:0|0:0,0:0:0:0:
256,192,31085,12,0,32210,0:0:0:0:
256,192,32585,12,0,34272,0:0:0:0:
