osu file format v13

[General]
AudioFilename: Disasterpeace - Deleterious Abscondee.mp3
AudioLeadIn: 0
PreviewTime: 4835
Countdown: 0
SampleSet: Soft
StackLeniency: 0.7
Mode: 0
LetterboxInBreaks: 1
WidescreenStoryboard: 0

[Editor]
DistanceSpacing: 1
BeatDivisor: 4
GridSize: 4
TimelineZoom: 0.9

[Metadata]
Title:Deleterious Abscondee
TitleUnicode:Deleterious Abscondee
Artist:Disasterpeace
ArtistUnicode:Disasterpeace
Creator:Timorisu
Version:Hard
Source:Bit.Trip Presents: Runner 2 - Future Legend of Rhythm Alien
Tags:cheesiest Priti Irreversible 8-bit 8bit bit platformer chiptune
BeatmapID:438582
BeatmapSetID:183003

[Difficulty]
HPDrainRate:6
CircleSize:4
OverallDifficulty:6
ApproachRate:7
SliderMultiplier:1.6
SliderTickRate:2

[Events]
//Background and Video events
0,0,"tit-trip-sprinter.png",0,0
//Break Periods
//Storyboard Layer 0 (Background)
//Storyboard Layer 1 (Fail)
//Storyboard Layer 2 (Pass)
//Storyboard Layer 3 (Foreground)
//Storyboard Sound Samples
//Background Colour Transformations
3,100,163,162,255

[TimingPoints]
335,375,6,2,1,25,1,0
6710,-100,6,2,2,25,0,0
6803,-100,6,2,1,25,0,0
13835,375,2,2,1,25,1,1
13835,-100,6,2,1,25,0,1
14585,375,4,2,1,25,1,0
14585,-100,6,2,1,25,0,0
16835,-100,6,2,1,25,0,1
17585,-100,6,2,1,25,0,0
19085,-100,6,2,1,5,0,0
19272,-100,6,2,1,10,0,0
19460,-100,6,2,1,15,0,0
19647,-100,6,2,1,20,0,0
19835,-100,6,2,1,35,0,0
19881,-100,6,2,1,15,0,0
20022,-100,6,2,1,35,0,0
20069,-100,6,2,1,15,0,0
20210,-100,6,2,1,25,0,0
22835,-100,6,2,1,25,0,1
23585,-100,6,2,1,25,0,0
24335,-100,6,2,2,25,0,0
24428,-100,6,2,1,25,0,0
25085,-100,6,2,1,10,0,0
25366,-100,6,2,1,15,0,0
25647,-100,6,2,1,20,0,0
25835,-100,6,2,1,35,0,1
25881,-100,6,2,1,15,0,1
26022,-100,6,2,1,35,0,1
26069,-100,6,2,1,15,0,1
26210,-100,6,2,1,25,0,0
30335,-100,6,2,2,25,0,0
30428,-100,6,2,1,25,0,0

[Colours]
Combo1 : 255,230,0
Combo2 : 144,0,255
Combo3 : 255,84,176
Combo4 : 0,195,160
Combo5 : 255,143,0

[HitObjects]
256,192,335,5,0,0:0:0:0:
332,332,710,1,8,0:0:0:0:
256,360,897,1,8,0:0:0:0:
180,331,1085,2,0,P|200:261|149:199,1,160,8|0,0:0|0:0,0:0:0:0:
120,276,1647,1,4,0:0:0:0:
192,132,2022,2,0,P|266:151|324:101,1,160
248,71,2585,5,0,0:0:0:0:
396,132,2960,1,8,0:0:0:0:
440,200,3147,1,8,0:0:0:0:
396,268,3335,2,0,P|472:274|519:214,1,160,8|0,0:0|0:0,0:0:0:0:
440,200,3897,2,0,P|363:193|316:253,1,160,4|0,0:0|0:0,0:0:0:0:
304,332,4460,1,8,0:0:0:0:
240,284,4647,1,8,0:0:0:0:
176,236,4835,6,0,P|163:198|175:160,1,80
216,92,5210,2,0,P|227:54|215:16,1,80,10|2,0:0|0:0,0:0:0:0:
148,56,5585,2,0,L|10:137,1,160,0|8,0:0|0:0,0:0:0:0:
32,212,6147,1,0,0:0:0:0:
100,252,6335,1,0,0:0:0:0:
176,236,6522,2,0,P|253:236|299:298,1,160,0|0,0:0|0:0,0:0:0:0:
216,312,7085,5,0,0:0:0:0:
380,284,7460,2,0,L|458:268,1,80,10|2,0:0|0:0,0:0:0:0:
434,190,7835,2,0,P|400:122|437:55,1,160,0|8,0:0|0:0,0:0:0:0:
480,124,8397,1,0,0:0:0:0:
320,124,8772,1,0,0:0:0:0:
239,124,8960,2,0,L|199:124,4,40,2|0|2|0|2,0:0|0:0|0:0|0:0|0:0,0:0:0:0:
320,124,9710,6,0,P|311:162|284:191,1,80,10|2,0:0|0:0,0:0:0:0:
239,124,10085,2,0,P|275:56|351:50,1,160,0|8,0:0|0:0,0:0:0:0:
320,124,10647,2,0,P|284:191|208:197,1,160
160,132,11210,1,8,0:0:0:0:
128,204,11397,1,2,0:0:0:0:
128,204,11491,1,0,0:0:0:0:
128,204,11585,2,0,L|95:276,1,80,2|0,0:0|0:0,0:0:0:0:
152,336,11960,5,10,0:0:0:0:
232,336,12147,1,2,0:0:0:0:
288,276,12335,2,0,L|395:157,1,160,2|8,0:0|0:0,0:0:0:0:
476,155,12897,2,0,P|439:88|362:83,1,160
283,108,13460,2,0,P|244:113|208:98,1,80,8|0,0:0|0:0,0:0:0:0:
140,52,13835,5,2,0:0:0:0:
100,124,14022,1,2,0:0:0:0:
168,170,14210,1,0,0:0:0:0:
96,204,14397,1,2,0:0:0:0:
164,250,14585,6,0,P|203:244|232:217,1,80,4|0,0:0|0:0,0:0:0:0:
168,170,14960,1,0,0:0:0:0:
96,204,15147,2,0,B|76:232|76:272|104:312|104:312|104:364,1,160,8|0,0:0|0:0,0:0:0:0:
180,328,15710,1,0,0:0:0:0:
236,272,15897,2,0,P|203:250|164:249,1,80,2|0,0:0|0:0,2:0:0:0:
180,328,16272,5,2,0:0:0:0:
256,348,16460,1,2,0:0:0:0:
312,292,16647,1,2,0:0:0:0:
292,216,16835,6,0,L|271:138,1,80,8|12,0:0|0:0,0:0:0:0:
348,116,17210,2,0,L|368:193,1,80
388,268,17585,5,8,0:0:0:0:
312,292,17772,1,0,0:0:0:0:
372,348,17960,2,0,P|411:347|445:326,1,80,2|2,0:0|0:0,0:0:0:0:
388,268,18335,1,8,0:0:0:0:
328,212,18522,1,2,0:0:0:0:
311,292,18710,2,0,P|272:295|238:275,1,80,2|0,0:0|0:0,0:0:0:0:
184,216,19085,6,0,L|169:201,24,20,8|0|0|0|0|0|0|0|0|0|0|0|0|0|0|0|2|0|0|0|2|0|0|0|0,0:0|0:0|0:0|0:0|0:0|0:0|0:0|0:0|0:0|0:0|0:0|0:0|0:0|0:0|0:0|0:0|0:0|0:0|0:0|0:0|0:0|0:0|0:0|0:0|0:0,0:0:0:0:
328,212,20585,6,0,L|384:155,1,80,6|2,0:0|0:0,0:0:0:0:
404,76,20960,1,2,0:0:0:0:
328,100,21147,2,0,L|214:213,1,160,10|0,0:0|0:0,0:0:0:0:
144,248,21710,1,0,0:0:0:0:
72,216,21897,2,0,B|60:244|64:276|84:300|84:300|84:376,1,160,2|2,0:0|0:0,0:0:0:0:
164,368,22460,5,2,0:0:0:0:
219,312,22647,1,2,0:0:0:0:
220,231,22835,6,0,P|233:194|264:170,1,80,8|12,0:0|0:0,0:0:0:0:
344,148,23210,2,0,P|375:123|388:86,1,80
308,76,23585,6,0,L|228:65,1,80,10|2,0:0|0:0,0:0:0:0:
172,121,23960,1,2,0:0:0:0:
91,110,24147,2,0,P|118:181|193:198,1,160,2|0,0:0|0:0,0:0:0:0:
272,171,24710,2,0,P|309:159|347:171,1,80,2|0,0:0|0:0,0:0:0:0:
308,240,25085,6,0,L|298:257,24,20,8|0|0|0|0|0|0|0|0|0|0|0|0|0|0|0|2|0|0|0|2|0|0|0|0,0:0|0:0|0:0|0:0|0:0|0:0|0:0|0:0|0:0|0:0|0:0|0:0|0:0|0:0|0:0|0:0|0:0|0:0|0:0|0:0|0:0|0:0|0:0|0:0|0:0,0:0:0:0:
388,103,26585,6,0,P|399:66|388:28,1,80,2|2,0:0|0:0,0:0:0:0:
316,68,26960,2,0,P|278:79|240:67,1,80,2|8,0:0|0:0,0:0:0:0:
80,67,27522,1,0,0:0:0:0:
36,136,27710,1,2,0:0:0:0:
71,205,27897,2,0,P|100:178|112:140,1,80,2|0,0:0|0:0,0:0:0:0:
188,112,28272,5,2,0:0:0:0:
184,192,28460,1,2,0:0:0:0:
256,156,28647,1,2,0:0:0:0:
252,236,28835,2,0,L|247:315,1,80,10|12,0:0|0:0,0:0:0:0:
328,320,29210,2,0,L|332:240,1,80
336,160,29585,5,10,0:0:0:0:
256,156,29772,1,2,0:0:0:0:
188,112,29960,1,2,0:0:0:0:
184,192,30147,2,0,P|118:152|116:75,1,160,2|2,0:0|0:0,0:0:0:0:
188,112,30710,1,2,0:0:0:0:
256,156,30897,1,0,0:0:0:0:
252,236,31085,6,0,L|249:275,3,40,10|0|2|0,0:0|0:0|0:0|0:0,0:0:0:0:
288,288,31460,2,0,L|285:327,3,40,2|0|2|0,0:0|0:0|0:0|0:0,0:0:0:0:
324,336,31835,1,10,0:0:0:0:
332,172,32210,1,10,0:0:0:0:
464,260,32585,5,2,0:0:0:0:
397,303,32772,1,8,0:0:0:0:
324,336,32960,1,10,0:0:0:0:
328,254,33147,1,8,0:0:0:0:
332,172,33335,1,14,0:0:0:0:
256,192,33428,12,0,34272,0:0:0:0:
