osu file format v14

[General]
AudioFilename: Disarmonia Mundi - Perdition Haze.mp3
AudioLeadIn: 0
PreviewTime: -1
Countdown: 1
SampleSet: None
StackLeniency: 0.7
Mode: 0
LetterboxInBreaks: 1
WidescreenStoryboard: 0

[Editor]
DistanceSpacing: 1
BeatDivisor: 8
GridSize: 8
TimelineZoom: 3.099999

[Metadata]
Title:Perdition Haze
TitleUnicode:Perdition Haze
Artist:Disarmonia Mundi
ArtistUnicode:Disarmonia Mundi
Creator:[ - Desired - ]
Version:Isolation
Source:Disarmonia Mundi - The Isolation Game
Tags:
BeatmapID:927775
BeatmapSetID:430022

[Difficulty]
HPDrainRate:5
CircleSize:5
OverallDifficulty:7
ApproachRate:10
SliderMultiplier:1.2
SliderTickRate:1

[Events]
//Background and Video events
//Break Periods
//Storyboard Layer 0 (Background)
//Storyboard Layer 1 (Fail)
//Storyboard Layer 2 (Pass)
//Storyboard Layer 3 (Foreground)
//Storyboard Sound Samples

[TimingPoints]
0,208.333333333333,4,2,0,100,1,0
11093,-50,4,2,0,100,0,0
14836,416.666666666667,4,2,0,100,1,0
28228,208.333333333333,4,2,0,100,1,0
45318,416.666666666667,4,2,0,100,1,0

[HitObjects]
448,312,911,6,0,L|400:352,1,60
112,224,1302,5,0,0:0:0:0:
144,200,1354,1,0,0:0:0:0:
168,168,1406,1,0,0:0:0:0:
176,128,1458,1,0,0:0:0:0:
168,88,1510,1,0,0:0:0:0:
144,48,1562,1,0,0:0:0:0:
48,88,1770,1,0,0:0:0:0:
48,8,2031,1,0,0:0:0:0:
432,360,2447,5,0,0:0:0:0:
400,336,2499,1,0,0:0:0:0:
384,296,2552,1,0,0:0:0:0:
384,256,2604,1,0,0:0:0:0:
408,224,2656,1,0,0:0:0:0:
440,200,2708,1,0,0:0:0:0:
368,128,2916,1,0,0:0:0:0:
256,192,3203,1,0,0:0:0:0:
168,104,3593,6,0,P|136:224|176:264,1,180
368,88,4088,1,0,0:0:0:0:
368,88,4192,1,0,0:0:0:0:
368,88,4296,1,0,0:0:0:0:
72,120,4609,2,0,P|88:208|112:264,1,150
256,88,5104,5,0,0:0:0:0:
256,376,5312,1,0,0:0:0:0:
256,344,5364,1,0,0:0:0:0:
256,312,5416,1,0,0:0:0:0:
256,280,5468,1,0,0:0:0:0:
256,248,5520,1,0,0:0:0:0:
360,160,5833,6,0,P|240:208|208:200,1,165
176,192,6171,1,0,0:0:0:0:
144,176,6223,1,0,0:0:0:0:
112,152,6276,1,0,0:0:0:0:
88,120,6328,1,0,0:0:0:0:
256,368,6614,1,0,0:0:0:0:
440,200,6874,5,0,0:0:0:0:
440,152,6927,1,0,0:0:0:0:
440,104,6979,1,0,0:0:0:0:
440,56,7031,1,0,0:0:0:0:
440,8,7083,1,0,0:0:0:0:
256,192,7239,5,0,0:0:0:0:
64,8,7395,5,0,0:0:0:0:
64,56,7447,1,0,0:0:0:0:
64,104,7499,1,0,0:0:0:0:
64,152,7552,1,0,0:0:0:0:
64,200,7604,1,0,0:0:0:0:
256,8,7812,5,0,0:0:0:0:
432,48,8072,5,0,0:0:0:0:
464,88,8124,1,0,0:0:0:0:
472,136,8177,1,0,0:0:0:0:
472,184,8229,1,0,0:0:0:0:
448,224,8281,1,0,0:0:0:0:
416,256,8333,1,0,0:0:0:0:
384,280,8385,1,0,0:0:0:0:
344,296,8437,2,0,L|344:184,2,105
80,280,9270,5,0,0:0:0:0:
120,256,9322,1,0,0:0:0:0:
144,216,9374,1,0,0:0:0:0:
144,168,9427,1,0,0:0:0:0:
136,120,9479,1,0,0:0:0:0:
104,80,9531,1,0,0:0:0:0:
64,56,9583,2,0,L|64:168,2,105
256,192,10208,1,0,0:0:0:0:
272,248,10468,5,0,0:0:0:0:
296,280,10520,1,0,0:0:0:0:
320,304,10572,1,0,0:0:0:0:
352,320,10624,1,0,0:0:0:0:
384,328,10677,1,0,0:0:0:0:
216,136,10833,5,0,0:0:0:0:
208,104,10885,1,0,0:0:0:0:
192,72,10937,1,0,0:0:0:0:
168,40,10989,1,0,0:0:0:0:
144,16,11041,1,0,0:0:0:0:
112,288,11197,6,0,L|384:112,1,300
384,96,11510,1,0,0:0:0:0:
376,64,11562,1,0,0:0:0:0:
352,40,11614,1,0,0:0:0:0:
320,24,11666,1,0,0:0:0:0:
288,24,11718,1,0,0:0:0:0:
256,40,11770,1,0,0:0:0:0:
232,64,11823,1,0,0:0:0:0:
224,96,11875,1,0,0:0:0:0:
224,136,11927,1,0,0:0:0:0:
232,168,11979,1,0,0:0:0:0:
256,192,12031,1,0,0:0:0:0:
280,208,12083,1,0,0:0:0:0:
304,216,12135,2,0,P|432:184|448:168,1,120
80,192,12604,5,0,0:0:0:0:
416,192,12812,2,0,L|352:192,1,60
128,192,13020,1,0,0:0:0:0:
384,192,13229,1,0,0:0:0:0:
176,192,13437,2,0,L|240:192,1,60
336,192,13645,1,0,0:0:0:0:
256,192,13854,1,0,0:0:0:0:
256,192,13906,1,0,0:0:0:0:
256,192,13958,1,0,0:0:0:0:
256,192,14010,1,0,0:0:0:0:
256,192,14062,1,0,0:0:0:0:
256,256,14218,5,0,0:0:0:0:
256,224,14270,1,0,0:0:0:0:
256,200,14322,1,0,0:0:0:0:
256,168,14374,1,0,0:0:0:0:
256,136,14427,1,0,0:0:0:0:
368,240,14732,2,0,P|424:152|384:88,1,180
0,0,15148,5,0,0:0:0:0:
512,384,15565,5,0,0:0:0:0:
512,0,15981,5,0,0:0:0:0:
0,384,16398,5,0,0:0:0:0:
256,192,16815,5,0,0:0:0:0:
0,0,17231,5,0,0:0:0:0:
512,384,17648,5,0,0:0:0:0:
256,0,18065,2,0,L|256:64,1,60
256,384,18481,1,0,0:0:0:0:
0,192,18898,5,0,0:0:0:0:
512,192,19315,5,0,0:0:0:0:
256,0,19731,5,0,0:0:0:0:
256,288,20044,2,0,L|256:384,2,90
256,192,20981,5,0,0:0:0:0:
416,192,21190,1,0,0:0:0:0:
96,192,21398,1,0,0:0:0:0:
256,0,21815,5,0,0:0:0:0:
256,384,22231,5,0,0:0:0:0:
256,0,22648,5,0,0:0:0:0:
256,384,23065,5,0,0:0:0:0:
512,192,23481,5,0,0:0:0:0:
0,192,23898,5,0,0:0:0:0:
512,192,24315,5,0,0:0:0:0:
0,192,24731,5,0,0:0:0:0:
256,192,25044,5,0,0:0:0:0:
256,0,25252,1,0,0:0:0:0:
256,384,25461,1,0,0:0:0:0:
208,192,25669,5,0,0:0:0:0:
256,168,25773,1,0,0:0:0:0:
304,192,25877,1,0,0:0:0:0:
0,192,26086,1,0,0:0:0:0:
512,192,26294,1,0,0:0:0:0:
