osu file format v13

[General]
AudioFilename: 07. Dirty Androids - City Never Sleeps.mp3
AudioLeadIn: 1500
PreviewTime: 22051
Countdown: 0
SampleSet: Normal
StackLeniency: 0.4
Mode: 0
LetterboxInBreaks: 1
WidescreenStoryboard: 0

[Editor]
Bookmarks: 54410,65197
DistanceSpacing: 1
BeatDivisor: 4
GridSize: 4
TimelineZoom: 1.6

[Metadata]
Title:City Never Sleeps
TitleUnicode:City Never Sleeps
Artist:Dirty Androids
ArtistUnicode:Dirty Androids
Creator:Frey
Version:Special
Source:REFLEC BEAT groovin'!!
Tags:dnb drum and bass drum'n'bass accel world mei akitsu daisuke 秋津大祐
BeatmapID:542996
BeatmapSetID:234030

[Difficulty]
HPDrainRate:7
CircleSize:4
OverallDifficulty:7
ApproachRate:9
SliderMultiplier:1.8
SliderTickRate:1

[Events]
//Background and Video events
0,0,"BG.jpg",0,0
//Break Periods
2,54610,64597
//Storyboard Layer 0 (Background)
//Storyboard Layer 1 (Fail)
//Storyboard Layer 2 (Pass)
//Storyboard Layer 3 (Foreground)
//Storyboard Sound Samples
//Background Colour Transformations
3,100,163,162,255

[TimingPoints]
478,337.078651685393,4,2,0,65,1,0
11264,-100,4,1,0,60,0,0
67893,-100,4,1,0,60,0,1
89466,-100,4,1,0,60,0,0

[Colours]
Combo1 : 147,147,202
Combo2 : 155,255,255
Combo3 : 68,162,255

[HitObjects]
32,168,478,5,2,0:0:0:0:
32,168,646,2,0,P|122:172|212:184,1,180,0|0,0:0|0:0,0:0:0:0:
312,344,1320,1,0,0:0:0:0:
336,316,1657,1,0,0:0:0:0:
357,280,2837,6,0,P|366:236|372:192,1,90,0|0,0:0|0:0,0:0:0:0:
256,116,3174,2,0,P|168:116|140:192,1,180,2|0,0:0|0:0,0:0:0:0:
255,267,3680,2,0,P|340:270|371:191,1,180,2|0,0:0|0:0,0:0:0:0:
140,192,4354,1,0,0:0:0:0:
136,228,5365,5,0,0:0:0:0:
124,316,5534,1,0,0:0:0:0:
52,264,5702,1,0,0:0:0:0:
208,288,5871,2,0,P|268:280|328:268,1,90,2|0,0:0|0:0,0:0:0:0:
152,112,6376,1,0,0:0:0:0:
148,152,6713,1,0,0:0:0:0:
144,192,7051,1,0,0:0:0:0:
368,192,8230,6,0,L|357:281,1,90,0|0,0:0|0:0,0:0:0:0:
298,132,8567,2,0,P|380:103|452:152,1,180,2|0,0:0|0:0,0:0:0:0:
213,251,9073,2,0,P|131:280|60:232,1,180,2|0,0:0|0:0,0:0:0:0:
344,352,9747,5,0,0:0:0:0:
168,32,10253,1,0,0:0:0:0:
8,264,11264,6,0,P|80:256|128:248,1,90
152,180,11601,1,8,0:2:0:0:
64,168,11770,1,0,0:0:0:0:
60,152,11854,1,0,0:0:0:0:
56,136,11938,1,0,0:0:0:0:
52,120,12022,1,0,0:0:0:0:
48,104,12107,1,0,0:0:0:0:
208,124,12275,1,8,0:2:0:0:
112,256,12444,1,0,0:0:0:0:
184,312,12612,6,0,P|236:308|312:300,1,90
328,72,12949,2,0,P|276:76|200:84,1,90,8|0,0:2|0:0,0:0:0:0:
204,92,13202,1,0,0:0:0:0:
168,96,13286,1,0,0:0:0:0:
133,85,13371,1,0,0:0:0:0:
103,65,13455,1,0,0:0:0:0:
176,12,13624,1,8,0:2:0:0:
256,192,13792,1,0,0:0:0:0:
172,228,13961,6,0,L|64:220,1,90
340,156,14298,2,0,L|448:164,1,90,8|0,0:2|0:0,0:0:0:0:
452,191,14551,1,0,0:0:0:0:
460,225,14635,1,0,0:0:0:0:
452,260,14719,1,0,0:0:0:0:
430,288,14803,1,0,0:0:0:0:
344,316,14972,1,8,0:2:0:0:
364,228,15140,1,0,0:0:0:0:
148,228,15309,6,0,L|167:315,1,90,0|0,0:0|0:0,0:0:0:0:
256,344,15646,1,8,0:2:0:0:
256,168,15815,1,0,0:0:0:0:
292,168,15899,1,0,0:0:0:0:
328,168,15983,1,0,0:0:0:0:
364,168,16067,1,0,0:0:0:0:
400,168,16152,1,0,0:0:0:0:
256,255,16320,1,8,0:2:0:0:
256,80,16489,1,0,0:0:0:0:
112,168,16657,5,0,0:0:0:0:
112,168,16994,1,0,0:0:0:0:
400,216,17331,1,0,0:0:0:0:
400,216,17668,1,0,0:0:0:0:
44,300,18006,5,0,0:0:0:0:
44,300,18343,1,0,0:0:0:0:
468,84,18680,1,0,0:0:0:0:
468,84,19017,1,0,0:0:0:0:
436,288,19354,5,0,0:0:0:0:
356,252,19522,2,0,P|280:264|248:272,1,90,0|8,0:0|0:2,0:0:0:0:
328,336,19860,1,0,0:0:0:0:
295,180,20028,2,0,P|251:185|207:194,1,90
144,304,20366,1,8,0:2:0:0:
256,364,20534,1,0,0:0:0:0:
368,304,20702,5,0,0:0:0:0:
360,259,20786,1,0,0:0:0:0:
336,222,20870,1,0,0:0:0:0:
299,196,20954,1,0,0:0:0:0:
255,188,21039,1,0,0:0:0:0:
211,196,21123,1,0,0:0:0:0:
175,222,21207,1,0,0:0:0:0:
151,259,21291,1,0,0:0:0:0:
143,303,21376,5,0,0:0:0:0:
256,364,21545,1,0,0:0:0:0:
368,304,21713,1,10,0:2:0:0:
109,67,22051,6,0,P|64:71|20:76,1,90,4|0,0:0|0:0,0:0:0:0:
108,156,22388,1,8,0:0:0:0:
196,176,22556,1,0,0:0:0:0:
136,244,22725,1,0,0:0:0:0:
256,328,22893,1,0,0:0:0:0:
376,244,23062,1,8,0:0:0:0:
256,144,23230,1,0,0:0:0:0:
256,236,23399,5,0,0:0:0:0:
332,192,23567,1,0,0:0:0:0:
180,192,23736,2,0,P|100:184|60:176,1,90,8|0,0:0|0:0,0:0:0:0:
116,356,24073,1,0,0:0:0:0:
192,304,24242,2,0,P|268:288|316:276,2,90,0|8|0,0:0|0:0|0:0,0:0:0:0:
396,356,24747,5,0,0:0:0:0:
428,272,24916,1,0,0:0:0:0:
340,288,25084,2,0,P|316:324|308:376,1,90,8|0,0:0|0:0,0:0:0:0:
372,204,25421,1,0,0:0:0:0:
284,216,25590,1,0,0:0:0:0:
428,272,25758,2,0,P|452:236|460:184,1,90,8|0,0:0|0:0,0:0:0:0:
256,32,26095,5,0,0:0:0:0:
256,168,26264,1,0,0:0:0:0:
376,104,26433,1,8,0:0:0:0:
136,104,26601,1,0,0:0:0:0:
132,140,26685,1,0,0:0:0:0:
128,176,26770,1,0,0:0:0:0:
256,168,26938,2,0,P|248:120|244:44,1,90,0|8,0:0|0:0,0:0:0:0:
200,236,27275,1,0,0:0:0:0:
120,280,27444,6,0,P|48:284|12:284,1,90
12,196,27781,1,8,0:0:0:0:
136,104,27950,1,0,0:0:0:0:
100,188,28118,1,0,0:0:0:0:
48,112,28286,1,0,0:0:0:0:
188,180,28455,1,8,0:0:0:0:
256,40,28624,1,0,0:0:0:0:
168,20,28792,1,0,0:0:0:0:
196,108,28961,6,0,P|236:120|288:132,2,90,0|8|0,0:0|0:0|0:0,0:0:0:0:
112,136,29466,1,0,0:0:0:0:
256,264,29635,1,0,0:0:0:0:
400,136,29803,2,0,P|352:136|276:132,1,90,8|0,0:0|0:0,0:0:0:0:
112,248,30140,6,0,P|160:248|236:252,1,90,0|0,0:0|0:0,0:0:0:0:
256,320,30477,1,8,0:0:0:0:
356,192,30646,1,0,0:0:0:0:
256,64,30815,1,0,0:0:0:0:
156,192,30983,2,0,P|240:196|284:196,2,90,0|8|0,0:0|0:0|0:0,0:0:0:0:
256,320,31489,5,0,0:0:0:0:
364,256,31657,1,0,0:0:0:0:
256,64,31826,1,8,0:0:0:0:
148,128,31994,1,0,0:0:0:0:
256,192,32163,1,0,0:0:0:0:
364,256,32331,1,0,0:0:0:0:
380,212,32416,1,0,0:0:0:0:
396,168,32500,1,8,0:0:0:0:
116,168,32669,1,0,0:0:0:0:
100,256,32837,6,0,P|144:252|188:220,1,90,4|0,0:0|0:0,0:0:0:0:
132,80,33174,2,0,P|88:84|44:116,1,90,8|0,0:0|0:0,0:0:0:0:
116,168,33511,1,0,0:0:0:0:
220,56,33680,1,0,0:0:0:0:
68,20,33848,1,8,0:0:0:0:
50,108,34017,1,0,0:0:0:0:
116,168,34185,6,0,P|192:160|224:156,1,90
396,216,34522,2,0,P|320:208|288:204,1,90,8|0,0:0|0:0,0:0:0:0:
340,328,34860,1,0,0:0:0:0:
484,216,35028,1,0,0:0:0:0:
440,136,35197,1,8,0:0:0:0:
396,216,35365,1,0,0:0:0:0:
442,295,35534,6,0,P|474:239|494:195,1,90
344,96,35871,1,8,0:0:0:0:
256,256,36039,1,0,0:0:0:0:
300,176,36208,1,0,0:0:0:0:
256,96,36376,1,0,0:0:0:0:
96,176,36545,1,8,0:0:0:0:
256,256,36713,1,0,0:0:0:0:
416,176,36882,6,0,P|424:104|432:52,1,90
504,40,37219,1,8,0:0:0:0:
424,0,37388,1,0,0:0:0:0:
338,130,37556,2,0,P|332:174|328:219,1,90
404,268,37893,1,8,0:0:0:0:
427,87,38062,1,0,0:0:0:0:
399,91,38146,1,0,0:0:0:0:
371,95,38230,6,0,P|287:87|251:83,1,90
140,224,38567,1,8,0:0:0:0:
140,224,38736,2,0,P|184:219|229:213,1,90
272,356,39073,1,0,0:0:0:0:
160,324,39242,1,8,0:0:0:0:
48,288,39410,6,0,P|56:236|68:104,1,180
16,36,39916,1,8,0:0:0:0:
104,28,40084,1,0,0:0:0:0:
104,28,40169,1,0,0:0:0:0:
104,28,40253,1,0,0:0:0:0:
124,184,40421,1,0,0:0:0:0:
248,84,40590,1,8,0:0:0:0:
160,100,40758,1,0,0:0:0:0:
216,172,40927,6,0,P|296:168|388:152,1,135
388,140,41264,2,0,P|400:64|400:32,1,90,8|0,0:0|0:0,0:0:0:0:
316,80,41601,1,0,0:0:0:0:
464,192,41770,1,0,0:0:0:0:
316,304,41938,1,8,0:0:0:0:
168,192,42107,1,0,0:0:0:0:
344,192,42275,5,0,0:0:0:0:
256,280,42444,2,0,P|192:288|136:292,1,90,8|0,0:0|0:0,0:0:0:0:
132,260,42697,2,0,P|87:255|42:249,1,90,8|0,0:0|0:0,0:0:0:0:
24,212,42949,5,8,0:0:0:0:
16,172,43034,1,0,0:0:0:0:
16,132,43118,1,0,0:0:0:0:
176,12,43286,1,0,0:0:0:0:
191,51,43370,1,0,0:0:0:0:
200,91,43454,1,8,0:0:0:0:
204,131,43538,1,0,0:0:0:0:
204,172,43624,6,0,P|188:272|180:300,1,90,4|0,0:0|0:0,0:0:0:0:
256,324,43961,1,8,0:0:0:0:
321,260,44129,2,0,P|312:216|308:172,2,90,0|0|0,0:0|0:0|0:0,0:0:0:0:
392,204,44635,1,8,0:0:0:0:
256,324,44803,1,0,0:0:0:0:
164,232,44972,5,0,0:0:0:0:
164,232,45140,2,0,P|216:232|296:228,1,90,0|8,0:0|0:0,0:0:0:0:
184,104,45477,1,0,0:0:0:0:
108,156,45646,2,0,P|63:155|18:157,1,90,0|0,0:0|0:0,0:0:0:0:
104,64,45983,1,8,0:0:0:0:
256,196,46152,1,0,0:0:0:0:
408,64,46320,6,0,P|328:60|276:56,1,90
358,191,46657,2,0,P|403:193|448:196,1,90,8|0,0:0|0:0,0:0:0:0:
288,136,46994,1,0,0:0:0:0:
440,284,47163,1,0,0:0:0:0:
276,224,47331,1,8,0:0:0:0:
412,104,47500,1,0,0:0:0:0:
440,284,47669,5,0,0:0:0:0:
380,352,47837,1,0,0:0:0:0:
344,348,47921,1,0,0:0:0:0:
312,364,48006,1,8,0:0:0:0:
276,364,48090,1,0,0:0:0:0:
244,380,48174,1,0,0:0:0:0:
96,256,48343,5,0,0:0:0:0:
132,268,48427,1,0,0:0:0:0:
168,276,48511,1,0,0:0:0:0:
168,108,48680,1,8,0:0:0:0:
132,116,48764,1,0,0:0:0:0:
96,128,48848,1,0,0:0:0:0:
64,148,48933,1,0,0:0:0:0:
36,172,49017,6,0,P|28:224|24:280,1,90,0|0,0:0|0:0,0:0:0:0:
52,36,49354,1,8,0:0:0:0:
52,36,49438,1,0,0:0:0:0:
168,108,49607,1,0,0:0:0:0:
168,108,49691,2,0,P|268:116|280:116,1,90
452,36,50028,1,8,0:0:0:0:
436,76,50112,1,0,0:0:0:0:
428,120,50197,1,0,0:0:0:0:
424,164,50281,1,0,0:0:0:0:
424,208,50365,6,0,P|472:204|524:192,1,90,0|0,0:0|0:0,0:0:0:0:
344,120,50702,1,8,0:0:0:0:
256,272,50871,1,0,0:0:0:0:
256,272,50955,1,0,0:0:0:0:
256,272,51039,2,0,P|324:280|364:280,1,90
256,112,51376,2,0,P|211:114|166:120,1,90,8|0,0:0|0:0,0:0:0:0:
256,192,51713,12,0,53399,2:0:0:0:
148,208,53736,6,0,L|88:214,2,60,0|0|0,0:0|0:0|0:0,0:0:0:0:
364,176,54073,2,0,L|423:169,2,60,0|0|0,0:0|0:0|0:0,0:0:0:0:
240,84,54410,1,4,0:0:0:0:
440,296,65197,6,0,P|384:292|308:280,1,90
268,252,65534,2,0,P|256:184|296:112,1,135,8|0,0:2|0:0,0:0:0:0:
316,112,65871,2,0,P|372:116|448:128,1,90,0|0,0:0|0:0,0:0:0:0:
196,304,66208,1,8,0:2:0:0:
184,216,66376,1,0,0:0:0:0:
268,252,66545,5,0,0:0:0:0:
112,276,66713,1,0,0:0:0:0:
32,192,66882,1,8,0:2:0:0:
112,108,67051,1,0,0:0:0:0:
192,192,67219,5,0,0:0:0:0:
212,232,67303,1,0,0:0:0:0:
256,248,67388,1,0,0:0:0:0:
300,232,67473,1,0,0:0:0:0:
320,192,67556,1,8,0:2:0:0:
300,152,67640,1,0,0:0:0:0:
256,136,67725,1,0,0:0:0:0:
212,152,67810,1,0,0:0:0:0:
192,192,67893,6,0,P|184:284|184:296,1,90,4|0,0:0|0:0,0:0:0:0:
256,340,68230,1,8,0:0:0:0:
327,281,68399,1,0,0:0:0:0:
327,259,68483,1,0,0:0:0:0:
325,236,68567,1,0,0:0:0:0:
323,214,68651,1,0,0:0:0:0:
320,191,68736,1,0,0:0:0:0:
484,352,68904,1,8,0:0:0:0:
440,196,69073,1,0,0:0:0:0:
419,284,69242,6,0,P|463:273|507:261,1,90,0|0,0:0|0:0,0:0:0:0:
460,100,69579,2,0,P|416:112|372:122,1,90,8|0,0:0|0:0,0:0:0:0:
336,116,69831,1,0,0:0:0:0:
308,92,69916,1,0,0:0:0:0:
300,56,70000,1,0,0:0:0:0:
308,20,70084,1,0,0:0:0:0:
176,116,70253,5,8,0:0:0:0:
256,196,70421,1,0,0:0:0:0:
280,192,70506,1,0,0:0:0:0:
304,188,70590,2,0,L|396:196,1,90
256,348,70927,2,0,L|166:340,1,90,8|0,0:0|0:0,0:0:0:0:
142,344,71180,1,0,0:0:0:0:
118,348,71264,1,0,0:0:0:0:
32,188,71433,1,0,0:0:0:0:
0,312,71601,1,8,0:0:0:0:
152,224,71770,1,0,0:0:0:0:
76,268,71938,5,0,0:0:0:0:
152,312,72107,1,0,0:0:0:0:
228,180,72275,1,8,0:0:0:0:
152,224,72444,1,0,0:0:0:0:
232,268,72612,2,0,P|288:276|328:280,1,90
280,116,72949,1,8,0:0:0:0:
248,111,73033,1,0,0:0:0:0:
217,107,73117,1,0,0:0:0:0:
186,104,73201,1,0,0:0:0:0:
154,100,73286,6,0,P|98:108|58:112,1,90,0|0,0:0|0:0,0:0:0:0:
260,0,73624,2,0,P|264:76|264:128,1,90,8|0,0:0|0:0,0:0:0:0:
252,128,73876,1,0,0:0:0:0:
240,168,73961,1,0,0:0:0:0:
240,208,74045,1,0,0:0:0:0:
248,248,74129,1,0,0:0:0:0:
360,192,74298,1,8,0:0:0:0:
156,244,74466,1,0,0:0:0:0:
196,324,74635,6,0,P|268:320|316:316,1,90
449,186,74972,2,0,P|404:189|360:192,1,90,8|0,0:0|0:0,0:0:0:0:
348,167,75225,1,0,0:0:0:0:
339,141,75309,1,0,0:0:0:0:
388,276,75477,5,0,0:0:0:0:
256,364,75646,1,8,0:0:0:0:
124,276,75815,1,0,0:0:0:0:
256,192,75983,1,0,0:0:0:0:
388,276,76152,1,0,0:0:0:0:
256,276,76320,6,0,L|211:281|166:286,1,90,8|0,0:0|0:0,0:0:0:0:
256,108,76657,2,0,L|301:103|346:98,1,90,0|0,0:0|0:0,0:0:0:0:
256,276,76994,1,8,0:0:0:0:
72,192,77163,1,0,0:0:0:0:
256,108,77331,5,0,0:0:0:0:
155,234,77500,2,0,P|164:190|176:147,1,90,8|8,0:0|0:0,0:0:0:0:
256,276,77837,1,0,0:0:0:0:
356,235,78006,2,0,P|346:191|335:147,1,90,0|0,0:0|0:0,0:0:0:0:
92,32,78343,1,8,0:0:0:0:
80,72,78427,1,0,0:0:0:0:
72,112,78511,1,0,0:0:0:0:
68,152,78595,1,0,0:0:0:0:
72,192,78680,6,0,P|148:200|192:204,1,90,4|0,0:0|0:0,0:0:0:0:
108,276,79017,1,8,0:0:0:0:
36,108,79185,1,0,0:0:0:0:
77,91,79269,1,0,0:0:0:0:
122,87,79353,1,0,0:0:0:0:
165,98,79437,1,0,0:0:0:0:
204,121,79522,1,0,0:0:0:0:
108,276,79691,1,8,0:0:0:0:
404,276,79860,1,0,0:0:0:0:
336,336,80028,5,0,0:0:0:0:
316,248,80197,1,0,0:0:0:0:
384,188,80365,2,0,P|468:208|504:216,1,90,8|0,0:0|0:0,0:0:0:0:
488,180,80618,1,0,0:0:0:0:
492,148,80702,1,0,0:0:0:0:
488,116,80786,1,0,0:0:0:0:
480,84,80871,1,0,0:0:0:0:
256,20,81039,1,8,0:0:0:0:
276,108,81208,1,0,0:0:0:0:
340,44,81376,5,0,0:0:0:0:
188,84,81545,1,0,0:0:0:0:
188,84,81629,1,0,0:0:0:0:
188,84,81713,2,0,P|116:80|60:72,1,90,8|0,0:0|0:0,0:0:0:0:
324,192,82051,1,0,0:0:0:0:
324,192,82135,1,0,0:0:0:0:
324,192,82219,2,0,P|396:188|452:180,1,90,0|8,0:0|0:0,0:0:0:0:
324,84,82556,1,0,0:0:0:0:
188,192,82725,5,0,0:0:0:0:
173,234,82809,1,0,0:0:0:0:
182,277,82893,1,0,0:0:0:0:
213,309,82977,1,0,0:0:0:0:
256,321,83062,1,8,0:0:0:0:
299,310,83146,1,0,0:0:0:0:
329,277,83230,1,0,0:0:0:0:
339,234,83314,1,0,0:0:0:0:
325,192,83399,5,0,0:0:0:0:
256,63,83567,1,0,0:0:0:0:
132,192,83736,1,8,0:0:0:0:
256,321,83904,1,0,0:0:0:0:
171,292,84073,6,0,P|127:297|82:302,1,90
256,321,84410,1,8,0:0:0:0:
340,292,84579,2,0,P|372:212|336:128,1,180
180,36,85084,2,0,P|120:32|56:28,1,90,8|0,0:0|0:0,0:0:0:0:
292,152,85421,5,0,0:0:0:0:
268,64,85590,1,0,0:0:0:0:
200,124,85758,1,8,0:0:0:0:
228,212,85927,2,0,P|300:204|344:200,1,90
408,192,86264,1,0,0:0:0:0:
256,344,86433,1,8,0:0:0:0:
104,192,86601,1,0,0:0:0:0:
104,192,86685,1,0,0:0:0:0:
104,192,86770,6,0,L|92:76,1,90,4|0,0:0|0:0,0:0:0:0:
12,64,87107,1,8,0:0:0:0:
104,192,87275,2,0,P|184:224|256:176,1,180
345,88,87781,2,0,P|300:87|256:84,1,90,8|0,0:0|0:0,0:0:0:0:
166,295,88118,6,0,P|211:296|256:300,1,90,0|8,0:0|0:0,0:0:0:0:
344,320,88455,1,8,0:0:0:0:
292,132,88624,1,0,0:0:0:0:
256,136,88708,1,0,0:0:0:0:
220,140,88792,1,8,0:0:0:0:
256,300,88961,1,0,0:0:0:0:
416,264,89129,1,8,0:0:0:0:
431,229,89213,1,0,0:0:0:0:
440,192,89297,1,0,0:0:0:0:
431,155,89382,1,0,0:0:0:0:
416,120,89466,6,0,L|292:108,1,90,4|0,0:0|0:0,0:0:0:0:
96,32,89803,2,0,L|220:20,1,90,8|0,0:0|0:0,0:0:0:0:
221,28,90056,1,0,0:0:0:0:
256,32,90140,1,0,0:0:0:0:
148,204,90309,1,0,0:0:0:0:
75,151,90477,2,0,P|112:124|160:112,1,90,8|0,0:0|0:0,0:0:0:0:
224,256,90815,5,0,0:0:0:0:
148,204,90983,1,0,0:0:0:0:
228,164,91152,1,8,0:0:0:0:
140,292,91320,1,0,0:0:0:0:
64,244,91489,2,0,P|60:180|52:120,1,90
256,4,91826,2,0,P|260:68|268:128,1,90,8|0,0:0|0:0,0:0:0:0:
454,229,92163,5,0,0:0:0:0:
468,192,92247,1,0,0:0:0:0:
476,152,92331,1,0,0:0:0:0:
476,112,92416,1,0,0:0:0:0:
468,72,92500,1,8,0:0:0:0:
352,144,92669,1,0,0:0:0:0:
256,48,92837,5,0,0:0:0:0:
224,45,92921,1,0,0:0:0:0:
193,45,93005,1,0,0:0:0:0:
161,47,93089,1,0,0:0:0:0:
130,52,93174,1,8,0:0:0:0:
256,192,93343,5,0,0:0:0:0:
287,194,93427,1,0,0:0:0:0:
318,194,93511,1,0,0:0:0:0:
350,192,93595,1,0,0:0:0:0:
381,187,93680,1,0,0:0:0:0:
256,336,93848,5,8,0:0:0:0:
225,331,93933,1,0,0:0:0:0:
193,329,94017,1,0,0:0:0:0:
162,329,94101,1,0,0:0:0:0:
131,331,94185,1,0,0:0:0:0:
12,168,94354,1,0,0:0:0:0:
0,256,94522,1,8,0:0:0:0:
84,224,94691,1,0,0:0:0:0:
180,36,94860,5,4,0:0:0:0:
108,88,95028,1,0,0:0:0:0:
188,132,95197,2,0,P|232:126|277:120,1,90,8|0,0:0|0:0,0:0:0:0:
432,44,95534,1,0,0:0:0:0:
448,132,95702,1,0,0:0:0:0:
448,132,95786,1,0,0:0:0:0:
448,132,95871,1,8,0:0:0:0:
277,120,96039,1,0,0:0:0:0:
368,104,96208,5,0,0:0:0:0:
336,188,96376,1,0,0:0:0:0:
340,212,96461,1,0,0:0:0:0:
344,236,96545,1,8,0:0:0:0:
256,340,96713,1,0,0:0:0:0:
256,340,96798,2,0,P|192:348|136:352,1,90,8|8,0:0|0:0,0:0:0:0:
132,340,97051,2,0,P|124:276|120:220,1,90,0|8,0:0|0:0,0:0:0:0:
121,210,97303,1,0,0:0:0:0:
140,173,97388,1,0,0:0:0:0:
172,148,97472,1,0,0:0:0:0:
211,142,97556,6,0,B|298:174|298:98|386:142,1,180,4|8,0:0|0:0,0:0:0:0:
256,340,98062,2,0,B|169:372|169:296|81:340,1,180,4|8,0:0|0:0,0:0:0:0:
211,142,98567,1,4,0:0:0:0:
211,142,98736,1,4,0:0:0:0:
