osu file format v13

[General]
AudioFilename: 07. Dirty Androids - City Never Sleeps.mp3
AudioLeadIn: 1500
PreviewTime: 22051
Countdown: 0
SampleSet: Soft
StackLeniency: 0.4
Mode: 0
LetterboxInBreaks: 1
WidescreenStoryboard: 0

[Editor]
DistanceSpacing: 0.9
BeatDivisor: 4
GridSize: 4
TimelineZoom: 1

[Metadata]
Title:City Never Sleeps
TitleUnicode:City Never Sleeps
Artist:Dirty Androids
ArtistUnicode:Dirty Androids
Creator:Frey
Version:Medium
Source:REFLEC BEAT groovin'!!
Tags:dnb drum and bass drum'n'bass accel world mei akitsu daisuke 秋津大祐
BeatmapID:542995
BeatmapSetID:234030

[Difficulty]
HPDrainRate:4
CircleSize:3
OverallDifficulty:4
ApproachRate:5
SliderMultiplier:1.2
SliderTickRate:1

[Events]
//Background and Video events
0,0,"BG.jpg",0,0
//Break Periods
2,54610,63997
//Storyboard Layer 0 (Background)
//Storyboard Layer 1 (Fail)
//Storyboard Layer 2 (Pass)
//Storyboard Layer 3 (Foreground)
//Storyboard Sound Samples
//Background Colour Transformations
3,100,163,162,255

[TimingPoints]
478,337.078651685393,4,2,0,65,1,0
11264,-100,4,1,0,60,0,0
67893,-100,4,1,0,60,0,1
89466,-100,4,1,0,60,0,0

[Colours]
Combo1 : 147,147,202
Combo2 : 155,255,255
Combo3 : 68,162,255

[HitObjects]
176,232,478,6,0,P|173:202|176:171,1,60,2|0,0:0|0:0,0:0:0:0:
256,100,983,1,0,0:0:0:0:
336,172,1320,1,0,0:0:0:0:
336,279,1657,1,0,0:0:0:0:
336,279,2837,6,0,P|339:309|336:340,2,60,0|0|2,0:0|0:0|0:0,0:0:0:0:
232,248,3511,2,0,P|228:216|232:184,1,60,0|2,0:0|0:0,0:0:0:0:
244,80,4017,1,0,0:0:0:0:
244,80,4354,1,0,0:0:0:0:
244,80,5365,2,0,P|276:76|312:80,2,60,0|0|0,0:0|0:0|0:0,0:0:0:0:
200,112,5871,6,0,P|168:116|132:112,1,60,2|0,0:0|0:0,0:0:0:0:
36,92,6376,1,0,0:0:0:0:
28,200,6713,1,0,0:0:0:0:
136,216,7051,1,0,0:0:0:0:
136,216,8230,2,0,P|137:248|144:280,1,60
172,320,8567,5,2,0:0:0:0:
276,344,8904,2,0,L|340:344,1,60,0|2,0:0|0:0,0:0:0:0:
444,344,9410,1,0,0:0:0:0:
444,344,9747,2,0,B|480:260|404:260|440:168,1,180
440,172,11264,6,0,L|376:156,1,60
340,192,11601,1,8,0:2:0:0:
340,192,11770,2,0,L|352:316,1,120
256,360,12444,1,0,0:0:0:0:
160,312,12781,1,0,0:0:0:0:
160,312,12950,2,0,L|172:193,1,120,8|0,0:2|0:0,0:0:0:0:
256,124,13624,1,8,0:2:0:0:
184,40,13961,6,0,P|144:96|144:152,1,120,0|8,0:0|0:2,0:0:0:0:
172,192,14466,1,0,0:0:0:0:
256,260,14803,1,0,0:0:0:0:
340,192,15140,2,0,P|372:112|324:36,1,180,0|8,0:0|0:2,0:0:0:0:
256,124,15983,1,0,0:0:0:0:
256,232,16320,1,8,0:2:0:0:
256,340,16657,5,0,0:0:0:0:
256,340,16826,1,0,0:0:0:0:
160,288,17163,1,0,0:0:0:0:
160,180,17500,1,0,0:0:0:0:
256,232,17837,2,0,B|304:208|332:248|372:228,1,120
428,228,18343,1,8,0:2:0:0:
476,132,18680,1,0,0:0:0:0:
392,64,19017,2,0,P|364:72|344:96,1,60,8|0,0:2|0:0,0:0:0:0:
316,140,19354,6,0,P|255:145|196:148,1,120,0|8,0:0|0:2,0:0:0:0:
144,132,19860,1,0,0:0:0:0:
96,228,20197,1,0,0:0:0:0:
168,308,20534,2,0,P|224:288|280:308,1,120
324,336,21039,2,0,B|360:352|360:352|424:296|424:208|424:208|388:196,1,240,8|10,0:2|0:2,0:0:0:0:
296,136,22051,6,0,B|304:108|336:88|336:88|400:88,1,120,0|8,0:0|0:0,0:0:0:0:
484,148,22725,2,0,B|476:176|444:196|444:196|380:196,1,120,0|8,0:0|0:0,0:0:0:0:
320,280,23399,2,0,L|200:280,1,120,0|8,0:0|0:0,0:0:0:0:
104,328,24073,2,0,P|60:284|60:224,1,120,0|8,0:0|0:0,0:0:0:0:
152,176,24747,5,0,0:0:0:0:
72,104,25084,1,8,0:0:0:0:
176,68,25421,1,0,0:0:0:0:
256,140,25758,1,8,0:0:0:0:
336,68,26095,2,0,P|400:84|460:128,1,120,0|8,0:0|0:0,0:0:0:0:
468,220,26770,2,0,B|440:280|488:280|460:340,1,120,0|8,0:0|0:0,0:0:0:0:
356,352,27444,6,0,P|290:352|234:312,1,120,0|8,0:0|0:0,0:0:0:0:
256,216,28118,2,0,L|252:96,1,120,0|8,0:0|0:0,0:0:0:0:
144,100,28792,2,0,L|148:220,1,120,0|8,0:0|0:0,0:0:0:0:
96,316,29466,2,0,P|152:328|216:304,1,120,0|8,0:0|0:0,0:0:0:0:
236,260,29972,6,0,B|268:220|228:184|256:144,1,120
256,92,30477,1,8,0:0:0:0:
344,32,30815,2,0,L|416:32,2,60,0|0|8,0:0|0:0|0:0,0:0:0:0:
256,92,31489,1,0,0:0:0:0:
168,32,31826,1,8,0:0:0:0:
96,112,32163,2,0,P|120:168|156:215,1,120,0|8,0:0|0:0,0:0:0:0:
260,188,32837,5,0,0:0:0:0:
228,292,33174,1,8,0:0:0:0:
124,320,33511,1,0,0:0:0:0:
52,240,33848,1,8,0:0:0:0:
156,216,34185,2,0,P|128:144|32:136,2,180,0|2|8,0:0|0:2|0:0,0:0:0:0:
156,324,35534,6,0,B|204:304|224:344|276:324,1,120,0|8,0:0|0:0,0:0:0:0:
380,348,36208,1,0,0:0:0:0:
428,248,36545,2,0,L|416:160,1,60,8|0,0:0|0:0,0:0:0:0:
436,136,36882,2,0,P|436:76|404:24,1,120,0|8,0:0|0:0,0:0:0:0:
352,36,37388,2,0,P|304:112|336:196,1,180,0|8,0:0|0:0,0:0:0:0:
408,268,38230,5,0,0:0:0:0:
324,336,38567,1,8,0:0:0:0:
216,336,38904,1,0,0:0:0:0:
132,268,39242,1,8,0:0:0:0:
236,232,39579,2,0,P|168:156|48:200,1,240
50,304,40590,1,8,0:0:0:0:
152,344,40927,6,0,B|172:292|208:272|208:272|240:272,1,120,0|8,0:0|0:0,0:0:0:0:
288,272,41433,2,0,P|352:196|324:112,1,180,0|8,0:0|0:0,0:0:0:0:
240,172,42275,1,0,0:0:0:0:
212,124,42444,2,0,L|232:24,2,90,8|8|8,0:0|0:0|0:0,0:0:0:0:
148,212,43286,2,0,L|68:196,1,60,0|8,0:0|0:0,0:0:0:0:
56,156,43624,6,0,B|36:112|52:68|52:68|88:48,1,120,4|8,0:0|0:0,0:0:0:0:
185,53,44298,2,0,B|210:67|210:67|226:111|206:155,1,120,0|8,0:0|0:0,0:0:0:0:
128,232,44972,2,0,B|104:292|148:292|124:352,2,120,0|8|0,0:0|0:0|0:0,0:0:0:0:
228,192,45983,1,8,0:0:0:0:
316,252,46320,6,0,P|372:268|432:244,1,120,0|8,0:0|0:0,0:0:0:0:
368,156,46994,2,0,L|364:32,1,120,0|8,0:0|0:0,0:0:0:0:
256,48,47669,1,0,0:0:0:0:
204,144,48006,1,8,0:0:0:0:
256,236,48343,2,0,B|260:276|260:276|252:312|252:312|256:360,2,120,0|8|0,0:0|0:0|0:0,0:0:0:0:
328,156,49354,5,8,0:0:0:0:
256,76,49691,1,0,0:0:0:0:
184,156,50028,1,8,0:0:0:0:
256,192,50365,12,4,54410,0:0:0:0:
156,116,65197,6,0,P|152:188|136:260,1,120,0|8,0:0|0:2,0:0:0:0:
40,268,65871,1,0,0:0:0:0:
120,340,66208,1,8,0:2:0:0:
224,308,66545,2,0,P|284:304|344:288,1,120,0|8,0:0|0:2,0:0:0:0:
380,188,67219,1,0,0:0:0:0:
288,128,67556,1,8,0:2:0:0:
196,68,67893,6,0,B|168:128|196:184,1,120,4|8,0:0|0:0,0:0:0:0:
288,128,68567,2,0,L|412:128,1,120,0|8,0:0|0:0,0:0:0:0:
464,220,69242,2,0,L|344:220,1,120,0|8,0:0|0:0,0:0:0:0:
276,304,69916,2,0,B|260:344|220:352|220:352|168:352,1,120,0|8,0:0|0:0,0:0:0:0:
68,336,70590,5,0,0:0:0:0:
132,248,70927,1,8,0:0:0:0:
24,232,71264,1,0,0:0:0:0:
40,124,71601,1,8,0:0:0:0:
63,17,71938,2,0,B|132:40|144:104,1,120,0|8,0:0|0:0,0:0:0:0:
156,152,72444,2,0,B|204:176|224:136|280:156,1,120
327,153,72949,1,8,0:0:0:0:
420,96,73286,6,0,P|432:156|420:212,1,120,0|8,0:0|0:0,0:0:0:0:
312,232,73961,2,0,P|299:290|311:348,2,120,0|8|0,0:0|0:0|0:0,0:0:0:0:
348,128,74972,1,8,0:0:0:0:
308,28,75309,1,0,0:0:0:0:
416,52,75646,1,8,0:0:0:0:
416,52,75815,1,0,0:0:0:0:
456,152,76152,5,0,0:0:0:0:
456,152,76320,2,0,L|456:280,1,120,8|0,0:0|0:0,0:0:0:0:
436,324,76826,2,0,P|408:336|368:340,1,60,0|8,0:0|0:0,0:0:0:0:
324,348,77163,2,0,P|264:348|200:328,1,120,0|8,0:0|0:0,0:0:0:0:
204,276,77669,1,8,0:0:0:0:
204,276,77837,2,0,B|168:192|232:192|200:100,1,180,0|8,0:0|0:0,0:0:0:0:
268,16,78680,6,0,P|332:20|404:48,1,120,4|8,0:0|0:0,0:0:0:0:
408,144,79354,2,0,P|351:162|291:165,1,120,0|8,0:0|0:0,0:0:0:0:
184,168,80028,1,0,0:0:0:0:
192,276,80365,1,8,0:0:0:0:
192,276,80534,1,0,0:0:0:0:
92,316,80871,1,0,0:0:0:0:
92,316,81039,1,8,0:0:0:0:
24,232,81376,6,0,B|48:172|4:172|28:112,2,120,0|8|0,0:0|0:0|0:0,0:0:0:0:
92,316,82388,1,8,0:0:0:0:
92,316,82725,2,0,B|184:244|184:244|288:324,1,240
389,319,83736,1,8,0:0:0:0:
389,319,84073,6,0,B|424:299|424:299|440:259|424:215,1,120,0|8,0:0|0:0,0:0:0:0:
408,172,84579,2,0,L|272:172,1,120
236,164,85084,1,8,0:0:0:0:
236,164,85253,2,0,B|208:232|108:188|96:264,1,180,0|8,0:0|0:0,0:0:0:0:
152,356,86095,1,0,0:0:0:0:
260,356,86433,2,0,L|308:312,1,60,8|8,0:0|0:0,0:0:0:0:
304,260,86770,6,0,B|292:187|192:231|164:163,1,180,4|0,0:0|0:0,0:0:0:0:
204,64,87612,1,0,0:0:0:0:
204,64,87781,1,8,0:0:0:0:
312,64,88118,2,0,L|372:64,2,60,0|8|8,0:0|0:0|0:0,0:0:0:0:
280,108,88624,2,0,P|264:168|264:236,1,120
292,272,89129,1,8,0:0:0:0:
224,356,89466,5,4,0:0:0:0:
124,316,89803,1,8,0:0:0:0:
128,208,90140,1,0,0:0:0:0:
232,184,90477,1,8,0:0:0:0:
292,272,90815,2,0,P|348:292|408:268,1,120,0|8,0:0|0:0,0:0:0:0:
348,180,91489,2,0,B|328:144|336:96|336:96|360:64,1,120,0|8,0:0|0:0,0:0:0:0:
452,116,92163,6,0,B|472:152|464:200|464:200|440:232,1,120,0|8,0:0|0:0,0:0:0:0:
399,258,92669,2,0,L|279:266,1,120
276,320,93174,2,0,L|156:312,1,120,8|0,0:0|0:0,0:0:0:0:
104,328,93680,2,0,P|72:280|68:220,1,120,8|0,0:0|0:0,0:0:0:0:
116,192,94185,1,8,0:0:0:0:
212,140,94522,2,0,P|240:164|268:176,1,60,8|0,0:0|0:0,0:0:0:0:
312,188,94860,5,4,0:0:0:0:
400,124,95197,1,8,0:0:0:0:
464,212,95534,1,0,0:0:0:0:
376,276,95871,1,8,0:0:0:0:
312,188,96208,2,0,P|228:188|176:196,1,120,0|8,0:0|0:0,0:0:0:0:
124,276,96882,2,0,P|88:228|92:152,1,120,0|8,0:0|0:0,0:0:0:0:
152,84,97556,6,0,P|211:76|275:118,1,120,4|8,0:0|0:0,0:0:0:0:
292,148,98062,2,0,P|350:155|403:128,1,120,4|8,0:0|0:0,0:0:0:0:
420,76,98567,1,4,0:0:0:0:
420,76,98736,1,4,0:0:0:0:
