osu file format v13

[General]
AudioFilename: 07. Dirty Androids - City Never Sleeps.mp3
AudioLeadIn: 1500
PreviewTime: 22051
Countdown: 0
SampleSet: Soft
StackLeniency: 0.4
Mode: 0
LetterboxInBreaks: 1
WidescreenStoryboard: 0

[Editor]
DistanceSpacing: 1.2
BeatDivisor: 4
GridSize: 4
TimelineZoom: 1.7

[Metadata]
Title:City Never Sleeps
TitleUnicode:City Never Sleeps
Artist:Dirty Androids
ArtistUnicode:Dirty Androids
Creator:Frey
Version:Hard
Source:REFLEC BEAT groovin'!!
Tags:dnb drum and bass drum'n'bass accel world mei akitsu daisuke 秋津大祐
BeatmapID:542994
BeatmapSetID:234030

[Difficulty]
HPDrainRate:6
CircleSize:4
OverallDifficulty:6
ApproachRate:7.5
SliderMultiplier:1.5
SliderTickRate:1

[Events]
//Background and Video events
0,0,"BG.jpg",0,0
//Break Periods
2,54610,64372
//Storyboard Layer 0 (Background)
//Storyboard Layer 1 (Fail)
//Storyboard Layer 2 (Pass)
//Storyboard Layer 3 (Foreground)
//Storyboard Sound Samples
//Background Colour Transformations
3,100,163,162,255

[TimingPoints]
478,337.078651685393,4,2,0,65,1,0
478,-133.333333333333,4,2,0,65,0,0
11264,-100,4,1,0,50,0,0
22051,-100,4,1,0,60,0,0
65197,-100,4,2,0,50,0,0
67893,-90.9090909090909,4,1,0,60,0,1
89466,-100,4,1,0,60,0,0

[Colours]
Combo1 : 147,147,202
Combo2 : 155,255,255
Combo3 : 68,162,255

[HitObjects]
111,100,478,6,0,L|56:112,1,56.2500021457673,2|0,0:0|0:0,0:0:0:0:
245,85,983,2,0,P|263:124|256:200,2,112.500004291535,0|0|0,0:0|0:0|0:0,0:0:0:0:
220,276,2837,2,0,P|260:288|288:288,1,56.2500021457673
344,344,3174,6,0,P|392:312|448:304,1,112.500004291535,2|0,0:0|0:0,0:0:0:0:
443,224,3680,2,0,L|432:88,2,112.500004291535,2|0|0,0:0|0:0|0:0,0:0:0:0:
260,168,5365,2,0,P|262:195|268:223,2,56.2500021457673,0|0|0,0:0|0:0|0:0,0:0:0:0:
326,118,5871,6,0,P|351:107|372:88,1,56.2500021457673,2|0,0:0|0:0,0:0:0:0:
224,68,6376,1,0,0:0:0:0:
132,132,6713,1,0,0:0:0:0:
44,64,7051,1,0,0:0:0:0:
44,64,8230,2,0,L|48:128,1,56.2500021457673
56,200,8567,6,0,B|44:248|52:300|52:300|72:272,1,112.500004291535,2|0,0:0|0:0,0:0:0:0:
148,268,9073,2,0,P|200:256|264:256,2,112.500004291535,2|0|2,0:0|0:0|0:0,0:0:0:0:
352,320,10253,5,2,0:0:0:0:
364,132,10927,1,2,0:3:0:0:
284,220,11264,6,0,P|240:220|200:228,1,75
140,252,11601,1,8,0:2:0:0:
96,192,11770,2,0,P|88:140|96:36,1,150
240,72,12444,2,0,P|248:124|240:228,1,150
224,292,12949,2,0,P|192:328|160:340,2,75,8|0|0,0:2|0:0|0:0,0:0:0:0:
372,316,13624,1,8,0:2:0:0:
436,356,13792,1,0,0:0:0:0:
436,280,13961,6,0,P|432:248|432:188,1,75
484,152,14298,1,8,0:2:0:0:
412,124,14466,2,0,P|372:152|280:120,2,150,0|0|0,0:0|0:0|0:0,0:0:0:0:
472,76,15309,2,0,P|480:44|476:-4,2,75,0|0|8,0:0|0:0|0:2,0:0:0:0:
484,152,15815,1,0,0:0:0:0:
480,300,16152,1,0,0:0:0:0:
420,256,16320,1,8,0:2:0:0:
352,288,16489,1,0,0:0:0:0:
352,288,16657,6,0,P|312:268|272:260,1,75
176,244,16994,2,0,P|213:219|240:188,1,75,8|0,0:2|0:0,0:0:0:0:
304,112,17331,2,0,P|306:156|319:195,2,75,0|0|8,0:0|0:0|0:2,0:0:0:0:
240,48,17837,2,0,P|188:24|92:48,1,150
104,128,18343,1,8,0:2:0:0:
24,88,18511,1,0,0:0:0:0:
104,128,18680,2,0,L|108:208,1,75
20,224,19017,2,0,L|16:304,1,75,8|0,0:2|0:0,0:0:0:0:
104,348,19354,6,0,P|160:360|196:348,1,75
204,272,19691,2,0,P|212:208|208:168,1,75,8|0,0:0|0:0,0:0:0:0:
300,197,20028,2,0,P|301:235|308:272,1,75
335,356,20365,2,0,P|372:359|408:348,1,75,8|0,0:0|0:0,0:0:0:0:
496,320,20702,6,0,L|508:268,3,37.5,0|0|0|0,0:0|0:0|0:0|0:0,0:0:0:0:
476,248,21039,2,0,L|468:200,3,37.5,8|0|0|0,0:0|0:0|0:0|0:0,0:0:0:0:
496,176,21376,2,0,P|516:146|520:92,1,75
508,20,21713,1,4,0:3:0:0:
332,36,22051,6,0,L|244:32,1,75,4|0,0:0|0:0,0:0:0:0:
176,72,22388,1,8,0:0:0:0:
256,112,22556,2,0,P|208:156|128:148,1,150
40,124,23062,2,0,P|53:158|59:195,1,75,8|0,0:0|0:0,0:0:0:0:
32,280,23399,5,0,0:0:0:0:
116,260,23567,1,0,0:0:0:0:
92,348,23736,1,8,0:0:0:0:
180,324,23904,2,0,P|228:336|336:308,1,150
284,236,24410,2,0,P|280:183|284:147,1,75,8|0,0:0|0:0,0:0:0:0:
364,124,24747,6,0,L|448:112,2,75,0|0|8,0:0|0:0|0:0,0:0:0:0:
292,68,25253,2,0,P|264:116|176:108,1,150
104,156,25758,2,0,P|92:112|100:72,2,75,8|0|0,0:0|0:0|0:0,0:0:0:0:
168,220,26264,5,0,0:0:0:0:
80,248,26433,2,0,L|-4:260,1,75,8|0,0:0|0:0,0:0:0:0:
144,308,26770,2,0,P|176:344|272:344,1,150,0|8,0:0|0:0,0:0:0:0:
324,272,27275,1,0,0:0:0:0:
324,272,27444,5,0,0:0:0:0:
272,200,27612,2,0,P|252:160|252:112,1,75,0|8,0:0|0:0,0:0:0:0:
320,72,27949,2,0,L|472:52,1,150
472,144,28455,2,0,P|492:184|492:232,1,75,8|0,0:0|0:0,0:0:0:0:
460,296,28792,5,0,0:0:0:0:
396,232,28961,1,0,0:0:0:0:
380,320,29129,2,0,L|284:336,1,75,8|0,0:0|0:0,0:0:0:0:
240,268,29466,2,0,P|224:224|220:176,2,75,0|0|8,0:0|0:0|0:0,0:0:0:0:
216,356,29972,1,0,0:0:0:0:
148,296,30140,6,0,L|-8:284,1,150,0|8,0:0|0:0,0:0:0:0:
48,208,30646,1,0,0:0:0:0:
12,124,30815,2,0,P|0:76|8:36,2,75,0|0|8,0:0|0:0|0:0,0:0:0:0:
185,169,31489,5,0,0:0:0:0:
99,142,31657,1,0,0:0:0:0:
100,52,31826,1,8,0:0:0:0:
185,24,31994,1,0,0:0:0:0:
238,97,32163,2,0,P|280:108|324:100,1,75
328,88,32416,1,0,0:0:0:0:
336,68,32500,2,0,P|348:136|340:200,1,112.5,8|0,0:0|0:0,0:0:0:0:
340,208,32837,6,0,L|312:292,1,75,4|0,0:0|0:0,0:0:0:0:
256,344,33174,1,8,0:0:0:0:
220,260,33343,2,0,B|160:248|160:248|132:264|132:264|60:252,1,150
44,172,33848,2,0,L|117:186,1,75,8|0,0:0|0:0,0:0:0:0:
204,164,34185,6,0,P|212:120|212:16,1,150,0|8,0:0|0:0,0:0:0:0:
300,15,34691,2,0,P|297:89|308:164,1,150,0|0,0:0|0:0,0:0:0:0:
368,232,35197,1,8,0:0:0:0:
456,248,35365,1,0,0:0:0:0:
456,248,35534,6,0,L|464:344,2,75,0|0|8,0:0|0:0|0:0,0:0:0:0:
408,169,36039,2,0,B|360:140|315:168|302:197|302:197|296:164,1,150
216,136,36545,2,0,P|212:192|216:240,1,75,8|0,0:0|0:0,0:0:0:0:
256,288,36882,5,0,0:0:0:0:
164,292,37051,2,0,P|116:312|84:336,1,75,0|8,0:0|0:0,0:0:0:0:
8,316,37388,1,0,0:0:0:0:
52,144,37725,2,0,P|56:96|56:60,2,75,0|8|0,0:0|0:0|0:0,0:0:0:0:
64,164,38146,1,0,0:0:0:0:
76,184,38230,6,0,L|168:200,1,75
216,136,38567,1,8,0:0:0:0:
256,216,38736,2,0,B|256:276|236:340|236:340|208:304,1,150,0|0,0:0|0:0,0:0:0:0:
144,276,39242,2,0,L|70:288,2,75,8|0|0,0:0|0:0|0:0,0:0:0:0:
221,321,39747,5,0,0:0:0:0:
312,320,39916,2,0,P|320:272|324:228,1,75,8|0,0:0|0:0,0:0:0:0:
336,228,40169,1,0,0:0:0:0:
352,212,40253,2,0,P|408:220|452:216,1,75
432,128,40590,2,0,P|376:120|332:124,1,75,8|0,0:0|0:0,0:0:0:0:
280,168,40927,6,0,P|212:192|132:164,1,150,0|8,0:0|0:0,0:0:0:0:
92,96,41433,1,0,0:0:0:0:
48,172,41601,2,0,P|28:232|32:268,1,75
36,264,41854,1,0,0:0:0:0:
52,280,41938,2,0,L|152:296,1,75,8|0,0:0|0:0,0:0:0:0:
196,352,42275,5,0,0:0:0:0:
260,292,42444,2,0,P|308:280|380:280,2,112.5,8|8|8,0:0|0:0|0:0,0:0:0:0:
188,236,43118,1,0,0:0:0:0:
180,216,43202,1,0,0:0:0:0:
176,192,43286,2,0,P|180:168|184:88,1,75,0|8,0:0|0:0,0:0:0:0:
116,56,43624,6,0,P|168:24|260:68,1,150,4|8,0:0|0:0,0:0:0:0:
280,132,44129,1,0,0:0:0:0:
436,220,44466,2,0,P|492:212|528:208,1,75,0|8,0:0|0:0,0:0:0:0:
380,296,44803,2,0,P|352:328|252:276,1,150
176,268,45309,6,0,P|120:276|84:280,2,75,8|0|0,0:0|0:0|0:0,0:0:0:0:
188,180,45815,1,0,0:0:0:0:
120,120,45983,2,0,L|124:32,1,75,8|0,0:0|0:0,0:0:0:0:
212,68,46320,6,0,P|232:104|336:88,1,150,0|8,0:0|0:0,0:0:0:0:
380,24,46826,1,0,0:0:0:0:
388,220,47163,1,0,0:0:0:0:
468,180,47331,1,8,0:0:0:0:
460,272,47500,2,0,P|416:304|316:272,1,150
316,268,47921,5,0,0:0:0:0:
304,248,48006,2,0,P|280:236|256:232,2,37.5,8|0|0,0:0|0:0|0:0,0:0:0:0:
340,164,48343,2,0,P|364:152|388:148,2,37.5,0|0|0,0:0|0:0|0:0,0:0:0:0:
272,108,48680,2,0,P|248:96|224:92,2,37.5,8|0|0,0:0|0:0|0:0,0:0:0:0:
336,44,49017,5,0,0:0:0:0:
436,24,49185,1,0,0:0:0:0:
436,24,49354,2,0,L|424:112,1,75,8|0,0:0|0:0,0:0:0:0:
336,44,49691,2,0,P|296:24|192:64,1,150,0|8,0:0|0:0,0:0:0:0:
195,75,50112,1,0,0:0:0:0:
193,97,50197,1,0,0:0:0:0:
196,119,50281,1,0,0:0:0:0:
204,140,50365,6,0,L|284:160,1,75
180,224,50702,2,0,L|176:284,2,37.5,8|0|0,0:0|0:0|0:0,0:0:0:0:
12,156,51208,1,0,0:0:0:0:
56,236,51376,2,0,L|60:328,1,75,8|0,0:0|0:0,0:0:0:0:
256,192,51713,12,4,54410,0:0:0:0:
164,80,65197,5,0,2:0:0:0:
160,88,65365,1,0,0:0:0:0:
156,96,65534,2,0,L|56:104,1,75,8|0,0:0|0:0,0:0:0:0:
176,192,65871,1,0,0:0:0:0:
176,192,66039,2,0,P|204:152|304:164,1,150,0|0,0:0|0:0,0:0:0:0:
340,236,66545,5,0,0:0:0:0:
300,316,66713,2,0,L|208:336,1,75,0|8,0:0|0:0,0:0:0:0:
380,364,67051,1,0,0:0:0:0:
416,284,67219,2,0,B|428:232|428:160|428:160|404:196,1,150,0|8,0:0|0:0,0:0:0:0:
340,236,67725,1,0,0:0:0:0:
268,168,67893,6,0,P|260:104|260:60,1,82.5000025177003,4|0,0:0|0:0,0:0:0:0:
176,32,68230,1,8,0:0:0:0:
172,132,68399,2,0,B|97:163|97:107|11:136,1,165.000005035401
64,220,68904,2,0,P|72:240|80:304,1,82.5000025177003,8|0,0:0|0:0,0:0:0:0:
160,360,69242,5,0,0:0:0:0:
236,296,69410,2,0,B|276:284|276:284|324:292,1,82.5000025177003,0|8,0:0|0:0,0:0:0:0:
384,364,69747,2,0,B|416:336|416:336|428:208,1,165.000005035401
336,176,70253,2,0,B|320:136|320:136|336:88,1,82.5000025177003,8|0,0:0|0:0,0:0:0:0:
404,32,70590,5,0,0:0:0:0:
304,20,70758,2,0,L|196:16,1,82.5000025177003,0|8,0:0|0:0,0:0:0:0:
124,28,71095,2,0,P|92:104|164:140,1,165.000005035401
244,180,71601,2,0,P|252:232|248:268,1,82.5000025177003,8|0,0:0|0:0,0:0:0:0:
164,312,71938,5,0,0:0:0:0:
252,356,72107,1,0,0:0:0:0:
348,312,72275,1,8,0:0:0:0:
348,312,72444,2,0,P|340:252|352:124,1,165.000005035401
404,68,72949,2,0,P|448:56|504:56,1,82.5000025177003,8|0,0:0|0:0,0:0:0:0:
312,64,73286,6,0,P|280:32|213:20,2,82.5000025177003,0|0|8,0:0|0:0|0:0,0:0:0:0:
228,116,73792,2,0,B|216:172|240:224|240:224|208:204|172:212,1,165.000005035401
180,308,74298,2,0,P|128:312|80:304,1,82.5000025177003,8|0,0:0|0:0,0:0:0:0:
44,224,74635,5,0,0:0:0:0:
92,136,74803,2,0,L|96:40,1,82.5000025177003,0|8,0:0|0:0,0:0:0:0:
188,96,75140,2,0,B|236:120|236:120|344:80,1,165.000005035401
436,48,75646,2,0,L|439:130,1,82.5000025177003,8|0,0:0|0:0,0:0:0:0:
440,228,75983,6,0,P|380:208|268:228,1,165.000005035401,0|8,0:0|0:0,0:0:0:0:
244,316,76489,2,0,P|184:336|72:316,1,165.000005035401
36,236,76994,1,8,0:0:0:0:
36,236,77163,1,0,0:0:0:0:
124,188,77331,6,0,P|172:208|208:200,1,82.5000025177003,0|8,0:0|0:0,0:0:0:0:
220,184,77584,1,0,0:0:0:0:
232,160,77669,2,0,P|240:136|248:72,1,82.5000025177003,8|0,0:0|0:0,0:0:0:0:
436,16,78174,1,0,0:0:0:0:
436,16,78343,2,0,L|444:76,3,41.2500012588501,8|0|0|0,0:0|0:0|0:0|0:0,0:0:0:0:
448,104,78680,6,0,P|388:120|348:112,1,82.5000025177003,4|0,0:0|0:0,0:0:0:0:
340,212,79017,1,8,0:0:0:0:
440,212,79185,2,0,P|464:264|460:372,1,165.000005035401
376,320,79691,2,0,L|272:304,1,82.5000025177003,8|0,0:0|0:0,0:0:0:0:
208,356,80028,5,0,0:0:0:0:
160,268,80197,2,0,P|176:228|184:180,1,82.5000025177003,0|8,0:0|0:0,0:0:0:0:
77,262,80534,2,0,P|88:312|204:338,1,165.000005035401
264,280,81039,2,0,P|308:276|372:288,1,82.5000025177003,8|0,0:0|0:0,0:0:0:0:
364,184,81376,5,0,0:0:0:0:
440,248,81545,2,0,P|468:304|480:356,1,82.5000025177003,0|8,0:0|0:0,0:0:0:0:
464,152,81882,2,0,B|492:100|472:32|472:32|444:80,1,165.000005035401
352,88,82388,2,0,L|248:80,1,82.5000025177003,8|0,0:0|0:0,0:0:0:0:
188,28,82725,5,0,0:0:0:0:
172,124,82893,2,0,L|164:172,4,41.2500012588501,0|0|8|0|0,0:0|0:0|0:0|0:0|0:0,0:0:0:0:
269,81,83399,2,0,P|280:140|276:188,1,82.5000025177003
276,260,83736,2,0,P|267:318|249:363,1,82.5000025177003,8|0,0:0|0:0,0:0:0:0:
97,332,84073,5,0,0:0:0:0:
184,287,84242,1,0,0:0:0:0:
140,200,84410,1,8,0:0:0:0:
50,245,84579,2,0,P|44:200|56:64,1,165.000005035401
152,88,85084,2,0,P|180:104|240:100,1,82.5000025177003,8|0,0:0|0:0,0:0:0:0:
260,200,85421,6,0,P|320:176|400:88,1,165.000005035401,0|8,0:0|0:0,0:0:0:0:
348,16,85927,1,0,0:0:0:0:
390,106,86095,2,0,L|400:216,2,82.5000025177003,0|0|8,0:0|0:0|0:0,0:0:0:0:
496,64,86601,1,0,0:0:0:0:
496,64,86685,1,0,0:0:0:0:
496,64,86770,6,0,L|476:244,1,165.000005035401,4|8,0:0|0:0,0:0:0:0:
396,288,87275,2,0,L|377:124,1,165.000005035401
300,60,87781,1,8,0:0:0:0:
112,120,88118,5,0,0:0:0:0:
172,200,88286,2,0,L|280:188,2,82.5000025177003,8|8|0,0:0|0:0|0:0,0:0:0:0:
152,212,88708,1,0,0:0:0:0:
136,232,88792,2,0,P|120:304|128:336,1,82.5000025177003,8|0,0:0|0:0,0:0:0:0:
216,344,89129,1,8,0:0:0:0:
240,340,89213,1,0,0:0:0:0:
264,336,89298,1,0,0:0:0:0:
288,332,89382,1,0,0:0:0:0:
308,328,89466,6,0,L|304:244,1,75,4|0,0:0|0:0,0:0:0:0:
280,168,89803,1,8,0:0:0:0:
368,192,89972,2,0,B|420:200|420:200|448:192|488:200|488:200|456:224,1,150
416,292,90477,1,8,0:0:0:0:
412,112,90815,6,0,L|420:12,2,75,0|0|8,0:0|0:0|0:0,0:0:0:0:
332,76,91320,2,0,L|320:-8,1,75
228,64,91657,1,0,0:0:0:0:
172,136,91826,1,8,0:0:0:0:
120,64,91994,1,0,0:0:0:0:
120,64,92163,6,0,P|64:52|16:52,1,75
68,140,92500,1,8,0:0:0:0:
68,140,92669,1,0,0:0:0:0:
40,224,92837,2,0,L|-16:240,2,37.5,0|0|0,0:0|0:0|0:0,0:0:0:0:
108,284,93174,2,0,P|152:272|192:272,1,75,8|0,0:0|0:0,0:0:0:0:
204,272,93427,1,0,0:0:0:0:
228,276,93511,6,0,P|272:288|328:288,1,75
360,220,93848,2,0,L|360:172,2,37.5,8|0|0,0:0|0:0|0:0,0:0:0:0:
436,272,94185,2,0,L|436:309,2,37.5,8|0|0,0:0|0:0|0:0,0:0:0:0:
508,216,94522,1,8,0:0:0:0:
476,132,94691,2,0,L|488:68,2,37.5,0|0|4,0:0|0:0|0:0,0:0:0:0:
328,28,95197,6,0,P|272:40|232:32,1,75,8|0,0:0|0:0,0:0:0:0:
164,24,95534,1,0,0:0:0:0:
76,44,95702,2,0,L|32:36,2,37.5,0|0|8,0:0|0:0|0:0,0:0:0:0:
122,121,96039,1,0,0:0:0:0:
152,208,96208,6,0,P|96:212|64:188,1,75
64,188,96461,1,0,0:0:0:0:
52,168,96545,2,0,P|48:216|40:256,1,75,8|0,0:0|0:0,0:0:0:0:
28,260,96798,2,0,P|21:296|19:334,1,75,8|8,0:0|0:0,0:0:0:0:
32,352,97051,1,0,0:0:0:0:
136,364,97219,2,0,L|192:344,3,37.5,8|0|0|0,0:0|0:0|0:0|0:0,0:0:0:0:
212,332,97556,5,4,0:0:0:0:
376,200,97893,1,8,0:0:0:0:
452,248,98062,2,0,B|468:264|468:264|464:324,1,75,4|0,0:0|0:0,0:0:0:0:
304,346,98399,5,8,0:0:0:0:
304,256,98567,1,4,0:0:0:0:
382,302,98736,1,4,0:0:0:0:
