osu file format v13

[General]
AudioFilename: 07. Dirty Androids - City Never Sleeps.mp3
AudioLeadIn: 1500
PreviewTime: 22051
Countdown: 0
SampleSet: Normal
StackLeniency: 0.4
Mode: 0
LetterboxInBreaks: 1
WidescreenStoryboard: 0

[Editor]
DistanceSpacing: 1
BeatDivisor: 4
GridSize: 4
TimelineZoom: 1

[Metadata]
Title:City Never Sleeps
TitleUnicode:City Never Sleeps
Artist:Dirty Androids
ArtistUnicode:Dirty Androids
Creator:Frey
Version:Basic
Source:REFLEC BEAT groovin'!!
Tags:dnb drum and bass drum'n'bass accel world mei akitsu daisuke 秋津大祐
BeatmapID:542993
BeatmapSetID:-1

[Difficulty]
HPDrainRate:2
CircleSize:2
OverallDifficulty:2
ApproachRate:3
SliderMultiplier:0.899999999999999
SliderTickRate:1

[Events]
//Background and Video events
0,0,"BG.jpg",0,0
//Break Periods
2,54610,63757
//Storyboard Layer 0 (Background)
//Storyboard Layer 1 (Fail)
//Storyboard Layer 2 (Pass)
//Storyboard Layer 3 (Foreground)
//Storyboard Sound Samples
//Background Colour Transformations
3,100,163,162,255

[TimingPoints]
478,337.078651685393,4,2,0,65,1,0
11264,-100,4,1,0,60,0,0
67893,-100,4,1,0,60,0,1
89466,-100,4,1,0,60,0,0

[Colours]
Combo1 : 147,147,202
Combo2 : 155,255,255
Combo3 : 68,162,255

[HitObjects]
96,80,478,6,0,P|100:152|96:220,1,135,2|0,0:0|0:0,0:0:0:0:
68,300,1320,1,0,0:0:0:0:
144,348,1657,1,0,0:0:0:0:
456,296,2837,5,0,0:0:0:0:
392,232,3174,2,0,P|324:228|252:260,1,135,2|2,0:0|0:0,0:0:0:0:
220,332,4017,1,0,0:0:0:0:
132,320,4354,1,0,0:0:0:0:
24,72,5365,6,0,P|12:145|4:224,2,135,0|2|0,0:0|0:0|0:0,0:0:0:0:
112,56,6713,1,0,0:0:0:0:
200,40,7051,1,0,0:0:0:0:
408,276,8230,5,0,0:0:0:0:
364,196,8567,2,0,P|284:176|224:180,1,135,2|2,0:0|0:0,0:0:0:0:
164,240,9410,1,0,0:0:0:0:
76,256,9747,2,0,P|77:189|90:121,1,135
358,122,11264,6,0,P|400:232|296:328,1,270,0|8,0:0|0:2,0:0:0:0:
210,327,12612,2,0,P|114:243|154:122,1,270,0|8,0:0|0:2,0:0:0:0:
232,76,13961,6,0,B|340:76|340:76|340:248,1,270,0|8,0:0|0:2,0:0:0:0:
280,308,15309,2,0,B|172:308|172:308|172:136,1,270,0|8,0:0|0:2,0:0:0:0:
212,64,16657,6,0,P|296:40|392:68,1,180
472,220,18006,2,0,P|388:244|284:212,1,180
120,212,19354,6,0,L|20:232,1,89.9999999999999,0|8,0:0|0:2,0:0:0:0:
0,144,20028,2,0,L|88:126,1,89.9999999999999,0|8,0:0|0:2,0:0:0:0:
132,48,20702,2,0,P|220:36|308:88,1,180
324,164,21713,1,10,0:2:0:0:
280,244,22051,6,0,P|196:260|92:268,1,180,4|0,0:0|0:0,0:0:0:0:
39,202,23062,1,8,0:0:0:0:
48,112,23399,2,0,P|120:64|212:72,1,180
256,148,24410,1,8,0:0:0:0:
302,71,24747,6,0,P|390:63|463:111,1,180
473,202,25758,1,8,0:0:0:0:
436,284,26095,2,0,L|256:304,1,180
180,352,27107,1,8,0:0:0:0:
96,324,27444,6,0,P|56:244|84:152,1,180
136,92,28455,1,8,0:0:0:0:
172,176,28792,2,0,B|256:208|256:208|348:172,1,180
376,92,29803,1,8,0:0:0:0:
304,36,30140,6,0,B|216:36|216:36|136:80|136:80|44:80,1,270,0|8,0:0|0:0,0:0:0:0:
16,168,31489,2,0,P|80:328|212:252,1,360,0|4,0:0|0:0,0:0:0:0:
256,184,33174,6,0,P|344:168|452:168,1,180,8|8,0:0|0:0,0:0:0:0:
484,240,34185,1,0,0:0:0:0:
452,324,34522,2,0,P|363:340|273:341,1,180,8|8,0:0|0:0,0:0:0:0:
196,292,35534,2,0,B|136:276|60:300|60:300|64:216|28:160|28:160,1,270,0|8,0:0|0:0,0:0:0:0:
8,84,36882,5,0,0:0:0:0:
96,100,37219,2,0,P|184:84|274:82,1,180,8|8,0:0|0:0,0:0:0:0:
344,140,38230,2,0,B|404:156|480:132|480:132|476:216|512:272|512:272,1,270,0|8,0:0|0:0,0:0:0:0:
456,336,39579,5,0,0:0:0:0:
384,284,39916,2,0,L|200:292,1,180,8|8,0:0|0:0,0:0:0:0:
176,376,40927,2,0,P|120:264|224:204,1,270,0|8,0:0|0:0,0:0:0:0:
312,200,42275,2,0,P|369:91|265:26,1,270,0|8,0:0|0:0,0:0:0:0:
277,117,43624,5,4,0:0:0:0:
216,184,43961,2,0,P|136:216|44:200,1,180,8|8,0:0|0:0,0:0:0:0:
16,116,44972,1,0,0:0:0:0:
68,44,45309,2,0,B|156:56|156:56|184:44|184:44|256:52,1,180,8|8,0:0|0:0,0:0:0:0:
332,64,46320,5,0,0:0:0:0:
420,84,46657,2,0,B|448:168|448:168|420:264,1,180,8|8,0:0|0:0,0:0:0:0:
340,296,47669,1,0,0:0:0:0:
256,332,48006,2,0,P|168:328|64:308,1,180,8|8,0:0|0:0,0:0:0:0:
40,232,49017,5,0,0:0:0:0:
96,164,49354,2,0,P|184:168|288:188,1,180,8|8,0:0|0:0,0:0:0:0:
256,192,50365,12,4,54410,0:0:0:0:
212,92,65197,6,0,P|136:196|220:296,1,270,0|8,0:0|0:2,0:0:0:0:
301,293,66545,2,0,P|376:192|300:92,1,270,0|8,0:0|0:2,0:0:0:0:
212,92,67893,5,4,0:0:0:0:
132,48,68230,2,0,B|96:112|96:112|112:164|112:164|80:216,1,180,8|8,0:0|0:0,0:0:0:0:
36,284,69242,1,0,0:0:0:0:
112,332,69579,2,0,P|204:316|288:348,1,180,8|8,0:0|0:0,0:0:0:0:
372,356,70590,5,0,0:0:0:0:
440,296,70927,2,0,L|428:112,1,180,8|8,0:0|0:0,0:0:0:0:
420,28,71938,1,0,0:0:0:0:
348,80,72275,2,0,L|164:92,1,180,8|8,0:0|0:0,0:0:0:0:
92,140,73286,5,0,0:0:0:0:
104,228,73624,2,0,P|124:308|224:308,1,180,8|8,0:0|0:0,0:0:0:0:
256,240,74635,1,0,0:0:0:0:
301,317,74972,2,0,P|386:309|408:228,1,180,8|8,0:0|0:0,0:0:0:0:
336,172,75983,5,0,0:0:0:0:
256,128,76320,2,0,B|176:136|176:136|156:128|156:128|64:140,1,180,8|8,0:0|0:0,0:0:0:0:
32,216,77331,1,0,0:0:0:0:
54,303,77669,2,0,P|131:343|212:310,1,180,8|8,0:0|0:0,0:0:0:0:
256,232,78680,5,4,0:0:0:0:
300,310,79017,2,0,P|380:344|460:300,1,180,8|8,0:0|0:0,0:0:0:0:
480,216,80028,1,0,0:0:0:0:
400,172,80365,2,0,B|324:180|324:180|300:172|300:172|208:184,1,180,8|8,0:0|0:0,0:0:0:0:
148,128,81376,5,0,0:0:0:0:
168,40,81713,2,0,P|256:24|360:44,1,180,8|8,0:0|0:0,0:0:0:0:
364,127,82725,2,0,P|256:196|148:128,1,270,0|8,0:0|0:0,0:0:0:0:
60,148,84073,5,0,0:0:0:0:
28,232,84410,2,0,P|112:248|204:304,1,180,8|8,0:0|0:0,0:0:0:0:
256,360,85421,1,0,0:0:0:0:
318,294,85758,2,0,P|396:249|484:232,1,180,8|8,0:0|0:0,0:0:0:0:
509,145,86770,6,0,P|425:65|297:129,1,270,4|8,0:0|0:0,0:0:0:0:
212,122,88118,2,0,P|100:62|3:145,1,270,0|8,0:0|0:0,0:0:0:0:
8,236,89466,5,4,0:0:0:0:
72,300,89803,2,0,B|140:292|140:292|176:272|176:272|252:264,1,180,8|8,0:0|0:0,0:0:0:0:
304,332,90815,1,0,0:0:0:0:
384,292,91152,2,0,P|420:216|376:128,1,180,8|8,0:0|0:0,0:0:0:0:
308,80,92163,6,0,B|216:88|216:88|132:72|132:72|40:84,1,270,0|8,0:0|0:0,0:0:0:0:
8,168,93511,2,0,P|44:268|184:240,1,270,0|8,0:0|0:0,0:0:0:0:
256,192,94860,5,4,0:0:0:0:
264,280,95197,2,0,P|388:296|456:300,1,180,8|8,0:0|0:0,0:0:0:0:
492,224,96208,2,0,P|504:140|348:96,1,270,0|8,0:0|0:0,0:0:0:0:
288,148,97556,6,0,P|224:152|152:136,1,135,4|4,0:0|0:0,0:0:0:0:
96,68,98399,2,0,L|36:76,2,45,0|4|4,0:0|0:0|0:0,0:0:0:0:
