osu file format v5

[General]
AudioFilename: 02 - Lady Writer.mp3
AudioLeadIn: 0
PreviewTime: -1
Countdown: 1
SampleSet: Normal
StackLeniency: 0.7
Mode: 0
LetterboxInBreaks: 1

[Metadata]
Title:Lady Writer
Artist:Dire Straits
Creator:Ace of Spades
Version:Normal
Source:
Tags:

[Difficulty]
HPDrainRate:5
CircleSize:5
OverallDifficulty:5
SliderMultiplier:1.4
SliderTickRate:1

[Events]
//Background and Video events
0,0,"direstraits.jpg"
//Break Periods
//Storyboard Layer 0 (Background)
//Storyboard Layer 1 (Failing)
//Storyboard Layer 2 (Passing)
//Storyboard Layer 3 (Foreground)
//Storyboard Sound Samples
//Background Colour Transformations
3,100,163,162,255

[TimingPoints]
14167.8008000546,406.834825061025,4,1,0,100,1,0

[HitObjects]
256,192,13760,5,8
160,96,14167,5,0
224,96,14574,1,0
288,96,14981,1,0
352,96,15388,1,0
416,96,15795,1,0
416,160,16201,1,0
352,160,16608,1,0
288,160,17015,1,0
224,160,17422,1,0
160,160,17829,1,2
160,224,18236,1,0
224,224,18642,1,0
288,224,19049,1,0
352,224,19456,1,0
416,224,19863,1,0
416,160,20270,5,0
416,96,20677,1,0
416,32,21083,1,0
352,32,21490,1,0
320,96,21897,1,0
288,160,22304,1,0
256,224,22711,1,2
320,224,23118,1,2
320,224,23525,1,2
320,288,23931,1,2
288,352,24338,1,0
224,288,24745,1,0
160,224,25152,1,0
96,160,25559,1,0
416,288,27186,1,0
416,160,27593,1,0
288,160,28000,1,0
160,160,28407,1,0
160,32,28813,1,0
288,32,29220,1,0
288,160,29627,1,0
288,288,30034,1,0
96,96,30441,6,2,B|384:96|384:96|384:320|384:320|96:320|96:320|288:160|288:160|288:160,1,980
160,128,34102,1,0
352,288,34509,1,0
160,128,34916,1,0
352,288,35323,1,0
160,128,35730,1,0
352,288,36136,1,0
160,128,36543,1,0
160,288,36950,2,2,B|384:64|384:64,1,280
224,160,38171,1,0
320,160,38577,1,0
256,224,38984,1,0
96,192,39391,1,0
128,96,39798,1,0
256,192,40205,2,2,B|256:128|352:192|256:288|192:256|192:192|192:96|224:64|288:96|352:96|384:160|384:224|352:256|352:320|288:320|256:320|224:320|192:288|160:288|128:256|128:192|128:160|160:96|160:96|192:64|192:64|256:64|320:64|352:64|384:96|416:96|416:160|448:192|448:256|448:288|448:320|416:352|352:352|288:352|256:352|224:352|192:352|160:352|128:352|96:320|64:288|64:256|64:224|32:192|32:160|64:96|64:64|96:64|128:32|160:32|192:32|256:32|288:32|352:32|384:32|416:64|416:64|448:128|448:160|448:160|448:160,1,2100
256,192,47528,12,0,52817
192,96,54037,5,0
192,96,54444,1,0
320,96,55664,1,0
320,96,56071,1,0
256,256,56478,1,0
256,256,56885,1,0
256,256,57292,1,0
256,256,57699,1,0
256,256,58105,1,0
256,256,58512,1,0
256,256,58919,1,0
320,256,59326,1,0
320,128,60140,1,0
192,128,60546,1,0
192,256,60953,1,0
256,192,61360,1,0
256,192,61767,1,0
320,128,62174,1,0
320,256,62581,1,0
192,256,62987,1,0
448,192,63394,1,0
448,192,63801,1,0
160,32,64208,2,2,B|352:64|416:192|224:256|128:192|192:96|288:64|384:32|448:128|416:256|288:288|160:224|128:160|352:320|352:320|352:320,2,560
96,160,67869,1,0
160,160,68276,1,0
256,96,68683,1,0
352,192,69090,5,0
256,192,69497,1,0
128,128,69904,1,0
352,96,70311,1,0
256,256,70717,1,0
128,192,71124,1,0
192,160,71531,1,0
288,192,71938,1,0
256,192,72345,12,0,74786
224,160,75193,5,0
320,256,75599,1,0
256,192,76006,12,0,78854
96,96,79261,6,2,B|352:96|352:224|288:320|192:256|192:128|256:32|448:128|384:256|256:320|160:224|128:160|192:64|224:32|128:64|96:192|96:256|256:288|352:256|352:192|288:96|160:160|128:224|160:320|288:352|288:352,2,746.666666666667
256,192,85228,1,0
160,128,86855,1,0
86,225,87126,2,2,B|428:223|428:223,1,326.666666666667
352,128,88347,1,0
224,192,88754,1,0
288,224,89161,1,0
224,288,89567,1,0
128,256,89974,1,0
160,192,90381,1,0
224,160,90788,1,0
320,160,91195,1,0
352,224,91602,1,0
256,256,92008,5,0
160,224,92415,1,0
160,160,92822,1,0
224,128,93229,1,0
352,192,93636,1,0
192,256,94043,1,0
96,192,94449,1,0
192,160,94856,1,0
288,224,95263,1,0
352,160,95670,1,0
256,128,96077,1,0
192,128,96484,1,0
160,128,96890,1,0
256,192,97162,12,0,99738
128,160,100145,5,0
224,160,100552,1,0
352,160,100959,1,0
192,288,101366,1,0
320,288,101772,1,0
160,160,102179,1,0
256,128,102586,1,0
416,192,102993,1,0
192,224,103400,1,0
64,160,103807,1,0
160,96,104213,1,0
288,192,104620,5,0
160,256,105027,1,0
192,160,105434,1,0
221,212,105841,1,0
256,256,106112,1,0
297,300,106383,1,0
361,298,106654,1,0
334,245,106926,1,0
294,198,107197,1,0
256,155,107468,1,0
223,112,107875,1,0
273,82,108282,1,0
328,60,108689,1,0
382,64,108960,1,0
393,125,109095,1,0
388,184,109231,1,0
393,243,109367,1,0
331,248,109502,1,0
272,248,109638,1,0
210,249,109773,1,0
158,242,109909,1,0
165,187,110045,1,0
192,160,111536,6,2,B|352:160|352:160,1,140
256,224,112893,1,0
256,160,113299,1,0
192,160,113842,1,0
320,160,114384,1,0
256,224,114791,1,0
256,96,115198,1,0
192,96,115605,1,0
192,160,116012,1,0
320,160,116418,1,0
256,224,116825,1,0
256,160,117232,1,0
256,192,118046,6,2,B|448:192|64:128,2,280
256,192,120487,2,2,B|384:128|224:64|448:224|256:320|480:224|448:96|256:64|128:192|32:96,2,513.333333333333
256,192,124148,12,0,129708
256,192,130115,5,0
256,192,130522,1,0
160,160,130929,2,2,B|352:160|-32:96,3,280
320,192,133912,1,0
224,160,134319,1,0
288,96,134726,1,0
224,224,135133,1,0
128,224,135540,1,0
128,96,135947,1,0
288,160,136353,1,0
288,288,136760,1,0
192,256,137167,1,0
224,160,138388,1,0
288,160,138794,1,0
288,224,139608,1,0
224,224,140015,5,0
160,224,140422,1,0
160,160,140829,1,0
192,160,141235,1,0
256,160,141642,1,0
288,192,142049,1,0
256,256,142456,1,0
192,224,142863,1,0
160,192,143270,1,0
160,160,143676,1,0
192,128,144083,1,0
256,192,144490,1,0
288,224,144897,1,0
224,288,145304,1,0
128,224,145711,1,0
128,192,146117,1,0
192,160,146524,5,0
224,224,146931,1,0
160,256,147338,1,0
96,224,147745,1,0
64,192,148152,1,0
32,160,148558,1,0
320,224,149779,2,2,B|416:320|128:64,2,280
256,192,152491,5,0
320,160,152898,1,0
288,256,153305,1,0
192,256,153712,1,0
192,160,154118,1,0
96,128,154525,2,2,B|352:128|288:384|448:64|448:64,1,420
472,159,156153,1,0
430,230,156559,1,0
341,245,156966,1,0
244,248,157373,1,0
288,320,157780,1,0
175,323,158187,1,0
147,212,158594,1,0
257,112,159000,1,0
347,100,159407,1,0
256,256,159814,1,0
96,192,160221,2,2,B|384:192|384:192,1,280
186,110,161442,1,0
256,256,161848,1,0
150,237,162255,1,0
64,288,162662,1,0
192,128,163476,2,2,B|480:128|384:32|448:224|288:256|320:64|416:32|512:96|416:256|224:224|256:64|256:0|96:96|96:192|96:192|32:96,4,700
194,190,172019,1,0
210,243,172426,1,0
160,256,172833,1,0
192,160,173240,1,0
288,128,173647,1,0
320,224,174053,1,0
192,288,174460,1,0
64,192,174867,2,2,B|224:192|224:192,1,140
288,288,175681,1,0
256,224,176088,1,0
96,128,176494,6,2,B|256:128|256:128,1,140
288,288,177308,1,0
352,192,177715,1,0
256,160,178122,1,0
192,160,178529,1,0
160,224,178935,1,0
224,256,179342,1,0
288,224,179749,1,0
352,192,180156,1,0
288,160,180563,1,0
192,160,180970,1,0
128,224,181376,5,0
224,288,181783,1,0
288,224,182190,1,0
128,64,182597,2,2,B|448:64|352:352|352:352,1,420
288,128,184224,1,0
320,224,184631,1,0
224,256,185038,1,0
128,192,185445,1,0
160,160,185852,1,0
256,160,186258,1,0
320,160,186665,1,0
288,256,187072,5,0
96,288,187479,2,2,B|384:288|384:288,1,280
224,128,188293,1,0
320,160,188699,1,0
288,224,189106,1,0
192,256,189513,1,0
192,288,189920,1,0
288,288,190327,1,0
352,224,190734,1,0
288,160,191140,1,0
192,160,191547,1,0
128,224,191954,5,0
128,256,192361,1,0
224,256,192903,1,0
224,224,193039,1,0
224,192,193175,1,0
192,192,193310,1,0
160,160,193446,1,0
160,128,193581,1,0
192,128,193717,1,0
224,128,193853,5,0
256,128,193988,1,0
288,128,194124,1,0
288,160,194260,1,0
289,196,194395,1,0
247,201,194531,1,0
201,200,194666,1,0
162,197,194802,1,0
112,155,194938,1,0
104,212,195073,5,0
113,260,195209,1,0
113,308,195344,1,0
172,304,195480,1,0
233,308,195616,1,0
284,316,195751,1,0
288,256,195887,1,0
283,193,196022,1,0
286,131,196158,1,0
224,160,196294,5,0
192,160,196429,1,0
192,128,196565,1,0
192,96,198328,5,0
224,96,198463,1,0
256,96,198599,1,0
288,128,198735,1,0
288,160,198870,1,0
288,160,199006,1,0
256,192,199142,1,0
224,192,199277,1,0
192,224,199413,1,0
224,256,199548,5,0
256,256,199684,1,0
188,127,200498,1,0
241,128,200769,1,0
296,128,201040,1,0
351,129,201311,1,0
224,160,201583,1,0
162,158,201718,1,0
162,224,201854,1,0
159,290,201989,5,0
220,304,202125,1,0
285,303,202261,1,0
283,249,202396,1,0
284,190,202532,1,0
282,127,202667,1,0
219,125,202803,1,0
156,128,202939,1,0
92,121,203074,1,0
144,59,203210,1,0
230,60,203481,2,2,B|431:60|431:60,1,186.666666666667
86,270,204295,5,0
150,271,204430,1,0
217,274,204566,1,0
275,281,204702,1,0
326,273,204837,1,0
290,221,204973,1,0
226,216,205108,1,0
168,211,205244,1,0
117,207,205380,1,0
251,190,206736,5,4
256,192,207143,12,0,218534
