osu file format v9

[General]
AudioFilename: Dio - Tijdmachine.mp3
AudioLeadIn: 0
PreviewTime: 125136
Countdown: 0
SampleSet: Normal
StackLeniency: 0.7
Mode: 0
LetterboxInBreaks: 1

[Editor]
Bookmarks: 27789,47381,66973,95442,106156,125748,145340,154218,164932,184524,204116
DistanceSpacing: 1
BeatDivisor: 4
GridSize: 8

[Metadata]
Title:Tijdmachine
Artist:Dio ft. Sef
Creator:GladiOol
Version:Normal
Source:
Tags:lesjuh gladi

[Difficulty]
HPDrainRate:3
CircleSize:3
OverallDifficulty:3
ApproachRate:6
SliderMultiplier:1.2
SliderTickRate:2

[Events]
//Background and Video events
0,0,"bg.jpg"
//Break Periods
2,86765,94392
2,145540,153168
//Storyboard Layer 0 (Background)
//Storyboard Layer 1 (Fail)
//Storyboard Layer 2 (Pass)
//Storyboard Layer 3 (Foreground)
//Storyboard Sound Samples
//Background Colour Transformations
3,100,163,162,255

[TimingPoints]
26565,306.122448979592,4,2,0,30,1,0
27712,-100,4,1,0,50,0,0
64830,-100,4,2,0,50,0,0
65901,-100,4,2,0,5,0,0
66820,-100,4,1,0,50,0,0
66973,-100,4,1,0,50,0,1
86565,-100,4,1,0,50,0,0
103554,-100,4,2,0,50,0,0
106156,-100,4,1,0,50,0,0
123605,-100,4,2,0,50,0,0
125748,-100,4,1,0,50,0,1
145340,-100,4,1,0,50,0,0
162406,-100,4,2,0,50,0,0
164090,-100,4,2,0,30,0,0
164855,-100,4,1,0,50,0,0
179702,-100,4,1,0,30,0,0
183605,-100,4,1,0,70,0,0
184218,-90.9090909090909,4,1,0,60,0,0
184524,-90.9090909090909,4,1,0,60,0,1
204116,-90.9090909090909,4,1,0,60,0,0

[HitObjects]
112,104,26564,1,0
112,104,26718,2,0,B|312:88,1,180,2|0
408,80,27483,2,0,B|440:112|448:152|432:192,1,120,0|6
368,296,28095,5,8
192,248,28554,1,0
192,248,28707,2,0,B|152:200|168:136,1,120,8|6
264,64,29320,2,0,B|336:104|352:216|288:280,1,240,8|8
392,344,30238,5,6
464,248,30544,2,0,B|392:208|376:96|440:32,1,240,8|8
320,8,31462,1,6
320,8,31769,1,8
288,184,32228,1,0
288,184,32381,1,8
200,264,32687,5,6
88,216,32993,2,8,B|32:152|56:32|144:16,1,240
256,8,33911,1,6
296,120,34218,2,8,B|360:176|480:152|496:64,2,240
144,24,35901,1,0
144,24,36054,1,8
64,112,36360,6,0,B|40:136|32:184|56:232,1,120,6|8
128,320,36973,1,0
184,216,37279,1,8
240,112,37585,1,6
240,112,37891,2,8,B|304:168|416:152|432:40,1,240
504,144,38809,5,6
456,256,39116,2,0,B|432:224|384:208|344:224,1,120,8|0
256,296,39728,1,8
160,224,40034,1,6
160,224,40340,2,8,B|97:164|141:35|237:31,1,240
296,128,41258,5,6
296,128,41564,2,8,B|358:187|314:316|218:320,1,240
112,312,42483,1,6
112,312,42789,2,8,B|171:249|300:293|304:389,1,240
400,304,43707,6,0,B|368:264|368:224|400:176,1,120,6|8
488,40,44473,1,0
488,40,44626,1,8
376,88,44932,2,0,B|344:56|296:48|256:72,1,120,6|8
168,136,45544,5,0
168,136,45697,1,0
168,136,45850,2,8,B|136:104|128:64|152:24,2,120,8|6|8
96,304,46922,1,0
96,304,47075,1,8
208,256,47381,5,6
296,336,47687,2,8,B|368:320|416:224|344:136,1,240
264,56,48605,2,0,B|208:16|128:40|104:96,1,180,6|0
88,208,49371,1,0
88,208,49524,1,8
176,288,49830,5,6
280,232,50136,2,8,B|224:168|240:56|328:24,1,240
384,128,51054,1,6
384,248,51360,2,8,B|355:326|243:342|179:286,1,240
144,176,52279,5,6
232,88,52585,2,8,B|203:9|91:-7|27:49,2,240
320,288,54269,1,0
320,288,54422,1,8
416,216,54728,5,6
352,120,55034,2,0,B|328:80|336:32|376:0,2,120,8|0|8
256,192,55952,1,6
136,232,56258,2,8,B|184:176|176:48|72:24,1,240
40,144,57177,5,6
40,144,57483,2,8,B|96:192|224:184|248:80,1,240
352,48,58401,1,6
320,160,58707,1,8
320,160,58860,1,0
368,272,59167,1,0
368,272,59320,1,8
472,232,59626,6,0,B|504:192|512:152|480:96,1,120,6|8
464,72,60085,2,0,B|424:16|344:8|288:56,1,180,0|8
248,152,60850,1,6
192,256,61156,2,8,B|112:232|72:120|144:40,1,240
248,32,62075,5,6
248,32,62228,1,0
248,32,62381,1,8
280,144,62687,1,0
224,248,62993,1,8
104,224,63299,6,0,B|56:176|48:112|96:48,1,180,6|0
200,24,64064,1,0
200,24,64218,1,8
264,128,64524,1,2
264,128,64830,2,0,B|320:168|400:128|400:64,2,180,2|0|0
72,40,66973,6,0,B|40:72|32:112|56:160,1,120,6|8
88,200,67432,2,0,B|144:232|224:208|240:128,1,180,0|8
296,40,68197,1,6
400,104,68503,2,8,B|472:144|488:248|432:328,1,240
320,368,69422,6,0,B|288:344|280:296|296:256,1,120,6|8
328,200,69881,2,0,B|296:264|208:272|160:224,1,180,0|8
88,152,70646,1,6
168,64,70952,1,8
280,104,71258,2,0,B|320:128|376:112|384:56,1,120,0|8
472,152,71871,5,6
440,264,72177,2,0,B|400:240|344:256|336:312,1,120,8|0
232,344,72789,1,8
136,280,73095,1,6
104,168,73401,1,8
168,72,73707,6,0,B|208:48|256:64|272:96,1,120,2|8
288,152,74167,2,2,B|312:208|408:240|448:184,1,180,2|8
456,312,74932,2,0,B|416:296|368:312|344:352,1,120,2|8
296,368,75391,2,2,B|240:352|200:288|232:224,1,180,2|8
312,128,76156,1,2
312,128,76462,1,8
216,48,76769,5,6
216,48,76922,2,0,B|168:24|120:48|112:96,1,120,0|2
96,264,77687,1,8
96,264,77840,1,0
96,264,77993,2,0,B|144:288|192:264|200:216,1,120,6|8
264,128,78605,6,0,B|298:98|362:114|375:155,1,120,2|8
408,192,79065,2,2,B|448:248|432:336|368:368,1,180,2|8
288,288,79830,1,0
176,336,80136,5,8
176,336,80289,1,0
176,336,80442,2,0,B|136:312|128:264|152:216,1,120,6|8
88,128,81054,2,0,B|136:152|184:128|192:72,1,120,2|8
208,40,81513,2,2,B|176:96|216:184|280:200,1,180,2|8
360,256,82279,1,2
280,344,82585,1,8
168,296,82891,6,0,B|200:232|176:120|96:80,1,240,6|0
344,40,84116,2,2,B|312:104|336:216|416:256,2,240
256,192,85952,1,0
256,192,86565,1,6
136,80,95442,5,8
136,80,95595,1,0
88,192,95901,1,0
88,192,96054,1,8
160,288,96360,1,6
264,224,96667,2,0,B|240:128|336:48|416:80,1,240,8|8
424,192,97585,1,6
358,292,97891,2,8,B|289:363|170:324|155:239,1,240
128,136,98809,5,6
224,64,99116,1,8
336,112,99422,2,0,B|384:128|432:112|448:48,2,120,0|8|6
240,184,100340,1,8
240,184,100493,2,0,B|192:216|184:312|248:360,1,180,0|8
344,304,101258,5,6
392,192,101565,2,8,B|384:104|288:48|208:96,1,240
152,192,102483,2,0,B|88:160|72:80|120:24,1,180,6|0
215,92,103248,1,0
215,92,103401,1,8
392,304,104013,5,2
464,176,104626,1,2
400,48,105238,1,2
56,136,106156,5,6
56,136,106462,2,8,B|0:192|8:312|104:352,1,240
208,360,107381,1,6
280,264,107687,2,8,B|336:208|456:216|496:312,2,240
216,160,109218,1,0
304,80,109524,6,0,B|344:96|400:80|416:24,2,120,8|6|8
192,48,110442,1,0
104,136,110748,1,8
136,248,111054,1,6
136,248,111360,2,8,B|208:312|328:272|320:160,1,240
304,56,112279,5,6
416,16,112585,1,8
416,16,112738,1,0
472,120,113044,1,0
472,120,113197,1,8
424,232,113503,1,6
424,232,113809,2,8,B|384:152|280:136|200:192,1,240
152,280,114728,5,6
88,176,115034,1,8
192,32,115493,1,0
192,32,115646,1,8
272,120,115952,2,0,B|320:136|368:120|384:56,1,120,6|8
488,160,116565,2,0,B|440:144|392:160|376:224,1,120,0|8
352,312,117177,5,6
232,328,117483,2,8,B|152:288|136:160|232:112,1,240
328,112,118401,1,6
328,112,118707,2,8,B|408:152|424:280|328:328,1,240
232,328,119626,5,6
152,240,119932,1,8
152,240,120085,1,0
224,144,120391,1,0
224,144,120544,1,8
144,56,120850,5,6
144,56,121003,1,0
144,56,121156,1,8
72,152,121462,1,0
88,272,121769,1,8
176,352,122075,6,0,B|240:384|312:352|312:280,1,180,6|0
320,168,122840,1,0
320,168,122993,1,8
256,64,123299,1,2
256,64,123605,2,0,B|192:32|120:64|120:136,2,180,2|0|0
440,40,125748,6,0,B|472:72|480:112|456:160,1,120,6|8
424,200,126207,2,0,B|368:232|288:208|272:128,1,180,0|8
216,40,126972,1,6
112,104,127278,2,8,B|40:144|24:248|80:328,1,240
192,368,128197,6,0,B|224:344|232:296|216:256,1,120,6|8
184,200,128656,2,0,B|216:264|304:272|352:224,1,180,0|8
424,152,129421,1,6
344,64,129727,1,8
232,104,130033,2,0,B|192:128|136:112|128:56,1,120,0|8
40,152,130646,5,6
72,264,130952,2,0,B|112:240|168:256|176:312,1,120,8|0
280,344,131564,1,8
376,280,131870,1,6
408,168,132176,1,8
344,72,132482,6,0,B|304:48|256:64|240:96,1,120,2|8
224,152,132942,2,2,B|200:208|104:240|64:184,1,180,2|8
56,312,133707,2,0,B|96:296|144:312|168:352,1,120,2|8
216,368,134166,2,2,B|272:352|312:288|280:224,1,180,2|8
200,128,134931,1,2
200,128,135237,1,8
296,48,135544,5,6
296,48,135697,2,0,B|344:24|392:48|400:96,1,120,0|2
416,264,136462,1,8
416,264,136615,1,0
416,264,136768,2,0,B|368:288|320:264|312:216,1,120,6|8
248,128,137380,6,0,B|213:98|149:114|136:155,1,120,2|8
104,192,137840,2,2,B|64:248|80:336|144:368,1,180,2|8
224,288,138605,1,0
336,336,138911,5,8
336,336,139064,1,0
336,336,139217,2,0,B|376:312|384:264|360:216,1,120,6|8
424,128,139829,2,0,B|376:152|328:128|320:72,1,120,2|8
304,40,140288,2,2,B|336:96|296:184|232:200,1,180,2|8
152,256,141054,1,2
232,344,141360,1,8
344,296,141666,6,0,B|312:232|336:120|416:80,1,240,6|0
168,40,142891,2,2,B|200:104|176:216|96:256,2,240
256,192,144727,1,0
256,192,145340,1,6
256,336,154218,6,0,B|328:392|440:352|432:232,1,240,8|8
440,136,155136,1,6
344,72,155442,5,8
344,72,155595,2,0,B|328:112|272:128|232:104,1,120
242,109,156054,1,8
128,80,156360,1,6
64,184,156667,2,8,B|128:136|248:168|264:264,1,240
344,336,157585,2,0,B|320:288|336:240|384:216,1,120,6|8
472,168,158197,1,0
408,64,158503,2,0,B|376:24|320:24|280:48,1,120,8|6
208,120,159116,6,0,B|272:152|288:280|216:344,1,240,8|8
96,296,160034,1,6
72,176,160340,5,8
72,176,160493,2,0,B|136:200|200:160|200:88,1,180,0|8
320,40,161258,1,6
288,160,161565,1,8
288,160,161718,1,0
360,256,162024,1,0
360,256,162177,1,8
128,56,162789,5,2
56,184,163402,1,2
120,312,164014,1,2
280,64,164932,6,0,B|328:48|368:64|392:128,1,120,6|8
400,160,165391,1,0
344,264,165697,1,0
344,264,165850,1,8
240,200,166156,2,0,B|192:184|144:208|136:256,1,120,6|8
120,296,166616,1,0
48,200,166922,1,0
48,200,167075,1,8
104,96,167381,5,6
104,96,167687,2,8,B|160:152|288:120|288:24,1,240
384,96,168605,1,6
360,216,168911,2,8,B|304:160|176:192|176:288,1,240
64,248,169830,5,6
104,136,170136,1,8
304,48,170595,1,0
304,48,170748,1,8
400,112,171054,2,0,B|368:144|368:200|400:232,1,120,6|8
424,272,171513,2,0,B|384:224|312:216|256:264,1,180,0|8
192,360,172279,6,0,B|152:336|136:288|160:232,1,120,6|8
184,208,172738,2,0,B|232:160|240:104|192:40,1,180,0|8
312,16,173503,1,6
360,128,173809,2,0,B|288:144|248:280|336:344,1,240,8|8
432,288,174728,5,6
472,176,175034,1,8
472,176,175187,1,0
416,72,175493,1,0
416,72,175646,1,8
312,128,175952,2,0,B|288:152|224:160|176:120,1,120,6|8
152,96,176411,1,0
88,200,176718,1,0
88,200,176871,1,8
152,304,177177,5,6
256,240,177483,2,0,B|192:192|176:88|256:16,1,240,8|8
320,120,178401,1,6
416,48,178707,2,0,B|477:110|451:224|353:263,1,240,8|8
184,67,179932,5,2
400,191,180544,1,2
184,316,181156,1,2
327,67,181769,5,2
328,316,182381,1,2
112,192,182993,1,2
112,192,183911,5,2
392,32,184524,6,2,B|424:64|432:120|400:168,1,131.999996066094,6|8
368,208,184983,1,0
272,120,185289,1,2
272,120,185442,1,8
144,88,185748,1,2
56,184,186054,2,0,B|32:216|40:288|80:312,1,131.999996066094,8|2
128,336,186513,2,0,B|168:336|192:304,3,65.9999980330468,2|8|2|6
224,168,187279,5,8
224,168,187432,1,0
328,248,187738,1,0
328,248,187891,2,0,B|360:208|368:168|336:104,1,131.999996066094,8|6
232,48,188503,2,2,B|181:40|142:53|103:113,1,131.999996066094,10|2
104,224,189116,2,2,B|122:271|153:298|224:302,1,131.999996066094,10|6
336,280,189728,5,8
392,160,190034,1,2
272,112,190340,1,8
216,232,190646,2,2,B|192:272|136:280|96:248,1,131.999996066094,2|8
24,144,191258,1,2
24,144,191411,2,0,B|8:112|24:72,3,65.9999980330468,2|8|2|4
144,88,192177,2,8,B|216:160|192:296|80:320,1,263.999992132187
56,192,193095,5,2
56,192,193248,1,2
144,88,193554,1,2
144,88,193707,1,2
272,64,194013,1,8
368,152,194320,5,6
368,152,194473,1,0
352,280,194779,2,2,B|320:352|224:368|176:320,1,197.99999409914,2|8
136,288,195391,1,0
136,288,195544,2,2,B|96:272|80:208|112:168,1,131.999996066094,6|8
192,72,196156,2,2,B|208:32|272:16|312:48,1,131.999996066094,2|8
360,80,196616,6,2,B|408:120|408:224|344:264,1,197.99999409914,2|8
248,328,197381,1,0
144,248,197687,1,8
144,248,197840,1,0
144,248,197993,2,2,B|168:200|152:144|104:120,1,131.999996066094,6|10
248,112,198605,2,2,B|224:160|240:216|288:240,1,131.999996066094,2|10
320,280,199065,6,2,B|256:240|168:280|168:368,1,197.99999409914,2|8
40,328,199830,1,2
72,200,200136,1,8
200,168,200442,2,2,B|224:120|208:64|144:48,1,131.999996066094,6|10
104,40,200901,1,2
24,144,201207,1,2
24,144,201360,1,10
256,192,201667,12,0,204116
