osu file format v9

[General]
AudioFilename: Dio - Tijdmachine.mp3
AudioLeadIn: 0
PreviewTime: 125136
Countdown: 0
SampleSet: Normal
StackLeniency: 0.7
Mode: 0
LetterboxInBreaks: 1

[Editor]
Bookmarks: 27789,47381,66973,95442,106156,125748,145340,154218,164932,184524,204116
DistanceSpacing: 1
BeatDivisor: 4
GridSize: 8

[Metadata]
Title:Tijdmachine
Artist:Dio ft. Sef
Creator:GladiOol
Version:Easy
Source:
Tags:lesjuh gladi

[Difficulty]
HPDrainRate:1
CircleSize:3
OverallDifficulty:1
ApproachRate:3
SliderMultiplier:0.8
SliderTickRate:1

[Events]
//Background and Video events
0,0,"bg.jpg"
//Break Periods
2,86764,94002
2,145539,152778
//Storyboard Layer 0 (Background)
//Storyboard Layer 1 (Fail)
//Storyboard Layer 2 (Pass)
//Storyboard Layer 3 (Foreground)
//Storyboard Sound Samples
//Background Colour Transformations
3,100,163,162,255

[TimingPoints]
26565,306.122448979592,4,2,0,30,1,0
27712,-100,4,1,0,50,0,0
64830,-100,4,2,0,50,0,0
65901,-100,4,2,0,10,0,0
66820,-100,4,1,0,50,0,0
66973,-100,4,1,0,50,0,1
86565,-100,4,1,0,50,0,0
103554,-100,4,2,0,50,0,0
106156,-100,4,1,0,50,0,0
123605,-100,4,2,0,50,0,0
125748,-100,4,1,0,50,0,1
145340,-100,4,1,0,50,0,0
162406,-100,4,2,0,50,0,0
164855,-100,4,1,0,50,0,0
179702,-100,4,1,0,30,0,0
184524,-90.9090909090909,4,1,0,60,0,1
204116,-90.9090909090909,4,1,0,60,0,0

[HitObjects]
72,344,26564,2,0,B|24:320|8:240|56:192,2,160,0|0|6
152,328,28095,2,0,B|189:292|173:212|125:188,1,160,8|8
72,128,29013,1,6
136,80,29320,2,0,B|186:101|252:66|261:13,1,160,8|8
328,56,30238,5,6
336,136,30544,2,0,B|285:114|219:149|210:202,1,160,8|8
152,352,31769,1,8
48,232,32381,1,8
16,160,32687,5,6
64,96,32993,2,8,B|104:56|184:72|208:120,1,160
232,192,33911,1,6
296,240,34218,2,8,B|348:218|364:138|330:98,2,160
192,360,36054,5,8
128,312,36360,1,6
200,280,36667,1,8
344,208,37279,1,8
408,160,37585,5,6
336,128,37891,2,8,B|304:80|232:72|192:104,1,160
120,144,38809,1,6
168,208,39116,2,8,B|200:256|272:264|312:232,1,160
448,320,40340,5,8
496,176,40952,1,8
392,48,41564,1,8
232,16,42177,1,8
168,64,42483,5,6
208,136,42789,2,8,B|232:184|320:200|352:152,1,160
416,120,43707,1,6
416,200,44013,2,8,B|468:221|484:301|450:341,2,160
344,160,45544,6,0,B|328:128|328:112|344:80,1,80,0|8
408,32,46156,1,6
176,88,47075,1,8
128,152,47381,5,6
176,216,47687,2,8,B|232:232|288:200|296:136,1,160
352,80,48605,2,0,B|384:64|416:72|440:96,1,80,6|8
504,224,49524,2,0,B|472:240|440:232|416:208,1,80,8|6
352,192,50136,6,8,B|309:152|244:155|208:208,1,160
96,312,51360,2,8,B|48:288|32:219|72:169,1,160
112,104,52279,5,6
112,104,52585,1,8
224,216,53197,1,8
352,120,53809,1,8
448,248,54422,1,8
368,288,54728,6,4,B|336:272|296:288|288:320,1,80,6|8
232,360,55340,2,4,B|200:376|160:360|152:328,1,80,0|8
96,296,55952,1,6
144,232,56258,2,8,B|168:192|168:128|112:88,1,160
72,168,57177,5,6
72,168,57483,2,8,B|232:136,1,160
384,104,58707,1,8
456,248,59320,1,8
400,304,59626,6,0,B|376:280|368:248|384:216,1,80,6|8
256,128,60544,2,0,B|280:152|288:184|272:216,1,80,8|6
240,272,61156,1,8
104,192,61769,1,8
48,136,62075,5,6
128,112,62381,2,8,B|168:144|256:128|256:56,1,160
328,40,63299,1,6
328,120,63605,2,0,B|304:144|304:176|320:208,1,80,8|0
336,272,64218,1,8
200,352,64830,6,0,B|248:296|232:184|136:152,1,240,2|0
360,144,66973,5,6
312,208,67279,2,0,B|288:224|248:216|232:192,1,80,8|0
200,128,67891,1,8
80,232,68503,1,8
184,352,69116,1,8
248,304,69422,5,6
208,232,69728,2,8,B|176:192|184:112|240:88,1,160
312,64,70646,1,6
360,128,70952,2,8,B|409:155|481:117|481:59,2,160
296,176,72483,6,0,B|280:200|280:240|304:264,1,80,0|8
192,376,73401,2,0,B|208:352|208:312|184:288,1,80,8|0
136,240,74013,1,8
176,168,74320,5,6
256,192,74626,2,8,B|312:224|376:200|392:128,1,160
416,72,75544,1,6
344,40,75850,2,8,B|288:8|224:32|208:104,1,160
176,160,76769,6,0,B|160:192|128:200|96:184,1,80,6|8
88,344,77687,1,8
160,304,77993,2,0,B|193:290|222:306|235:339,1,80,6|8
384,376,78911,1,8
424,304,79218,5,6
360,256,79524,2,8,B|320:216|312:152|360:104,1,160
408,48,80442,1,6
408,48,80748,2,8,B|376:94|315:114|258:77,1,160
192,48,81667,6,0,B|160:40|120:56|112:80,1,80,6|8
136,240,82585,1,8
216,224,82891,2,0,B|264:248|344:224|352:160,1,160,6|0
440,40,84116,6,0,B|392:16|312:40|304:104,2,160
352,168,85952,2,0,B|304:200|224:168|216:104,1,160,0|6
96,96,95442,6,8,B|64:144|80:208|120:240,1,160
160,312,96360,1,6
232,272,96667,2,8,B|264:224|328:215|376:247,1,160
440,296,97585,1,6
440,296,97891,1,8
488,144,98503,1,8
440,80,98809,6,0,B|408:56|376:56|352:80,1,80,6|8
296,112,99422,2,0,B|272:128|232:136|208:112,1,80,0|8
152,80,100034,5,6
40,296,100952,1,8
112,336,101258,1,6
112,256,101565,2,8,B|72:208|72:144|112:104,1,160
176,64,102483,5,6
240,112,102789,2,8,B|280:160|280:224|240:264,1,160
392,344,104013,5,2
368,216,104626,1,2
432,104,105238,1,0
200,48,106156,5,6
200,48,106462,1,8
72,144,107075,1,8
48,224,107381,1,6
112,272,107687,2,8,B|168:296|232:264|240:192,1,160
256,128,108605,5,6
328,88,108911,1,8
416,224,109524,1,8
312,344,110136,1,8
168,280,110748,1,8
208,208,111054,5,6
136,168,111360,2,8,B|88:136|72:72|112:16,2,160
296,136,113197,6,8,B|344:168|360:232|320:288,2,160
216,112,114728,1,6
216,112,115034,1,8
192,272,115646,1,8
128,320,115952,5,6
64,272,116258,2,0,B|48:240|48:216|72:184,1,80,8|0
120,136,116871,1,8
240,240,117483,1,8
360,136,118095,1,8
432,176,118401,5,6
416,256,118707,1,8
280,344,119320,1,8
136,280,119932,1,8
64,136,120544,1,8
128,88,120850,6,0,B|160:80|192:88|208:120,1,80,6|8
256,168,121462,2,0,B|288:176|320:168|336:136,1,80,0|8
376,80,122075,1,6
440,128,122381,2,8,B|488:144|504:240|464:280,1,160
328,328,123605,6,0,B|259:299|223:192|294:120,1,240,2|0
120,128,125748,5,6
168,192,126054,2,0,B|192:208|232:200|248:176,1,80,8|0
280,112,126666,1,8
400,216,127278,1,8
296,336,127891,1,8
232,288,128197,5,6
272,216,128503,2,8,B|304:176|296:96|240:72,1,160
168,48,129421,1,6
120,112,129727,2,8,B|71:139|-1:101|-1:43,2,160
184,160,131258,6,0,B|200:184|200:224|176:248,1,80,0|8
288,360,132176,2,0,B|272:336|272:296|296:272,1,80,8|0
344,224,132788,1,8
304,152,133095,5,6
224,176,133401,2,8,B|168:208|104:184|88:112,1,160
64,56,134319,1,6
136,24,134625,2,8,B|192:-8|256:16|272:88,1,160
304,144,135544,6,0,B|320:176|352:184|384:168,1,80,6|8
424,344,136462,1,8
352,304,136768,2,0,B|319:290|290:306|277:339,1,80,6|8
96,360,137686,1,8
56,288,137993,5,6
120,240,138299,2,8,B|160:200|168:136|120:88,1,160
72,32,139217,1,6
72,32,139523,2,8,B|104:78|165:98|222:61,1,160
288,32,140442,6,0,B|320:24|360:40|368:64,1,80,6|8
376,240,141360,1,8
296,224,141666,2,0,B|248:248|168:224|160:160,1,160,6|0
40,24,142891,6,0,B|88:0|168:24|176:88,2,160
128,152,144727,2,0,B|176:184|256:152|264:88,1,160,0|6
144,72,154218,5,8
88,224,154830,1,8
128,296,155136,1,6
192,248,155442,2,8,B|216:208|296:200|336:240,1,160
376,312,156360,1,6
448,280,156667,2,8,B|486:241|478:161|438:137,1,160
296,64,157891,6,8,B|257:102|265:182|305:206,1,160
296,288,158809,1,6
224,248,159116,2,8,B|192:200|120:192|72:224,1,160
16,272,160034,5,6
16,272,160340,1,8
136,376,160952,1,8
232,248,161565,1,8
112,144,162177,1,8
224,24,162789,6,0,B|208:72|240:136|296:152,2,160,2|2|2
440,120,164932,5,6
440,120,165238,2,8,B|483:146|499:216|467:264,1,160
424,328,166156,1,6
352,288,166462,2,8,B|308:261|292:191|324:143,1,160
368,80,167381,5,6
368,80,167687,2,8,B|341:123|271:139|223:107,1,160
160,64,168605,1,6
160,64,168911,2,8,B|208:88|224:160|200:208,1,160
48,216,170136,5,8
120,360,170748,1,8
256,272,171360,1,8
192,128,171973,1,8
256,184,172279,5,6
320,128,172585,1,8
464,216,173198,1,8
392,360,173810,1,8
256,272,174422,1,8
192,320,174728,5,6
144,256,175034,2,8,B|168:200|152:144|88:104,1,160
136,40,175952,1,6
216,64,176258,2,8,B|264:96|328:88|360:32,1,160
424,80,177177,5,6
400,160,177483,2,8,B|424:320,2,160
166,192,179932,5,2
300,114,180544,1,2
300,269,181156,1,2
211,114,181769,5,2
345,192,182381,1,2
211,269,182993,1,2
104,40,184524,6,0,B|88:64|96:104|128:128,1,87.9999973773957,6|8
104,296,185442,1,8
104,296,185748,2,0,B|120:272|112:232|80:208,1,87.9999973773957,6|8
248,136,186667,1,8
224,224,186973,5,6
280,296,187279,2,8,B|336:336|416:312|432:240,1,175.999994754791
456,176,188197,2,0,B|464:144|456:104|424:88,3,87.9999973773957,6|10|2|10
352,64,189422,5,6
360,152,189728,1,8
184,120,190340,1,8
216,296,190952,1,8
216,296,191258,2,2,B|184:280|144:296|128:328,1,87.9999973773957,2|10
56,280,191871,6,0,B|96:232|80:152|16:112,1,175.999994754791,6|0
184,32,193095,2,0,B|176:64|184:104|224:120,1,87.9999973773957,6|8
168,184,193707,2,0,B|176:216|168:256|128:272,1,87.9999973773957,2|8
56,240,194320,6,2,B|32:336|168:408|232:304,1,263.999992132187,6|8
256,232,195544,2,2,B|280:136|144:64|80:168,1,263.999992132187,6|8
136,232,196769,6,2,B|193:315|335:261|301:144,1,263.999992132187,6|8
256,80,197993,2,2,B|224:56|200:56|168:72,3,87.9999973773957,6|10|2|10
104,120,199218,6,2,B|32:176|80:328|184:320,1,263.999992132187,6|8
264,320,200442,1,6
312,248,200748,2,2,B|328:216|328:192|304:160,1,87.9999973773957,10|2
256,96,201360,1,8
256,192,201667,12,0,204116
