osu file format v6

[General]
AudioFilename: Dio ft. Jayh - Cool.mp3
AudioLeadIn: 0
PreviewTime: 50068
Countdown: 1
SampleSet: Normal
StackLeniency: 0.7
Mode: 0
LetterboxInBreaks: 1

[Editor]
Bookmarks: 17494,91651
DistanceSpacing: 1
BeatDivisor: 4
GridSize: 8

[Metadata]
Title:Cool
Artist:Dio ft. Jayh
Creator:lesjuh
Version:Hard
Source:
Tags:gladi holland nederland dutch

[Difficulty]
HPDrainRate:7
CircleSize:4
OverallDifficulty:7
SliderMultiplier:1.8
SliderTickRate:2

[Events]
//Background and Video events
0,0,"bg.jpg"
//Break Periods
2,75042,78587
//Storyboard Layer 0 (Background)
//Storyboard Layer 1 (Fail)
//Storyboard Layer 2 (Pass)
//Storyboard Layer 3 (Foreground)
//Storyboard Sound Samples
//Background Colour Transformations
3,100,0,0,0

[TimingPoints]
520,387.096774193548,4,1,0,50,1,0
35445,-100,4,1,0,0,0,0
36413,-100,4,1,0,40,0,0
48393,-100,4,1,0,0,0,0
50038,-100,4,1,0,40,0,0
73264,-100,4,1,0,0,0,0
73457,-100,4,2,0,40,0,0
74715,-100,4,1,0,20,0,0
75006,-100,4,1,0,40,0,0
84586,-100,4,1,1,40,0,0
85167,-100,4,1,0,40,0,0
91167,-100,4,1,0,0,0,0
92619,-100,4,1,0,40,0,0
104135,-100,4,1,0,0,0,0
105780,-100,4,1,0,40,0,0
116522,-100,4,1,0,0,0,0
117780,-100,4,2,0,40,0,0
117973,-100,4,1,0,40,0,0
136651,-100,4,1,0,20,0,0

[Colours]
Combo1 : 255,255,255
Combo2 : 130,130,220

[HitObjects]
256,208,10197,12,4,12907
216,120,13294,5,0
304,136,13487,1,0
376,88,13681,2,0,B|408:48|464:40,2,90,8|0|0
384,176,14261,1,0
384,176,14455,2,0,B|352:264|272:320,1,180,4|0
184,328,15036,5,0
160,320,15132,1,0
136,312,15229,2,0,B|112:272|112:216,1,90,8|0
144,144,15616,2,0,B|168:104|168:48,1,90,0|0
232,120,16003,5,4
272,200,16197,1,0
360,216,16390,1,0
432,160,16584,2,0,B|464:120|512:104,2,90,0|8|0
440,248,17165,2,0,B|440:296|416:344,1,90
336,360,17552,2,0,B|192:352,2,135,4|0|0
328,344,18229,1,0
320,328,18326,5,8
248,248,18519,1,0
152,304,18713,1,0
88,216,18907,1,0
88,216,19100,6,0,B|136:136|120:32,1,180,4|0
208,8,19681,1,0
208,8,19874,2,0,B|304:24,2,90,8|0|0
200,96,20455,1,0
256,160,20649,6,0,B|344:192|440:184,1,180,4|0
488,256,21229,1,0
480,280,21326,1,0
472,304,21423,2,8,B|432:336|384:344,2,90,8|0|0
400,248,22003,1,0
312,224,22197,6,0,B|336:128|296:40,1,180,4|0
208,48,22778,1,0
184,136,22971,2,0,B|184:192|208:240,2,90,8|0|0
208,48,23552,1,0
256,208,23939,12,4,25294
112,48,25681,5,0
176,112,25874,1,0
136,192,26068,2,0,B|120:240|128:296,1,90,8|0
192,344,26455,2,0,B|208:296|200:240,1,90,0|0
240,176,26842,2,0,B|336:168|328:224|416:216,1,180,4|0
480,160,27423,5,0
472,136,27519,1,0
464,112,27616,1,8
384,72,27810,1,0
296,96,28003,1,0
208,72,28197,1,0
120,48,28390,6,0,B|72:280|328:248,1,360,4|8
416,240,29358,1,0
480,304,29552,1,0
416,240,29745,1,0
456,160,29939,6,0,B|472:96|472:24,2,135,4|0|0
432,152,30616,1,0
408,144,30713,1,8
320,200,30907,1,0
224,152,31100,1,0
136,208,31294,1,0
56,168,31487,6,0,B|48:72,2,90,4|0|0
64,256,32068,1,0
72,280,32165,1,0
80,304,32261,1,8
160,344,32455,1,0
248,352,32649,1,0
320,296,32842,1,0
360,216,33036,6,0,B|352:120|376:32,1,180,4|0
288,56,33616,1,0
264,64,33713,1,0
240,72,33810,2,0,B|144:64,2,90,8|0|0
264,160,34390,1,0
216,240,34584,6,0,B|232:288|264:320,1,90,4|0
261,317,34971,1,0
344,344,35165,2,0,B|394:340|433:318,1,90,4|8
256,208,35552,12,0,36326
344,72,36519,5,0
336,96,36616,1,0
328,120,36713,1,4
248,152,36907,5,8
160,48,37100,1,8
144,184,37294,1,8
216,232,37487,5,0
176,304,37681,5,8
40,272,37874,1,8
144,184,38068,1,8
216,232,38261,5,4
296,272,38455,2,0,B|392:264,1,90,10|4
408,280,38745,1,2
488,232,38939,1,0
496,208,39036,1,6
464,128,39229,5,4
392,72,39423,1,2
304,96,39616,2,0,B|256:96|208:80,1,90,2|0
144,32,40003,1,10
88,104,40197,1,0
160,160,40390,1,2
104,232,40584,1,0
104,232,40778,6,0,B|152:312|240:352,1,180,6|2
328,336,41358,2,0,B|424:344,2,90,4|10|0
296,248,41939,2,0,B|392:256,1,90,0|2
472,264,42326,5,4
488,176,42519,1,2
424,112,42713,1,2
336,120,42907,5,0
312,112,43003,1,0
288,104,43100,1,10
200,112,43294,1,0
112,96,43487,2,8,B|72:128|24:136,1,90,2|0
104,184,43874,6,0,B|152:264|128:360,1,180,6|2
216,336,44455,1,0
240,344,44552,1,0
264,352,44649,2,0,B|360:344,2,90,10|0|2
248,264,45229,1,0
248,264,45423,6,0,B|200:184|224:88,1,180,6|0
304,48,46003,1,0
312,72,46100,1,0
320,96,46197,2,0,B|312:192,1,90,10|0
384,240,46584,2,0,B|392:144,1,90,2|0
464,208,46971,6,0,B|456:304|392:376,1,180,6|2
328,312,47552,1,4
248,264,47745,1,10
160,288,47939,1,0
88,336,48132,2,0,B|64:288|56:240,1,90,0|2
256,208,48519,12,4,50068
104,128,50455,5,0
192,136,50649,1,0
272,96,50842,2,0,B|272:40|256:0,2,90,8|0|0
264,184,51423,1,0
264,184,51616,6,0,B|280:280|336:352,1,180,4|0
424,336,52197,1,0
488,272,52390,1,8
504,184,52584,1,0
472,96,52778,2,0,B|376:80,1,90
336,8,53165,6,0,B|264:144|96:88,1,270,4|0
32,144,53939,2,0,B|16:192|8:240,2,90,8|0|0
112,176,54519,1,0
192,216,54713,6,0,B|184:288|168:352,2,135,4|0|0
288,160,55487,1,8
376,224,55681,1,0
440,136,55874,1,0
352,72,56068,1,0
264,80,56261,6,0,B|176:72|88:32,2,180,4|0|8
336,128,57229,1,0
368,216,57423,2,0,B|368:264|344:304,1,90
280,240,57810,6,8,B|232:320|128:344,1,180,4|0
72,280,58390,1,0
40,192,58584,1,8
80,112,58778,1,0
152,64,58971,2,0,B|248:72,1,90
328,48,59358,6,0,B|312:200|464:264,1,270,4|0
376,296,60132,2,0,B|336:320|312:360,2,90,8|0|0
296,248,60713,1,0
240,176,60907,6,0,B|240:112|224:40,2,135,4|0|0
136,136,61681,1,8
64,216,61874,1,0
96,320,62068,1,0
200,352,62261,1,0
272,272,62455,5,4
256,208,62552,12,4,64003
96,56,64390,5,0
152,128,64584,1,0
120,216,64778,2,0,B|80:256|56:296,2,90,8|0|0
208,200,65358,1,0
208,200,65552,6,0,B|328:168|320:328|456:288,1,270,4|0
496,216,66326,1,8
488,128,66519,1,0
424,64,66713,2,0,B|328:56,1,90
248,64,67100,6,0,B|184:80|112:72,2,135,4|0|0
288,168,67874,1,8
248,272,68068,1,0
336,336,68261,1,0
424,280,68455,1,0
400,176,68649,6,0,B|304:168|216:184,2,180,4|0|8
456,104,69616,1,0
416,24,69810,1,0
416,24,70003,1,0
312,88,70197,6,0,B|336:232|272:352,1,270,4|0
184,368,70971,1,8
120,304,71165,1,0
136,216,71358,1,0
256,192,71745,5,4
256,208,71842,12,4,73294
256,64,74068,5,2
224,144,74261,1,0
304,192,74455,1,2
224,240,74649,1,2
256,320,74842,1,4
256,208,79487,12,4,81036
72,160,81423,5,0
88,248,81616,1,0
160,296,81810,2,0,B|208:312|248:344,2,90,8|0|0
168,208,82390,1,0
168,208,82584,2,0,B|248:176|352:184,1,180,4|0
432,208,83165,1,0
504,160,83358,6,0,B|504:112|488:64,2,90,8|0|0
432,208,83939,1,0
408,296,84132,2,0,B|362:318|311:324,1,90,4|0
322,323,84520,1,0
232,320,84713,2,0,B|184:240|192:144,1,180,4|0
208,56,85294,1,0
120,40,85487,1,0
32,40,85681,6,0,B|40:104|40:176,2,135,4|0|0
56,32,86358,1,0
80,24,86455,1,8
128,120,86649,2,0,B|176:128,2,45,0|0|8
112,224,87036,1,0
160,320,87229,6,0,B|208:304|248:296,1,90,4|0
336,328,87616,1,0
392,256,87810,2,0,B|440:240|480:232,2,90,4|8|0
304,224,88390,1,0
248,152,88584,1,0
232,64,88778,6,4,B|200:152|128:216,1,180,4|0
48,248,89358,1,4
56,272,89455,1,0
64,296,89552,2,0,B|112:320|160:328,1,90,8|0
216,264,89939,2,0,B|264:240|312:232,1,90,0|0
392,256,90326,5,4
456,192,90520,1,0
440,104,90713,1,0
352,80,90907,2,0,B|256:88,1,90,0|8
256,208,91294,12,8,92649
440,64,94003,5,4
368,120,94197,2,0,B|368:168|384:216,2,90,8|0|0
280,112,94778,1,0
232,192,94971,2,0,B|160:248|64:264,1,180,4|0
88,176,95552,1,0
8,136,95745,6,0,B|80:80|176:64,2,180,8|0|4
88,176,96713,2,0,B|136:184|176:208,1,90
172,205,97100,1,0
216,288,97294,5,8
288,344,97487,1,0
368,296,97681,1,0
344,208,97874,1,0
256,200,98068,6,0,B|240:120|240:56,2,135,4|0|0
360,216,98842,1,8
376,320,99036,1,0
280,368,99229,1,0
200,296,99423,1,0
248,200,99616,6,0,B|272:104|272:16,1,180,4|0
184,16,100197,1,0
104,56,100390,2,0,B|64:72|16:80,2,90,8|0|0
176,104,100971,1,0
224,176,101165,6,0,B|232:224|224:272,1,90,4|0
288,328,101552,1,0
376,336,101745,1,0
456,296,101939,2,0,B|448:192|464:112,2,180,8|0|4
344,152,103100,5,0
256,128,103294,1,4
168,152,103487,2,0,B|128:176|80:184,2,90,8|0|0
256,128,104068,1,0
256,208,104261,12,4,105810
88,88,106197,5,0
176,56,106390,1,0
248,112,106584,2,0,B|248:168|232:208,1,90,10|0
152,168,106971,1,0
152,168,107165,2,0,B|152:264|192:344,1,180,2|2
280,312,107745,1,2
368,320,107939,5,0
376,296,108036,1,0
384,272,108132,1,10
416,184,108326,1,0
400,96,108520,2,0,B|360:72|328:24,1,90,2|0
248,8,108907,6,0,B|280:104|232:192,1,180,6|2
160,232,109487,2,0,B|64:216,2,90,4|10|0
240,280,110068,1,0
328,304,110261,1,2
416,280,110455,5,4
488,224,110649,1,2
416,280,110842,1,2
328,304,111036,5,4
320,280,111132,1,0
312,256,111229,2,0,B|304:208|312:152,1,90,10|0
232,120,111616,2,0,B|240:168|232:224,1,90,2|0
168,272,112003,6,0,B|80:232|-8:208,2,180,6|2|8
248,312,112971,1,0
328,352,113165,2,0,B|424:344,1,90,2|0
480,280,113552,6,0,B|488:184,2,90,4|2|2
392,264,114132,1,0
384,240,114229,1,0
376,216,114326,1,10
296,168,114520,1,0
208,152,114713,2,0,B|112:160,1,90,2|0
40,208,115100,6,0,B|64:296|136:360,1,180,6|2
224,336,115681,2,0,B|320:344,2,90,4|8|2
176,256,116261,1,0
200,168,116455,1,2
256,208,116649,12,2,117810
144,104,118197,6,0,B|96:96,3,45,8|0|0|0
144,104,118584,1,0
232,160,118778,2,0,B|280:152,3,45,8|0|0|0
232,160,119165,1,0
144,224,119358,2,0,B|152:272,2,45,8|0|0
240,272,119745,6,0,B|232:320,3,45,8|0|0|0
240,272,120132,1,0
344,248,120326,2,0,B|336:200,3,45,8|0|0|0
344,248,120713,1,0
416,328,120907,2,0,B|464:336,2,45,8|0|0
456,232,121294,6,0,B|448:64|288:56,2,270,8|8|8
56,232,122842,6,0,B|64:64|224:56,2,270,8|8|8
176,320,124390,6,0,B|224:312,3,45,8|0|0|0
176,320,124778,1,0
184,216,124971,2,0,B|176:160,3,45,8|0|0|0
184,216,125358,1,0
288,232,125552,2,0,B|336:224,2,45,8|0|0
272,128,125939,6,0,B|280:80,3,45,8|0|0|0
272,128,126326,1,0
376,88,126520,2,0,B|368:40,3,45,8|0|0|0
376,88,126907,1,0
432,176,127100,2,0,B|480:160,2,45,8|0|0
448,280,127487,6,0,B|328:256|320:352|184:320,2,270,8|8|8
64,152,129036,6,0,B|184:128|192:224|328:192,2,270,8|8|8
56,176,130294,1,0
48,200,130390,1,0
80,288,130584,6,0,B|320:272|232:40,1,360,4|8
233,43,131552,1,0
320,56,131745,1,0
408,32,131939,1,0
496,48,132132,6,0,B|488:144|448:224,1,180,4|0
392,288,132713,1,0
352,208,132907,2,0,B|304:192|256:184,2,90,8|0|0
392,288,133487,1,0
320,344,133681,6,0,B|200:376|208:216|72:256,1,270,4|0
16,200,134455,1,8
8,112,134649,1,0
80,56,134842,2,0,B|176:64,1,90
256,40,135229,6,0,B|264:120|256:176,2,135,4|0|0
320,144,136003,1,8
224,208,136197,1,0
312,280,136390,1,0
224,352,136584,1,0
136,320,136778,5,4
88,80,137165,2,0,B|280:16|232:200|440:136,2,360
56,168,138907,1,0
88,248,139100,2,0,B|272:264,1,180
256,104,139874,5,4
256,208,140068,12,4,142971
