osu file format v14

[General]
AudioFilename: Dimrain47 - Twilight Techno.mp3
AudioLeadIn: 0
PreviewTime: -1
Countdown: 0
SampleSet: None
StackLeniency: 0.7
Mode: 3
LetterboxInBreaks: 0
SpecialStyle: 0
WidescreenStoryboard: 0

[Editor]
DistanceSpacing: 0.8
BeatDivisor: 4
GridSize: 8
TimelineZoom: 2

[Metadata]
Title:Techno Twilight
TitleUnicode:Techno Twilight
Artist:Dimrain47
ArtistUnicode:Dimrain47
Creator:Graf
Version:4K HD
Source:
Tags:
BeatmapID:768055
BeatmapSetID:348100

[Difficulty]
HPDrainRate:7
CircleSize:4
OverallDifficulty:7
ApproachRate:9
SliderMultiplier:1.4
SliderTickRate:1

[Events]
//Background and Video events
//Break Periods
//Storyboard Layer 0 (Background)
//Storyboard Layer 1 (Fail)
//Storyboard Layer 2 (Pass)
//Storyboard Layer 3 (Foreground)
//Storyboard Sound Samples

[TimingPoints]
8107,399.813420403812,4,1,0,100,1,0

[HitObjects]
64,192,8106,5,0,0:0:0:0:
448,192,8106,1,0,0:0:0:0:
192,192,8306,1,0,0:0:0:0:
320,192,8506,1,0,0:0:0:0:
448,192,8706,1,0,0:0:0:0:
64,192,8906,1,0,0:0:0:0:
192,192,9106,1,0,0:0:0:0:
320,192,9306,1,0,0:0:0:0:
448,192,9506,1,0,0:0:0:0:
320,192,9706,1,0,0:0:0:0:
64,192,9706,1,0,0:0:0:0:
192,192,9906,1,0,0:0:0:0:
320,192,10106,1,0,0:0:0:0:
448,192,10305,1,0,0:0:0:0:
64,192,10505,1,0,0:0:0:0:
192,192,10705,1,0,0:0:0:0:
320,192,10905,1,0,0:0:0:0:
448,192,11105,1,0,0:0:0:0:
64,192,11305,1,0,0:0:0:0:
192,192,11305,1,0,0:0:0:0:
320,192,11505,1,0,0:0:0:0:
192,192,11705,1,0,0:0:0:0:
448,192,11905,1,0,0:0:0:0:
64,192,12105,1,0,0:0:0:0:
192,192,12305,1,0,0:0:0:0:
320,192,12504,1,0,0:0:0:0:
448,192,12704,1,0,0:0:0:0:
320,192,12904,1,0,0:0:0:0:
64,192,12904,1,0,0:0:0:0:
192,192,13104,1,0,0:0:0:0:
320,192,13304,1,0,0:0:0:0:
448,192,13504,1,0,0:0:0:0:
64,192,13704,1,0,0:0:0:0:
192,192,13904,1,0,0:0:0:0:
448,192,14104,1,0,0:0:0:0:
192,192,14304,1,0,0:0:0:0:
64,192,14504,1,0,0:0:0:0:
320,192,14504,1,0,0:0:0:0:
192,192,14504,1,0,0:0:0:0:
192,192,14703,1,0,0:0:0:0:
320,192,14903,1,0,0:0:0:0:
448,192,15103,1,0,0:0:0:0:
64,192,15303,128,0,16103:0:0:0:0:
192,192,15503,1,0,0:0:0:0:
320,192,15703,1,0,0:0:0:0:
448,192,15903,1,0,0:0:0:0:
192,192,16103,128,0,16902:0:0:0:0:
320,192,16303,1,0,0:0:0:0:
448,192,16503,1,0,0:0:0:0:
320,192,16702,1,0,0:0:0:0:
64,192,16902,128,0,17702:0:0:0:0:
448,192,16902,1,0,0:0:0:0:
320,192,17102,1,0,0:0:0:0:
192,192,17302,1,0,0:0:0:0:
320,192,17502,1,0,0:0:0:0:
320,192,17702,128,0,18502:0:0:0:0:
192,192,17902,1,0,0:0:0:0:
448,192,18102,1,0,0:0:0:0:
192,192,18302,1,0,0:0:0:0:
192,192,18502,128,0,18901:0:0:0:0:
448,192,18702,1,0,0:0:0:0:
64,192,18901,128,0,19101:0:0:0:0:
320,192,18901,1,0,0:0:0:0:
192,192,19101,1,0,0:0:0:0:
64,192,19301,1,0,0:0:0:0:
320,192,19301,1,0,0:0:0:0:
448,192,19301,1,0,0:0:0:0:
192,192,19501,1,0,0:0:0:0:
320,192,19701,1,0,0:0:0:0:
192,192,19901,1,0,0:0:0:0:
320,192,20101,1,0,0:0:0:0:
448,192,20301,1,0,0:0:0:0:
64,192,20501,1,0,0:0:0:0:
320,192,20501,1,0,0:0:0:0:
192,192,20701,1,0,0:0:0:0:
448,192,20901,1,0,0:0:0:0:
448,192,22500,128,0,24099:0:0:0:0:
192,192,22600,1,0,0:0:0:0:
320,192,22700,1,0,0:0:0:0:
192,192,22800,1,0,0:0:0:0:
192,192,23000,1,0,0:0:0:0:
320,192,23100,1,0,0:0:0:0:
192,192,23199,1,0,0:0:0:0:
192,192,23399,1,0,0:0:0:0:
320,192,23499,1,0,0:0:0:0:
192,192,23599,1,0,0:0:0:0:
192,192,23799,1,0,0:0:0:0:
320,192,23899,1,0,0:0:0:0:
192,192,23999,1,0,0:0:0:0:
320,192,24099,128,0,25698:0:0:0:0:
64,192,24199,1,0,0:0:0:0:
192,192,24299,1,0,0:0:0:0:
64,192,24399,1,0,0:0:0:0:
64,192,24599,1,0,0:0:0:0:
192,192,24699,1,0,0:0:0:0:
64,192,24799,1,0,0:0:0:0:
64,192,24999,1,0,0:0:0:0:
192,192,25099,1,0,0:0:0:0:
64,192,25199,1,0,0:0:0:0:
64,192,25398,1,0,0:0:0:0:
192,192,25498,1,0,0:0:0:0:
64,192,25598,1,0,0:0:0:0:
64,192,25698,128,0,27298:0:0:0:0:
320,192,25798,1,0,0:0:0:0:
448,192,25898,1,0,0:0:0:0:
320,192,25998,1,0,0:0:0:0:
320,192,26198,1,0,0:0:0:0:
448,192,26298,1,0,0:0:0:0:
320,192,26398,1,0,0:0:0:0:
320,192,26598,1,0,0:0:0:0:
448,192,26698,1,0,0:0:0:0:
320,192,26798,1,0,0:0:0:0:
320,192,26998,1,0,0:0:0:0:
448,192,27098,1,0,0:0:0:0:
320,192,27198,1,0,0:0:0:0:
192,192,27298,128,0,28097:0:0:0:0:
64,192,27397,1,0,0:0:0:0:
320,192,27497,1,0,0:0:0:0:
64,192,27597,1,0,0:0:0:0:
64,192,27797,1,0,0:0:0:0:
320,192,27897,1,0,0:0:0:0:
64,192,27997,1,0,0:0:0:0:
320,192,28097,128,0,28497:0:0:0:0:
192,192,28197,1,0,0:0:0:0:
448,192,28297,1,0,0:0:0:0:
192,192,28397,1,0,0:0:0:0:
192,192,28497,128,0,28897:0:0:0:0:
64,192,28597,1,0,0:0:0:0:
320,192,28697,1,0,0:0:0:0:
64,192,28797,1,0,0:0:0:0:
