osu file format v13

[General]
AudioFilename: Dimrain47 - Midnight Siege_BPM235.66.mp3
AudioLeadIn: 0
PreviewTime: -1
Countdown: 1
SampleSet: None
StackLeniency: 0.7
Mode: 0
LetterboxInBreaks: 1
WidescreenStoryboard: 0

[Editor]
DistanceSpacing: 1
BeatDivisor: 4
GridSize: 8
TimelineZoom: 1

[Metadata]
Title:Midnight Siege - Stream practice
TitleUnicode:Midnight Siege - Stream practice
Artist:Dimrain47
ArtistUnicode:Dimrain47
Creator:LegendAXS
Version:Epic BPM236
Source:Newgrounds
Tags:Techno Stream Dimrain
BeatmapID:459141
BeatmapSetID:193181

[Difficulty]
HPDrainRate:7
CircleSize:4
OverallDifficulty:7
ApproachRate:10
SliderMultiplier:2
SliderTickRate:1

[Events]
//Background and Video events
0,0,"The_Tides_of_Elegance.jpg",0,0
//Break Periods
2,28842,30201
2,75689,83159
//Storyboard Layer 0 (Background)
//Storyboard Layer 1 (Fail)
//Storyboard Layer 2 (Pass)
//Storyboard Layer 3 (Foreground)
//Storyboard Sound Samples
//Background Colour Transformations
3,100,163,162,255

[TimingPoints]
8274,254.604090639056,4,2,1,30,1,0
12348,-100,4,2,2,20,0,0
12411,-100,4,2,2,55,0,0
67342,-100,4,2,2,55,0,1
75489,-100,4,2,2,55,0,0

[Colours]
Combo1 : 0,128,170
Combo2 : 101,92,205
Combo3 : 27,89,205

[HitObjects]
122,114,8274,6,0,B|88:184|128:264|204:260,2,200
205,169,8911,1,0,0:0:0:0:
287,224,9038,1,0,0:0:0:0:
369,279,9165,1,0,0:0:0:0:
387,79,9420,5,0,0:0:0:0:
328,160,9547,1,0,0:0:0:0:
125,79,9802,5,0,0:0:0:0:
184,160,9929,1,0,0:0:0:0:
256,91,10056,1,0,0:0:0:0:
256,125,10120,1,0,0:0:0:0:
256,159,10184,1,0,0:0:0:0:
256,193,10247,1,0,0:0:0:0:
256,227,10311,1,0,0:0:0:0:
168,72,10566,6,0,B|256:24|256:24|344:72,2,200
256,120,11202,1,0,0:0:0:0:
416,224,11457,5,0,0:0:0:0:
360,136,11584,1,0,0:0:0:0:
152,136,11839,5,0,0:0:0:0:
96,224,11966,1,0,0:0:0:0:
84,64,12348,5,4,0:0:0:0:
88,98,12411,1,0,0:0:0:0:
99,130,12475,1,0,0:0:0:0:
120,157,12539,1,0,0:0:0:0:
147,178,12602,1,8,0:0:0:0:
179,191,12666,1,0,0:0:0:0:
213,197,12730,1,0,0:0:0:0:
247,191,12793,1,0,0:0:0:0:
279,178,12857,5,0,0:0:0:0:
306,157,12921,1,0,0:0:0:0:
327,130,12984,1,0,0:0:0:0:
338,98,13048,1,0,0:0:0:0:
342,64,13112,1,8,0:0:0:0:
354,96,13175,1,0,0:0:0:0:
364,129,13239,1,0,0:0:0:0:
382,158,13303,1,0,0:0:0:0:
398,189,13366,5,0,0:0:0:0:
419,216,13430,1,0,0:0:0:0:
440,243,13493,1,0,0:0:0:0:
462,269,13557,1,0,0:0:0:0:
490,288,13621,1,8,0:0:0:0:
456,278,13684,1,0,0:0:0:0:
422,268,13748,1,0,0:0:0:0:
387,266,13812,1,0,0:0:0:0:
352,268,13875,5,0,0:0:0:0:
318,279,13939,1,0,0:0:0:0:
289,299,14003,1,0,0:0:0:0:
265,324,14066,1,0,0:0:0:0:
245,353,14130,2,4,B|168:352|168:240|84:239,1,200
92,204,14448,5,0,0:0:0:0:
105,171,14512,1,0,0:0:0:0:
130,146,14576,1,0,0:0:0:0:
158,125,14639,1,8,0:0:0:0:
190,111,14703,1,0,0:0:0:0:
224,102,14766,1,0,0:0:0:0:
258,100,14830,1,0,0:0:0:0:
292,104,14894,5,0,0:0:0:0:
278,136,14957,1,0,0:0:0:0:
270,170,15021,1,0,0:0:0:0:
270,205,15085,1,0,0:0:0:0:
280,238,15148,1,8,0:0:0:0:
303,263,15212,1,0,0:0:0:0:
331,283,15276,1,0,0:0:0:0:
364,292,15339,1,0,0:0:0:0:
398,290,15403,5,0,0:0:0:0:
386,257,15467,1,0,0:0:0:0:
364,229,15530,1,0,0:0:0:0:
358,194,15594,1,0,0:0:0:0:
361,159,15658,1,8,0:0:0:0:
373,126,15721,1,0,0:0:0:0:
393,97,15785,1,0,0:0:0:0:
420,75,15849,1,0,0:0:0:0:
450,58,15912,5,4,0:0:0:0:
170,57,16167,1,4,0:0:0:0:
312,298,16421,5,4,0:0:0:0:
283,277,16485,1,0,0:0:0:0:
249,266,16549,1,0,0:0:0:0:
214,263,16612,1,0,0:0:0:0:
179,267,16676,1,8,0:0:0:0:
144,262,16740,1,0,0:0:0:0:
111,248,16803,1,0,0:0:0:0:
83,225,16867,1,0,0:0:0:0:
68,192,16931,5,0,0:0:0:0:
68,157,16994,1,0,0:0:0:0:
87,128,17058,1,0,0:0:0:0:
118,112,17122,1,0,0:0:0:0:
152,115,17185,1,8,0:0:0:0:
178,138,17249,1,0,0:0:0:0:
206,158,17313,1,0,0:0:0:0:
240,164,17376,1,0,0:0:0:0:
274,159,17440,5,0,0:0:0:0:
301,136,17503,1,0,0:0:0:0:
315,104,17567,1,0,0:0:0:0:
322,69,17631,1,0,0:0:0:0:
345,43,17694,1,8,0:0:0:0:
377,30,17758,1,0,0:0:0:0:
411,29,17822,1,0,0:0:0:0:
443,41,17885,1,0,0:0:0:0:
469,63,17949,5,0,0:0:0:0:
478,96,18013,1,0,0:0:0:0:
471,130,18076,1,0,0:0:0:0:
447,155,18140,1,0,0:0:0:0:
414,166,18204,1,4,0:0:0:0:
134,157,18458,5,4,0:0:0:0:
157,183,18522,1,0,0:0:0:0:
173,213,18586,1,0,0:0:0:0:
184,245,18649,1,0,0:0:0:0:
190,279,18713,1,8,0:0:0:0:
205,310,18777,1,0,0:0:0:0:
231,332,18840,1,0,0:0:0:0:
265,339,18904,1,0,0:0:0:0:
299,335,18967,5,0,0:0:0:0:
329,317,19031,1,0,0:0:0:0:
351,290,19095,1,0,0:0:0:0:
354,255,19158,1,0,0:0:0:0:
340,222,19222,1,8,0:0:0:0:
316,196,19286,1,0,0:0:0:0:
283,183,19349,1,0,0:0:0:0:
248,180,19413,1,0,0:0:0:0:
213,172,19477,5,0,0:0:0:0:
184,151,19540,1,0,0:0:0:0:
163,122,19604,1,0,0:0:0:0:
156,87,19668,1,0,0:0:0:0:
168,54,19731,1,8,0:0:0:0:
197,35,19795,1,0,0:0:0:0:
232,35,19859,1,0,0:0:0:0:
258,57,19922,1,0,0:0:0:0:
281,82,19986,5,0,0:0:0:0:
310,100,20050,1,0,0:0:0:0:
343,108,20113,1,0,0:0:0:0:
377,101,20177,1,0,0:0:0:0:
410,90,20240,1,4,0:0:0:0:
196,271,20495,5,4,0:0:0:0:
169,293,20559,1,0,0:0:0:0:
134,300,20622,1,0,0:0:0:0:
99,295,20686,1,0,0:0:0:0:
69,276,20750,1,8,0:0:0:0:
54,244,20813,1,0,0:0:0:0:
52,209,20877,1,0,0:0:0:0:
65,176,20941,1,0,0:0:0:0:
92,153,21004,6,0,B|184:84|279:154,1,200,2|2,0:0|0:0,0:0:0:0:
325,238,21386,1,0,0:0:0:0:
338,138,21513,5,0,0:0:0:0:
372,143,21577,1,0,0:0:0:0:
402,159,21641,1,0,0:0:0:0:
426,184,21704,1,0,0:0:0:0:
441,215,21768,1,8,0:0:0:0:
450,248,21832,1,0,0:0:0:0:
446,282,21895,1,0,0:0:0:0:
432,314,21959,1,0,0:0:0:0:
404,335,22023,6,0,B|353:356|306:319,1,100,0|4,0:0|0:0,0:0:0:0:
274,228,22277,2,0,B|329:209|373:245,1,100,0|4,0:0|0:0,0:0:0:0:
310,321,22532,2,0,B|234:338|167:291|182:203,1,200,2|8,0:0|0:0,0:0:0:0:
192,181,22850,1,0,0:0:0:0:
202,147,22914,1,0,0:0:0:0:
199,112,22977,1,0,0:0:0:0:
191,77,23041,2,0,B|149:37|86:41|46:104|83:160,1,200,2|2,0:0|0:0,0:0:0:0:
158,214,23423,1,0,0:0:0:0:
256,195,23550,5,0,0:0:0:0:
253,160,23614,1,0,0:0:0:0:
263,126,23678,1,0,0:0:0:0:
286,100,23741,1,0,0:0:0:0:
319,88,23805,1,8,0:0:0:0:
353,88,23869,1,0,0:0:0:0:
384,103,23932,1,0,0:0:0:0:
406,129,23996,1,0,0:0:0:0:
422,159,24060,6,0,B|441:212|413:258,1,100,0|4,0:0|0:0,0:0:0:0:
323,298,24314,2,0,B|304:245|332:199,1,100,0|4,0:0|0:0,0:0:0:0:
323,298,24569,6,0,B|238:242|128:263,1,200,2|8,0:0|0:0,0:0:0:0:
100,279,24887,1,0,0:0:0:0:
86,311,24951,1,0,0:0:0:0:
94,344,25014,1,0,0:0:0:0:
126,358,25078,5,0,0:0:0:0:
159,347,25142,1,0,0:0:0:0:
173,315,25205,1,0,0:0:0:0:
191,285,25269,1,0,0:0:0:0:
216,261,25333,1,8,0:0:0:0:
276,181,25460,1,0,0:0:0:0:
176,170,25587,5,0,0:0:0:0:
142,160,25651,1,0,0:0:0:0:
113,139,25714,1,0,0:0:0:0:
94,109,25778,1,0,0:0:0:0:
88,74,25842,1,8,0:0:0:0:
187,69,25969,1,0,0:0:0:0:
282,97,26096,6,0,B|326:61|380:76,1,100,0|4,0:0|0:0,0:0:0:0:
344,170,26351,2,0,B|300:206|246:191,1,100,0|4,0:0|0:0,0:0:0:0:
282,97,26606,2,0,B|330:52|422:67|458:129,1,200,2|8,0:0|0:0,0:0:0:0:
392,204,26987,1,0,0:0:0:0:
431,295,27115,2,0,B|374:319|326:281,1,100
240,280,27369,2,0,B|297:256|345:294,1,100,8|0,0:0|0:0,0:0:0:0:
392,204,27624,6,0,B|283:187|232:97,1,200,4|8,0:0|0:0,0:0:0:0:
104,32,28006,1,0,0:0:0:0:
16,128,28133,1,4,0:0:0:0:
104,224,28260,1,0,0:0:0:0:
192,128,28388,1,8,0:0:0:0:
224,112,28451,1,0,0:0:0:0:
256,128,28515,1,0,0:0:0:0:
288,144,28579,1,0,0:0:0:0:
320,128,28642,1,4,0:0:0:0:
457,47,30679,6,0,B|461:76|436:90,2,50,2|0|0,0:0|0:0|0:0,0:0:0:0:
195,148,31061,2,0,B|191:119|216:105,2,50,2|0|0,0:0|0:0|0:0,0:0:0:0:
456,248,31443,2,0,B|460:277|435:291,2,50,2|0|0,0:0|0:0|0:0,0:0:0:0:
449,213,31634,2,0,B|445:184|470:170,2,50,0|2|0,0:0|0:0|0:0,0:0:0:0:
425,238,31825,2,0,B|404:286|341:282,2,100,0|2|0,0:0|0:0|0:0,0:0:0:0:
344,178,32207,6,0,B|365:130|428:134,2,100,2|0|2,0:0|0:0|0:0,0:0:0:0:
278,102,32589,2,0,B|260:156|200:163,1,100,0|2,0:0|0:0,0:0:0:0:
272,235,32843,2,0,B|328:238|347:293,1,100,0|2,0:0|0:0,0:0:0:0:
253,329,33098,2,0,B|196:320|183:260,1,100,0|2,0:0|0:0,0:0:0:0:
272,236,33353,1,0,0:0:0:0:
336,312,33480,1,2,0:0:0:0:
272,236,33607,6,0,B|330:237|363:198,1,100,0|2,0:0|0:0,0:0:0:0:
276,146,33862,2,0,B|218:145|185:184,1,100,0|2,0:0|0:0,0:0:0:0:
160,80,34116,2,0,B|256:24|352:80,1,200,0|0,0:0|0:0,0:0:0:0:
256,128,34498,2,0,B|268:176|244:176|256:228,1,100,2|0,0:0|0:0,0:0:0:0:
232,324,34753,6,0,B|257:334|282:324,2,50,2|0|0,0:0|0:0|0:0,0:0:0:0:
280,128,35135,2,0,B|255:118|230:128,2,50,2|0|0,0:0|0:0|0:0,0:0:0:0:
88,192,35517,2,0,B|78:168|88:143,2,50,2|0|0,0:0|0:0|0:0,0:0:0:0:
140,192,35708,2,0,B|150:217|140:242,2,50,0|2|0,0:0|0:0|0:0,0:0:0:0:
192,192,35899,2,0,B|182:167|192:142,2,50,0|0|2,0:0|0:0|0:0,0:0:0:0:
288,160,36153,6,0,B|332:128|336:76,1,100,0|2,0:0|0:0,0:0:0:0:
244,148,36408,2,0,B|238:94|195:64,1,100,0|2,0:0|0:0,0:0:0:0:
212,180,36662,2,0,B|162:158|115:180,1,100,0|2,0:0|0:0,0:0:0:0:
224,224,36917,2,0,B|180:256|176:308,2,100,0|2|0,0:0|0:0|0:0,0:0:0:0:
384,296,37426,6,0,B|460:280|460:168|384:152,1,200,0|0,0:0|0:0,0:0:0:0:
268,224,37808,2,0,B|320:236|376:224,1,100,2|0,0:0|0:0,0:0:0:0:
320,136,38063,1,2,0:0:0:0:
268,224,38190,2,0,B|164:200|52:224,1,200,0|0,0:0|0:0,0:0:0:0:
128,140,38572,2,0,B|180:136|216:88,1,100,2|0,0:0|0:0,0:0:0:0:
308,56,38827,5,0,0:0:0:0:
344,60,38890,1,0,0:0:0:0:
372,84,38954,1,0,0:0:0:0:
300,152,39081,1,8,0:0:0:0:
214,199,39208,2,0,B|158:191|106:223,1,100
214,199,39463,2,0,B|270:207|322:175,1,100,0|8,0:0|0:0,0:0:0:0:
388,124,39718,5,0,0:0:0:0:
404,156,39781,1,0,0:0:0:0:
408,192,39845,1,0,0:0:0:0:
404,228,39909,1,0,0:0:0:0:
388,260,39972,1,0,0:0:0:0:
315,194,40100,1,8,0:0:0:0:
215,199,40227,2,0,B|198:143|148:133,1,100
124,230,40481,2,0,B|141:286|191:296,1,100,0|8,0:0|0:0,0:0:0:0:
215,198,40736,5,0,0:0:0:0:
182,183,40800,1,0,0:0:0:0:
160,155,40863,1,0,0:0:0:0:
154,120,40927,1,0,0:0:0:0:
162,86,40991,1,0,0:0:0:0:
257,116,41118,1,8,0:0:0:0:
350,151,41245,2,0,B|343:206|389:241,1,100
280,209,41500,2,0,B|287:154|241:119,1,100,0|8,0:0|0:0,0:0:0:0:
139,85,41754,5,0,0:0:0:0:
106,98,41818,1,0,0:0:0:0:
86,127,41882,1,0,0:0:0:0:
81,226,42009,2,0,B|127:199|180:214,1,100,0|8,0:0|0:0,0:0:0:0:
227,126,42264,1,0,0:0:0:0:
273,214,42391,5,0,0:0:0:0:
292,242,42455,1,0,0:0:0:0:
322,258,42518,1,0,0:0:0:0:
356,260,42582,1,0,0:0:0:0:
388,247,42646,1,8,0:0:0:0:
412,221,42709,1,0,0:0:0:0:
413,186,42773,1,8,0:0:0:0:
405,151,42837,1,8,0:0:0:0:
379,127,42900,1,0,0:0:0:0:
275,114,43027,6,0,B|344:191,1,100,0|8,0:0|0:0,0:0:0:0:
275,114,43282,1,0,0:0:0:0:
183,73,43409,1,0,0:0:0:0:
162,170,43537,2,0,B|161:226|112:257,1,100,0|8,0:0|0:0,0:0:0:0:
215,247,43791,5,0,0:0:0:0:
247,233,43855,1,0,0:0:0:0:
281,230,43919,1,0,0:0:0:0:
381,230,44046,2,0,B|374:175|327:147,1,100,0|8,0:0|0:0,0:0:0:0:
232,121,44300,1,0,0:0:0:0:
145,171,44428,6,0,B|112:211|56:207,2,100,0|0|8,0:0|0:0|0:0,0:0:0:0:
67,107,44810,2,0,B|99:63|159:67,1,100
145,170,45064,2,0,B|198:178|238:132,1,100,0|8,0:0|0:0,0:0:0:0:
273,43,45319,2,0,B|332:65|329:127,2,100
234,136,45701,1,8,0:0:0:0:
314,195,45828,1,0,0:0:0:0:
340,218,45892,1,0,0:0:0:0:
353,250,45955,1,0,0:0:0:0:
377,347,46083,2,0,B|318:362|282:319,1,100,0|8,0:0|0:0,0:0:0:0:
235,236,46337,5,0,0:0:0:0:
169,160,46465,1,0,0:0:0:0:
132,253,46592,2,0,B|101:290|40:289,1,100,0|8,0:0|0:0,0:0:0:0:
48,188,46847,1,8,0:0:0:0:
86,95,46974,5,0,0:0:0:0:
110,69,47037,1,0,0:0:0:0:
141,52,47101,1,0,0:0:0:0:
175,45,47165,1,0,0:0:0:0:
208,54,47228,1,8,0:0:0:0:
237,72,47292,1,0,0:0:0:0:
263,95,47356,1,0,0:0:0:0:
276,127,47419,1,0,0:0:0:0:
281,161,47483,5,0,0:0:0:0:
293,193,47547,1,0,0:0:0:0:
316,219,47610,1,0,0:0:0:0:
347,234,47674,1,0,0:0:0:0:
381,239,47738,1,8,0:0:0:0:
368,160,47865,1,0,0:0:0:0:
427,106,47992,6,0,B|486:190|442:316,1,200,4|8,0:0|0:0,0:0:0:0:
365,355,48374,1,0,0:0:0:0:
286,293,48501,1,0,0:0:0:0:
257,272,48565,1,0,0:0:0:0:
223,263,48629,1,0,0:0:0:0:
188,264,48692,1,0,0:0:0:0:
154,273,48756,1,8,0:0:0:0:
68,192,48883,5,0,0:0:0:0:
144,96,49011,1,4,0:0:0:0:
248,156,49138,2,0,B|300:149|330:104,1,100,0|8,0:0|0:0,0:0:0:0:
455,309,49520,6,0,B|384:231|282:217,1,200,4|8,0:0|0:0,0:0:0:0:
182,211,49902,1,0,0:0:0:0:
110,140,50029,2,0,B|154:104|204:114,1,100,4|0,0:0|0:0,0:0:0:0:
182,211,50284,2,0,B|138:247|88:237,1,100,4|0,0:0|0:0,0:0:0:0:
176,21,50538,2,0,B|212:65|202:115,1,100,4|0,0:0|0:0,0:0:0:0:
115,330,50793,2,0,B|79:286|89:236,1,100,4|0,0:0|0:0,0:0:0:0:
110,139,51047,5,4,0:0:0:0:
115,104,51111,1,0,0:0:0:0:
134,74,51175,1,0,0:0:0:0:
166,61,51238,1,0,0:0:0:0:
200,64,51302,1,8,0:0:0:0:
228,84,51366,1,0,0:0:0:0:
247,113,51429,1,0,0:0:0:0:
275,132,51493,1,0,0:0:0:0:
308,141,51557,5,0,0:0:0:0:
342,140,51620,1,0,0:0:0:0:
372,122,51684,1,0,0:0:0:0:
386,90,51748,1,0,0:0:0:0:
378,55,51811,1,8,0:0:0:0:
351,32,51875,1,0,0:0:0:0:
316,26,51939,1,0,0:0:0:0:
287,46,52002,1,0,0:0:0:0:
272,77,52066,5,0,0:0:0:0:
268,111,52130,1,0,0:0:0:0:
274,145,52193,1,0,0:0:0:0:
275,179,52257,1,0,0:0:0:0:
264,212,52321,1,8,0:0:0:0:
253,245,52384,1,0,0:0:0:0:
229,271,52448,1,0,0:0:0:0:
197,285,52511,1,0,0:0:0:0:
162,286,52575,5,0,0:0:0:0:
127,278,52639,1,0,0:0:0:0:
101,253,52702,1,0,0:0:0:0:
96,218,52766,1,0,0:0:0:0:
102,183,52830,1,4,0:0:0:0:
163,57,53084,5,4,0:0:0:0:
171,90,53148,1,0,0:0:0:0:
182,123,53212,1,0,0:0:0:0:
198,153,53275,1,0,0:0:0:0:
221,178,53339,1,8,0:0:0:0:
248,199,53403,1,0,0:0:0:0:
277,218,53466,1,0,0:0:0:0:
308,232,53530,1,0,0:0:0:0:
342,233,53594,5,0,0:0:0:0:
373,217,53657,1,0,0:0:0:0:
395,190,53721,1,0,0:0:0:0:
402,155,53784,1,0,0:0:0:0:
400,120,53848,1,8,0:0:0:0:
384,88,53912,1,0,0:0:0:0:
353,70,53975,1,0,0:0:0:0:
318,68,54039,1,0,0:0:0:0:
284,78,54103,5,0,0:0:0:0:
257,100,54166,1,0,0:0:0:0:
239,130,54230,1,0,0:0:0:0:
226,162,54294,1,0,0:0:0:0:
215,195,54357,1,8,0:0:0:0:
194,223,54421,1,0,0:0:0:0:
168,246,54485,1,0,0:0:0:0:
137,262,54548,1,0,0:0:0:0:
102,262,54612,5,4,0:0:0:0:
34,31,54867,1,4,0:0:0:0:
195,209,55121,5,4,0:0:0:0:
219,234,55185,1,0,0:0:0:0:
247,254,55248,1,0,0:0:0:0:
279,267,55312,1,0,0:0:0:0:
313,272,55376,1,8,0:0:0:0:
347,264,55439,1,0,0:0:0:0:
370,237,55503,1,0,0:0:0:0:
380,203,55567,1,0,0:0:0:0:
409,183,55630,5,0,0:0:0:0:
443,180,55694,1,0,0:0:0:0:
473,197,55758,1,0,0:0:0:0:
487,228,55821,1,0,0:0:0:0:
487,263,55885,1,8,0:0:0:0:
478,296,55949,1,0,0:0:0:0:
449,316,56012,1,0,0:0:0:0:
415,325,56076,1,0,0:0:0:0:
380,328,56140,5,0,0:0:0:0:
346,338,56203,1,0,0:0:0:0:
313,351,56267,1,0,0:0:0:0:
278,354,56331,1,0,0:0:0:0:
243,352,56394,1,8,0:0:0:0:
208,343,56458,1,0,0:0:0:0:
175,330,56521,1,0,0:0:0:0:
149,306,56585,1,0,0:0:0:0:
140,272,56649,5,0,0:0:0:0:
151,238,56712,1,0,0:0:0:0:
179,217,56776,1,0,0:0:0:0:
212,206,56840,1,0,0:0:0:0:
246,202,56903,1,4,0:0:0:0:
434,53,57158,5,4,0:0:0:0:
402,67,57222,1,0,0:0:0:0:
369,79,57285,1,0,0:0:0:0:
334,85,57349,1,0,0:0:0:0:
299,87,57413,1,8,0:0:0:0:
264,87,57476,1,0,0:0:0:0:
229,83,57540,1,0,0:0:0:0:
195,73,57604,1,0,0:0:0:0:
160,73,57667,5,0,0:0:0:0:
127,84,57731,1,0,0:0:0:0:
100,106,57794,1,0,0:0:0:0:
89,139,57858,1,0,0:0:0:0:
89,174,57922,1,8,0:0:0:0:
105,204,57985,1,0,0:0:0:0:
133,224,58049,1,0,0:0:0:0:
165,236,58113,1,0,0:0:0:0:
199,239,58176,5,0,0:0:0:0:
233,234,58240,1,0,0:0:0:0:
267,226,58304,1,0,0:0:0:0:
301,219,58367,1,0,0:0:0:0:
336,219,58431,1,8,0:0:0:0:
479,26,58686,5,4,0:0:0:0:
256,192,58940,1,4,0:0:0:0:
33,358,59195,1,4,0:0:0:0:
316,299,59449,5,8,0:0:0:0:
350,293,59513,1,0,0:0:0:0:
378,272,59577,1,0,0:0:0:0:
397,242,59640,1,0,0:0:0:0:
404,207,59704,1,0,0:0:0:0:
304,204,59831,1,0,0:0:0:0:
201,173,59959,2,0,B|220:124|272:107,2,100,8|0|0,0:0|0:0|0:0,0:0:0:0:
200,52,60341,6,0,B|151:69|98:43,1,100,0|8,0:0|0:0,0:0:0:0:
116,139,60595,2,0,B|156:176|146:229,2,100,0|0|4,0:0|0:0|0:0,0:0:0:0:
48,212,60977,2,0,B|7:174|18:121,1,100,0|4,0:0|0:0,0:0:0:0:
86,48,61232,1,0,0:0:0:0:
276,253,61486,5,8,0:0:0:0:
307,267,61550,1,0,0:0:0:0:
341,268,61614,1,0,0:0:0:0:
374,256,61677,1,0,0:0:0:0:
399,232,61741,1,0,0:0:0:0:
325,164,61868,1,0,0:0:0:0:
226,183,61995,2,0,B|204:229|142:234,1,100,8|0,0:0|0:0,0:0:0:0:
138,133,62250,1,0,0:0:0:0:
199,53,62377,5,0,0:0:0:0:
233,46,62441,1,0,0:0:0:0:
267,45,62505,1,8,0:0:0:0:
298,59,62568,1,0,0:0:0:0:
326,79,62632,1,0,0:0:0:0:
343,109,62696,1,0,0:0:0:0:
353,142,62759,1,0,0:0:0:0:
253,129,62887,6,0,B|227:176|168:184,1,100,4|0,0:0|0:0,0:0:0:0:
83,138,63141,2,0,B|109:91|168:83,1,100,4|4,0:0|0:0,0:0:0:0:
253,129,63396,1,0,0:0:0:0:
328,194,63523,1,8,0:0:0:0:
302,217,63587,1,0,0:0:0:0:
269,230,63650,1,0,0:0:0:0:
234,229,63714,1,0,0:0:0:0:
200,217,63778,1,0,0:0:0:0:
253,129,63905,6,0,B|277:79|333:80,1,100,0|8,0:0|0:0,0:0:0:0:
424,124,64160,2,0,B|400:174|344:173,1,100
208,308,64414,2,0,B|256:328|304:308,2,100,0|8|0,0:0|0:0|0:0,0:0:0:0:
157,168,64796,2,0,B|211:158|226:102,1,100,0|4,0:0|0:0,0:0:0:0:
119,112,65051,2,0,B|137:60|96:19,1,100,0|4,0:0|0:0,0:0:0:0:
23,87,65305,6,0,B|15:205|115:258,1,200,0|8,0:0|0:0,0:0:0:0:
205,281,65687,1,0,0:0:0:0:
297,243,65814,5,0,0:0:0:0:
321,217,65878,1,0,0:0:0:0:
354,207,65942,1,0,0:0:0:0:
387,217,66005,1,0,0:0:0:0:
411,243,66069,1,8,0:0:0:0:
355,326,66196,6,0,B|355:207,1,100,0|4,0:0|0:0,0:0:0:0:
422,152,66451,1,0,0:0:0:0:
355,77,66578,1,8,0:0:0:0:
289,152,66706,1,0,0:0:0:0:
252,58,66833,2,0,B|209:27|150:40,1,100,4|0,0:0|0:0,0:0:0:0:
176,136,67087,2,0,B|168:112,8,25,0|0|0|0|0|0|0|0|4,0:0|0:0|0:0|0:0|0:0|0:0|0:0|0:0|0:0,0:0:0:0:
124,216,67469,5,0,0:0:0:0:
152,236,67533,1,0,0:0:0:0:
188,240,67597,1,8,0:0:0:0:
274,190,67724,2,0,B|320:169|372:187,1,100
274,189,67979,2,0,B|228:210|176:192,1,100,0|8,0:0|0:0,0:0:0:0:
226,105,68233,6,0,B|276:83|323:107,1,100
412,151,68488,1,0,0:0:0:0:
413,250,68615,1,8,0:0:0:0:
327,198,68742,1,0,0:0:0:0:
251,264,68870,1,0,0:0:0:0:
233,233,68933,1,0,0:0:0:0:
226,198,68997,1,0,0:0:0:0:
233,163,69061,1,0,0:0:0:0:
251,132,69124,1,4,0:0:0:0:
482,193,69379,1,4,0:0:0:0:
452,97,69506,6,0,B|416:57|360:64,1,100,0|8,0:0|0:0,0:0:0:0:
336,152,69761,2,0,B|372:172|372:212|336:232,1,100
361,320,70015,2,0,B|416:327|452:287,1,100,0|8,0:0|0:0,0:0:0:0:
368,232,70270,2,0,B|313:225|277:265,1,100,0|0,0:0|0:0,0:0:0:0:
180,276,70525,2,0,B|184:224|224:188,1,100,0|8,0:0|0:0,0:0:0:0:
280,108,70779,1,0,0:0:0:0:
176,52,70907,5,4,0:0:0:0:
256,280,71161,1,4,0:0:0:0:
336,52,71416,1,4,0:0:0:0:
256,140,71543,6,0,B|256:240,1,100,0|8,0:0|0:0,0:0:0:0:
220,332,71798,1,0,0:0:0:0:
256,340,71861,1,0,0:0:0:0:
292,332,71925,1,0,0:0:0:0:
345,239,72052,2,0,B|301:199|257:239,1,100,0|8,0:0|0:0,0:0:0:0:
136,168,72307,6,0,B|160:120|216:100,1,100
303,102,72561,2,0,B|352:120|376:168,1,100,0|8,0:0|0:0,0:0:0:0:
412,76,72816,1,0,0:0:0:0:
388,52,72880,1,0,0:0:0:0:
356,36,72943,1,0,0:0:0:0:
256,40,73071,2,0,B|240:88|180:104,1,100,0|4,0:0|0:0,0:0:0:0:
344,280,73453,1,4,0:0:0:0:
224,288,73580,5,0,0:0:0:0:
188,296,73644,1,0,0:0:0:0:
160,316,73707,1,8,0:0:0:0:
164,216,73834,2,0,B|216:200|232:148,1,100
274,57,74089,2,0,B|326:76|326:137,1,100,0|8,0:0|0:0,0:0:0:0:
232,148,74344,1,0,0:0:0:0:
297,209,74471,6,0,B|353:196|391:232,1,100
322,304,74726,1,8,0:0:0:0:
371,110,74980,1,4,0:0:0:0:
256,273,75235,1,4,0:0:0:0:
424,164,75489,1,4,0:0:0:0:
90,85,83637,5,0,0:0:0:0:
95,119,83700,1,0,0:0:0:0:
114,148,83764,1,0,0:0:0:0:
141,169,83828,1,0,0:0:0:0:
175,176,83891,1,8,0:0:0:0:
192,77,84019,2,0,B|236:53|296:60,1,100
261,155,84273,2,0,B|275:208|229:246,1,100,0|8,0:0|0:0,0:0:0:0:
323,283,84528,5,0,0:0:0:0:
351,263,84591,1,0,0:0:0:0:
385,256,84655,1,0,0:0:0:0:
395,156,84782,2,0,B|342:144|325:90,1,100,0|8,0:0|0:0,0:0:0:0:
225,79,85037,1,0,0:0:0:0:
199,176,85164,5,0,0:0:0:0:
177,203,85228,1,0,0:0:0:0:
142,210,85292,1,0,0:0:0:0:
108,200,85355,1,0,0:0:0:0:
87,171,85419,1,8,0:0:0:0:
92,136,85483,1,0,0:0:0:0:
113,108,85546,1,0,0:0:0:0:
146,98,85610,1,0,0:0:0:0:
180,105,85674,5,0,0:0:0:0:
214,107,85737,1,0,0:0:0:0:
248,103,85801,1,0,0:0:0:0:
281,92,85865,1,0,0:0:0:0:
309,72,85928,1,8,0:0:0:0:
341,60,85992,1,0,0:0:0:0:
375,59,86055,1,0,0:0:0:0:
407,71,86119,1,0,0:0:0:0:
433,94,86183,5,0,0:0:0:0:
449,124,86246,1,0,0:0:0:0:
450,158,86310,1,0,0:0:0:0:
439,191,86374,1,0,0:0:0:0:
417,218,86437,1,8,0:0:0:0:
383,227,86501,1,0,0:0:0:0:
348,223,86565,1,0,0:0:0:0:
316,206,86628,1,0,0:0:0:0:
283,191,86692,5,0,0:0:0:0:
248,190,86756,1,0,0:0:0:0:
215,203,86819,1,0,0:0:0:0:
188,225,86883,1,0,0:0:0:0:
169,254,86947,1,8,0:0:0:0:
169,288,87010,1,0,0:0:0:0:
188,317,87074,1,0,0:0:0:0:
220,330,87138,1,0,0:0:0:0:
254,323,87201,5,0,0:0:0:0:
275,295,87265,1,0,0:0:0:0:
280,265,87328,1,0,0:0:0:0:
261,241,87392,1,0,0:0:0:0:
231,233,87456,1,8,0:0:0:0:
201,227,87519,1,0,0:0:0:0:
176,209,87583,1,0,0:0:0:0:
160,183,87647,1,0,0:0:0:0:
151,154,87710,5,0,0:0:0:0:
157,124,87774,1,0,0:0:0:0:
180,105,87838,1,0,0:0:0:0:
209,99,87901,1,0,0:0:0:0:
238,103,87965,1,8,0:0:0:0:
260,122,88029,1,0,0:0:0:0:
279,145,88092,1,0,0:0:0:0:
354,210,88220,6,0,B|374:221|405:217,2,50
385,115,88474,2,0,B|369:66|315:41,1,100,8|0,0:0|0:0,0:0:0:0:
386,117,88729,2,0,B|402:166|456:191,1,100,0|0,0:0|0:0,0:0:0:0:
408,279,88983,2,0,B|351:289|332:340,1,100,8|0,0:0|0:0,0:0:0:0:
269,259,89238,1,0,0:0:0:0:
280,226,89302,1,0,0:0:0:0:
305,202,89365,1,0,0:0:0:0:
332,180,89429,1,0,0:0:0:0:
348,148,89493,1,8,0:0:0:0:
267,123,89620,6,0,B|230:161|174:152,1,100
202,55,89875,2,0,B|239:17|295:26,1,100,0|8,0:0|0:0,0:0:0:0:
382,68,90129,2,0,B|408:118|372:160,1,100
282,108,90384,2,0,B|259:63|199:55,1,100,0|8,0:0|0:0,0:0:0:0:
191,162,90638,5,0,0:0:0:0:
175,193,90702,1,0,0:0:0:0:
146,213,90766,1,0,0:0:0:0:
50,241,90893,2,0,B|77:283|62:339,1,100,0|8,0:0|0:0,0:0:0:0:
162,324,91148,2,0,B|214:326|253:286,1,100,0|0,0:0|0:0,0:0:0:0:
347,325,91402,2,0,B|367:277|343:226,1,100,0|8,0:0|0:0,0:0:0:0:
312,136,91657,1,0,0:0:0:0:
248,208,91784,1,4,0:0:0:0:
