osu file format v13

[General]
AudioFilename: Dimrain47 - Midnight Siege_BPM223.88.mp3
AudioLeadIn: 0
PreviewTime: -1
Countdown: 1
SampleSet: None
StackLeniency: 0.7
Mode: 0
LetterboxInBreaks: 1
WidescreenStoryboard: 0

[Editor]
DistanceSpacing: 1
BeatDivisor: 4
GridSize: 8
TimelineZoom: 1

[Metadata]
Title:Midnight Siege - Stream practice
TitleUnicode:Midnight Siege - Stream practice
Artist:Dimrain47
ArtistUnicode:Dimrain47
Creator:LegendAXS
Version:Epic BPM224
Source:Newgrounds
Tags:Techno Stream Dimrain
BeatmapID:459140
BeatmapSetID:193181

[Difficulty]
HPDrainRate:7
CircleSize:4
OverallDifficulty:7
ApproachRate:10
SliderMultiplier:2
SliderTickRate:1

[Events]
//Background and Video events
0,0,"The_Tides_of_Elegance.jpg",0,0
//Break Periods
2,30350,31791
2,79662,87535
//Storyboard Layer 0 (Background)
//Storyboard Layer 1 (Fail)
//Storyboard Layer 2 (Pass)
//Storyboard Layer 3 (Foreground)
//Storyboard Sound Samples
//Background Colour Transformations
3,100,163,162,255

[TimingPoints]
8710,268.000714668572,4,2,1,30,1,0
12998,-100,4,2,2,20,0,0
13065,-100,4,2,2,55,0,0
70886,-100,4,2,2,55,0,1
79462,-100,4,2,2,55,0,0

[Colours]
Combo1 : 0,128,170
Combo2 : 101,92,205
Combo3 : 27,89,205

[HitObjects]
122,114,8710,6,0,B|88:184|128:264|204:260,2,200
205,169,9380,1,0,0:0:0:0:
287,224,9514,1,0,0:0:0:0:
369,279,9648,1,0,0:0:0:0:
387,79,9916,5,0,0:0:0:0:
328,160,10050,1,0,0:0:0:0:
125,79,10318,5,0,0:0:0:0:
184,160,10452,1,0,0:0:0:0:
256,91,10586,1,0,0:0:0:0:
256,125,10653,1,0,0:0:0:0:
256,159,10720,1,0,0:0:0:0:
256,193,10787,1,0,0:0:0:0:
256,227,10854,1,0,0:0:0:0:
168,72,11122,6,0,B|256:24|256:24|344:72,2,200
256,120,11792,1,0,0:0:0:0:
416,224,12060,5,0,0:0:0:0:
360,136,12194,1,0,0:0:0:0:
152,136,12462,5,0,0:0:0:0:
96,224,12596,1,0,0:0:0:0:
84,64,12998,5,4,0:0:0:0:
88,98,13065,1,0,0:0:0:0:
99,130,13132,1,0,0:0:0:0:
120,157,13199,1,0,0:0:0:0:
147,178,13266,1,8,0:0:0:0:
179,191,13333,1,0,0:0:0:0:
213,197,13400,1,0,0:0:0:0:
247,191,13467,1,0,0:0:0:0:
279,178,13534,5,0,0:0:0:0:
306,157,13601,1,0,0:0:0:0:
327,130,13668,1,0,0:0:0:0:
338,98,13735,1,0,0:0:0:0:
342,64,13802,1,8,0:0:0:0:
354,96,13869,1,0,0:0:0:0:
364,129,13936,1,0,0:0:0:0:
382,158,14003,1,0,0:0:0:0:
398,189,14070,5,0,0:0:0:0:
419,216,14137,1,0,0:0:0:0:
440,243,14204,1,0,0:0:0:0:
462,269,14271,1,0,0:0:0:0:
490,288,14338,1,8,0:0:0:0:
456,278,14405,1,0,0:0:0:0:
422,268,14472,1,0,0:0:0:0:
387,266,14539,1,0,0:0:0:0:
352,268,14606,5,0,0:0:0:0:
318,279,14673,1,0,0:0:0:0:
289,299,14740,1,0,0:0:0:0:
265,324,14807,1,0,0:0:0:0:
245,353,14874,2,4,B|168:352|168:240|84:239,1,200
92,204,15209,5,0,0:0:0:0:
105,171,15276,1,0,0:0:0:0:
130,146,15343,1,0,0:0:0:0:
158,125,15410,1,8,0:0:0:0:
190,111,15477,1,0,0:0:0:0:
224,102,15544,1,0,0:0:0:0:
258,100,15611,1,0,0:0:0:0:
292,104,15678,5,0,0:0:0:0:
278,136,15745,1,0,0:0:0:0:
270,170,15812,1,0,0:0:0:0:
270,205,15879,1,0,0:0:0:0:
280,238,15946,1,8,0:0:0:0:
303,263,16013,1,0,0:0:0:0:
331,283,16080,1,0,0:0:0:0:
364,292,16147,1,0,0:0:0:0:
398,290,16214,5,0,0:0:0:0:
386,257,16281,1,0,0:0:0:0:
364,229,16348,1,0,0:0:0:0:
358,194,16415,1,0,0:0:0:0:
361,159,16482,1,8,0:0:0:0:
373,126,16549,1,0,0:0:0:0:
393,97,16616,1,0,0:0:0:0:
420,75,16683,1,0,0:0:0:0:
450,58,16750,5,4,0:0:0:0:
170,57,17018,1,4,0:0:0:0:
312,298,17286,5,4,0:0:0:0:
283,277,17353,1,0,0:0:0:0:
249,266,17420,1,0,0:0:0:0:
214,263,17487,1,0,0:0:0:0:
179,267,17554,1,8,0:0:0:0:
144,262,17621,1,0,0:0:0:0:
111,248,17688,1,0,0:0:0:0:
83,225,17755,1,0,0:0:0:0:
68,192,17822,5,0,0:0:0:0:
68,157,17889,1,0,0:0:0:0:
87,128,17956,1,0,0:0:0:0:
118,112,18023,1,0,0:0:0:0:
152,115,18090,1,8,0:0:0:0:
178,138,18157,1,0,0:0:0:0:
206,158,18224,1,0,0:0:0:0:
240,164,18291,1,0,0:0:0:0:
274,159,18358,5,0,0:0:0:0:
301,136,18425,1,0,0:0:0:0:
315,104,18492,1,0,0:0:0:0:
322,69,18559,1,0,0:0:0:0:
345,43,18626,1,8,0:0:0:0:
377,30,18693,1,0,0:0:0:0:
411,29,18760,1,0,0:0:0:0:
443,41,18827,1,0,0:0:0:0:
469,63,18894,5,0,0:0:0:0:
478,96,18961,1,0,0:0:0:0:
471,130,19028,1,0,0:0:0:0:
447,155,19095,1,0,0:0:0:0:
414,166,19162,1,4,0:0:0:0:
134,157,19430,5,4,0:0:0:0:
157,183,19497,1,0,0:0:0:0:
173,213,19564,1,0,0:0:0:0:
184,245,19631,1,0,0:0:0:0:
190,279,19698,1,8,0:0:0:0:
205,310,19765,1,0,0:0:0:0:
231,332,19832,1,0,0:0:0:0:
265,339,19899,1,0,0:0:0:0:
299,335,19966,5,0,0:0:0:0:
329,317,20033,1,0,0:0:0:0:
351,290,20100,1,0,0:0:0:0:
354,255,20167,1,0,0:0:0:0:
340,222,20234,1,8,0:0:0:0:
316,196,20301,1,0,0:0:0:0:
283,183,20368,1,0,0:0:0:0:
248,180,20435,1,0,0:0:0:0:
213,172,20502,5,0,0:0:0:0:
184,151,20569,1,0,0:0:0:0:
163,122,20636,1,0,0:0:0:0:
156,87,20703,1,0,0:0:0:0:
168,54,20770,1,8,0:0:0:0:
197,35,20837,1,0,0:0:0:0:
232,35,20904,1,0,0:0:0:0:
258,57,20971,1,0,0:0:0:0:
281,82,21038,5,0,0:0:0:0:
310,100,21105,1,0,0:0:0:0:
343,108,21172,1,0,0:0:0:0:
377,101,21239,1,0,0:0:0:0:
410,90,21306,1,4,0:0:0:0:
196,271,21574,5,4,0:0:0:0:
169,293,21641,1,0,0:0:0:0:
134,300,21708,1,0,0:0:0:0:
99,295,21775,1,0,0:0:0:0:
69,276,21842,1,8,0:0:0:0:
54,244,21909,1,0,0:0:0:0:
52,209,21976,1,0,0:0:0:0:
65,176,22043,1,0,0:0:0:0:
92,153,22110,6,0,B|184:84|279:154,1,200,2|2,0:0|0:0,0:0:0:0:
325,238,22512,1,0,0:0:0:0:
338,138,22646,5,0,0:0:0:0:
372,143,22713,1,0,0:0:0:0:
402,159,22780,1,0,0:0:0:0:
426,184,22847,1,0,0:0:0:0:
441,215,22914,1,8,0:0:0:0:
450,248,22981,1,0,0:0:0:0:
446,282,23048,1,0,0:0:0:0:
432,314,23115,1,0,0:0:0:0:
404,335,23182,6,0,B|353:356|306:319,1,100,0|4,0:0|0:0,0:0:0:0:
274,228,23450,2,0,B|329:209|373:245,1,100,0|4,0:0|0:0,0:0:0:0:
310,321,23718,2,0,B|234:338|167:291|182:203,1,200,2|8,0:0|0:0,0:0:0:0:
192,181,24053,1,0,0:0:0:0:
202,147,24120,1,0,0:0:0:0:
199,112,24187,1,0,0:0:0:0:
191,77,24254,2,0,B|149:37|86:41|46:104|83:160,1,200,2|2,0:0|0:0,0:0:0:0:
158,214,24656,1,0,0:0:0:0:
256,195,24790,5,0,0:0:0:0:
253,160,24857,1,0,0:0:0:0:
263,126,24924,1,0,0:0:0:0:
286,100,24991,1,0,0:0:0:0:
319,88,25058,1,8,0:0:0:0:
353,88,25125,1,0,0:0:0:0:
384,103,25192,1,0,0:0:0:0:
406,129,25259,1,0,0:0:0:0:
422,159,25326,6,0,B|441:212|413:258,1,100,0|4,0:0|0:0,0:0:0:0:
323,298,25594,2,0,B|304:245|332:199,1,100,0|4,0:0|0:0,0:0:0:0:
323,298,25862,6,0,B|238:242|128:263,1,200,2|8,0:0|0:0,0:0:0:0:
100,279,26197,1,0,0:0:0:0:
86,311,26264,1,0,0:0:0:0:
94,344,26331,1,0,0:0:0:0:
126,358,26398,5,0,0:0:0:0:
159,347,26465,1,0,0:0:0:0:
173,315,26532,1,0,0:0:0:0:
191,285,26599,1,0,0:0:0:0:
216,261,26666,1,8,0:0:0:0:
276,181,26800,1,0,0:0:0:0:
176,170,26934,5,0,0:0:0:0:
142,160,27001,1,0,0:0:0:0:
113,139,27068,1,0,0:0:0:0:
94,109,27135,1,0,0:0:0:0:
88,74,27202,1,8,0:0:0:0:
187,69,27336,1,0,0:0:0:0:
282,97,27470,6,0,B|326:61|380:76,1,100,0|4,0:0|0:0,0:0:0:0:
344,170,27738,2,0,B|300:206|246:191,1,100,0|4,0:0|0:0,0:0:0:0:
282,97,28006,2,0,B|330:52|422:67|458:129,1,200,2|8,0:0|0:0,0:0:0:0:
392,204,28408,1,0,0:0:0:0:
431,295,28542,2,0,B|374:319|326:281,1,100
240,280,28810,2,0,B|297:256|345:294,1,100,8|0,0:0|0:0,0:0:0:0:
392,204,29078,6,0,B|283:187|232:97,1,200,4|8,0:0|0:0,0:0:0:0:
104,32,29480,1,0,0:0:0:0:
16,128,29614,1,4,0:0:0:0:
104,224,29748,1,0,0:0:0:0:
192,128,29882,1,8,0:0:0:0:
224,112,29949,1,0,0:0:0:0:
256,128,30016,1,0,0:0:0:0:
288,144,30083,1,0,0:0:0:0:
320,128,30150,1,4,0:0:0:0:
457,47,32294,6,0,B|461:76|436:90,2,50,2|0|0,0:0|0:0|0:0,0:0:0:0:
195,148,32696,2,0,B|191:119|216:105,2,50,2|0|0,0:0|0:0|0:0,0:0:0:0:
456,248,33098,2,0,B|460:277|435:291,2,50,2|0|0,0:0|0:0|0:0,0:0:0:0:
449,213,33299,2,0,B|445:184|470:170,2,50,0|2|0,0:0|0:0|0:0,0:0:0:0:
425,238,33500,2,0,B|404:286|341:282,2,100,0|2|0,0:0|0:0|0:0,0:0:0:0:
344,178,33902,6,0,B|365:130|428:134,2,100,2|0|2,0:0|0:0|0:0,0:0:0:0:
278,102,34304,2,0,B|260:156|200:163,1,100,0|2,0:0|0:0,0:0:0:0:
272,235,34572,2,0,B|328:238|347:293,1,100,0|2,0:0|0:0,0:0:0:0:
253,329,34840,2,0,B|196:320|183:260,1,100,0|2,0:0|0:0,0:0:0:0:
272,236,35108,1,0,0:0:0:0:
336,312,35242,1,2,0:0:0:0:
272,236,35376,6,0,B|330:237|363:198,1,100,0|2,0:0|0:0,0:0:0:0:
276,146,35644,2,0,B|218:145|185:184,1,100,0|2,0:0|0:0,0:0:0:0:
160,80,35912,2,0,B|256:24|352:80,1,200,0|0,0:0|0:0,0:0:0:0:
256,128,36314,2,0,B|268:176|244:176|256:228,1,100,2|0,0:0|0:0,0:0:0:0:
232,324,36582,6,0,B|257:334|282:324,2,50,2|0|0,0:0|0:0|0:0,0:0:0:0:
280,128,36984,2,0,B|255:118|230:128,2,50,2|0|0,0:0|0:0|0:0,0:0:0:0:
88,192,37386,2,0,B|78:168|88:143,2,50,2|0|0,0:0|0:0|0:0,0:0:0:0:
140,192,37587,2,0,B|150:217|140:242,2,50,0|2|0,0:0|0:0|0:0,0:0:0:0:
192,192,37788,2,0,B|182:167|192:142,2,50,0|0|2,0:0|0:0|0:0,0:0:0:0:
288,160,38056,6,0,B|332:128|336:76,1,100,0|2,0:0|0:0,0:0:0:0:
244,148,38324,2,0,B|238:94|195:64,1,100,0|2,0:0|0:0,0:0:0:0:
212,180,38592,2,0,B|162:158|115:180,1,100,0|2,0:0|0:0,0:0:0:0:
224,224,38860,2,0,B|180:256|176:308,2,100,0|2|0,0:0|0:0|0:0,0:0:0:0:
384,296,39396,6,0,B|460:280|460:168|384:152,1,200,0|0,0:0|0:0,0:0:0:0:
268,224,39798,2,0,B|320:236|376:224,1,100,2|0,0:0|0:0,0:0:0:0:
320,136,40066,1,2,0:0:0:0:
268,224,40200,2,0,B|164:200|52:224,1,200,0|0,0:0|0:0,0:0:0:0:
128,140,40602,2,0,B|180:136|216:88,1,100,2|0,0:0|0:0,0:0:0:0:
308,56,40870,5,0,0:0:0:0:
344,60,40937,1,0,0:0:0:0:
372,84,41004,1,0,0:0:0:0:
300,152,41138,1,8,0:0:0:0:
214,199,41272,2,0,B|158:191|106:223,1,100
214,199,41540,2,0,B|270:207|322:175,1,100,0|8,0:0|0:0,0:0:0:0:
388,124,41808,5,0,0:0:0:0:
404,156,41875,1,0,0:0:0:0:
408,192,41942,1,0,0:0:0:0:
404,228,42009,1,0,0:0:0:0:
388,260,42076,1,0,0:0:0:0:
315,194,42210,1,8,0:0:0:0:
215,199,42344,2,0,B|198:143|148:133,1,100
124,230,42612,2,0,B|141:286|191:296,1,100,0|8,0:0|0:0,0:0:0:0:
215,198,42880,5,0,0:0:0:0:
182,183,42947,1,0,0:0:0:0:
160,155,43014,1,0,0:0:0:0:
154,120,43081,1,0,0:0:0:0:
162,86,43148,1,0,0:0:0:0:
257,116,43282,1,8,0:0:0:0:
350,151,43416,2,0,B|343:206|389:241,1,100
280,209,43684,2,0,B|287:154|241:119,1,100,0|8,0:0|0:0,0:0:0:0:
139,85,43952,5,0,0:0:0:0:
106,98,44019,1,0,0:0:0:0:
86,127,44086,1,0,0:0:0:0:
81,226,44220,2,0,B|127:199|180:214,1,100,0|8,0:0|0:0,0:0:0:0:
227,126,44488,1,0,0:0:0:0:
273,214,44622,5,0,0:0:0:0:
292,242,44689,1,0,0:0:0:0:
322,258,44756,1,0,0:0:0:0:
356,260,44823,1,0,0:0:0:0:
388,247,44890,1,8,0:0:0:0:
412,221,44957,1,0,0:0:0:0:
413,186,45024,1,8,0:0:0:0:
405,151,45091,1,8,0:0:0:0:
379,127,45158,1,0,0:0:0:0:
275,114,45292,6,0,B|344:191,1,100,0|8,0:0|0:0,0:0:0:0:
275,114,45560,1,0,0:0:0:0:
183,73,45694,1,0,0:0:0:0:
162,170,45828,2,0,B|161:226|112:257,1,100,0|8,0:0|0:0,0:0:0:0:
215,247,46096,5,0,0:0:0:0:
247,233,46163,1,0,0:0:0:0:
281,230,46230,1,0,0:0:0:0:
381,230,46364,2,0,B|374:175|327:147,1,100,0|8,0:0|0:0,0:0:0:0:
232,121,46632,1,0,0:0:0:0:
145,171,46766,6,0,B|112:211|56:207,2,100,0|0|8,0:0|0:0|0:0,0:0:0:0:
67,107,47168,2,0,B|99:63|159:67,1,100
145,170,47436,2,0,B|198:178|238:132,1,100,0|8,0:0|0:0,0:0:0:0:
273,43,47704,2,0,B|332:65|329:127,2,100
234,136,48106,1,8,0:0:0:0:
314,195,48240,1,0,0:0:0:0:
340,218,48307,1,0,0:0:0:0:
353,250,48374,1,0,0:0:0:0:
377,347,48508,2,0,B|318:362|282:319,1,100,0|8,0:0|0:0,0:0:0:0:
235,236,48776,5,0,0:0:0:0:
169,160,48910,1,0,0:0:0:0:
132,253,49044,2,0,B|101:290|40:289,1,100,0|8,0:0|0:0,0:0:0:0:
48,188,49312,1,8,0:0:0:0:
86,95,49446,5,0,0:0:0:0:
110,69,49513,1,0,0:0:0:0:
141,52,49580,1,0,0:0:0:0:
175,45,49647,1,0,0:0:0:0:
208,54,49714,1,8,0:0:0:0:
237,72,49781,1,0,0:0:0:0:
263,95,49848,1,0,0:0:0:0:
276,127,49915,1,0,0:0:0:0:
281,161,49982,5,0,0:0:0:0:
293,193,50049,1,0,0:0:0:0:
316,219,50116,1,0,0:0:0:0:
347,234,50183,1,0,0:0:0:0:
381,239,50250,1,8,0:0:0:0:
368,160,50384,1,0,0:0:0:0:
427,106,50518,6,0,B|486:190|442:316,1,200,4|8,0:0|0:0,0:0:0:0:
365,355,50920,1,0,0:0:0:0:
286,293,51054,1,0,0:0:0:0:
257,272,51121,1,0,0:0:0:0:
223,263,51188,1,0,0:0:0:0:
188,264,51255,1,0,0:0:0:0:
154,273,51322,1,8,0:0:0:0:
68,192,51456,5,0,0:0:0:0:
144,96,51590,1,4,0:0:0:0:
248,156,51724,2,0,B|300:149|330:104,1,100,0|8,0:0|0:0,0:0:0:0:
455,309,52126,6,0,B|384:231|282:217,1,200,4|8,0:0|0:0,0:0:0:0:
182,211,52528,1,0,0:0:0:0:
110,140,52662,2,0,B|154:104|204:114,1,100,4|0,0:0|0:0,0:0:0:0:
182,211,52930,2,0,B|138:247|88:237,1,100,4|0,0:0|0:0,0:0:0:0:
176,21,53198,2,0,B|212:65|202:115,1,100,4|0,0:0|0:0,0:0:0:0:
115,330,53466,2,0,B|79:286|89:236,1,100,4|0,0:0|0:0,0:0:0:0:
110,139,53734,5,4,0:0:0:0:
115,104,53801,1,0,0:0:0:0:
134,74,53868,1,0,0:0:0:0:
166,61,53935,1,0,0:0:0:0:
200,64,54002,1,8,0:0:0:0:
228,84,54069,1,0,0:0:0:0:
247,113,54136,1,0,0:0:0:0:
275,132,54203,1,0,0:0:0:0:
308,141,54270,5,0,0:0:0:0:
342,140,54337,1,0,0:0:0:0:
372,122,54404,1,0,0:0:0:0:
386,90,54471,1,0,0:0:0:0:
378,55,54538,1,8,0:0:0:0:
351,32,54605,1,0,0:0:0:0:
316,26,54672,1,0,0:0:0:0:
287,46,54739,1,0,0:0:0:0:
272,77,54806,5,0,0:0:0:0:
268,111,54873,1,0,0:0:0:0:
274,145,54940,1,0,0:0:0:0:
275,179,55007,1,0,0:0:0:0:
264,212,55074,1,8,0:0:0:0:
253,245,55141,1,0,0:0:0:0:
229,271,55208,1,0,0:0:0:0:
197,285,55275,1,0,0:0:0:0:
162,286,55342,5,0,0:0:0:0:
127,278,55409,1,0,0:0:0:0:
101,253,55476,1,0,0:0:0:0:
96,218,55543,1,0,0:0:0:0:
102,183,55610,1,4,0:0:0:0:
163,57,55878,5,4,0:0:0:0:
171,90,55945,1,0,0:0:0:0:
182,123,56012,1,0,0:0:0:0:
198,153,56079,1,0,0:0:0:0:
221,178,56146,1,8,0:0:0:0:
248,199,56213,1,0,0:0:0:0:
277,218,56280,1,0,0:0:0:0:
308,232,56347,1,0,0:0:0:0:
342,233,56414,5,0,0:0:0:0:
373,217,56481,1,0,0:0:0:0:
395,190,56548,1,0,0:0:0:0:
402,155,56615,1,0,0:0:0:0:
400,120,56682,1,8,0:0:0:0:
384,88,56749,1,0,0:0:0:0:
353,70,56816,1,0,0:0:0:0:
318,68,56883,1,0,0:0:0:0:
284,78,56950,5,0,0:0:0:0:
257,100,57017,1,0,0:0:0:0:
239,130,57084,1,0,0:0:0:0:
226,162,57151,1,0,0:0:0:0:
215,195,57218,1,8,0:0:0:0:
194,223,57285,1,0,0:0:0:0:
168,246,57352,1,0,0:0:0:0:
137,262,57419,1,0,0:0:0:0:
102,262,57486,5,4,0:0:0:0:
34,31,57754,1,4,0:0:0:0:
195,209,58022,5,4,0:0:0:0:
219,234,58089,1,0,0:0:0:0:
247,254,58156,1,0,0:0:0:0:
279,267,58223,1,0,0:0:0:0:
313,272,58290,1,8,0:0:0:0:
347,264,58357,1,0,0:0:0:0:
370,237,58424,1,0,0:0:0:0:
380,203,58491,1,0,0:0:0:0:
409,183,58558,5,0,0:0:0:0:
443,180,58625,1,0,0:0:0:0:
473,197,58692,1,0,0:0:0:0:
487,228,58759,1,0,0:0:0:0:
487,263,58826,1,8,0:0:0:0:
478,296,58893,1,0,0:0:0:0:
449,316,58960,1,0,0:0:0:0:
415,325,59027,1,0,0:0:0:0:
380,328,59094,5,0,0:0:0:0:
346,338,59161,1,0,0:0:0:0:
313,351,59228,1,0,0:0:0:0:
278,354,59295,1,0,0:0:0:0:
243,352,59362,1,8,0:0:0:0:
208,343,59429,1,0,0:0:0:0:
175,330,59496,1,0,0:0:0:0:
149,306,59563,1,0,0:0:0:0:
140,272,59630,5,0,0:0:0:0:
151,238,59697,1,0,0:0:0:0:
179,217,59764,1,0,0:0:0:0:
212,206,59831,1,0,0:0:0:0:
246,202,59898,1,4,0:0:0:0:
434,53,60166,5,4,0:0:0:0:
402,67,60233,1,0,0:0:0:0:
369,79,60300,1,0,0:0:0:0:
334,85,60367,1,0,0:0:0:0:
299,87,60434,1,8,0:0:0:0:
264,87,60501,1,0,0:0:0:0:
229,83,60568,1,0,0:0:0:0:
195,73,60635,1,0,0:0:0:0:
160,73,60702,5,0,0:0:0:0:
127,84,60769,1,0,0:0:0:0:
100,106,60836,1,0,0:0:0:0:
89,139,60903,1,0,0:0:0:0:
89,174,60970,1,8,0:0:0:0:
105,204,61037,1,0,0:0:0:0:
133,224,61104,1,0,0:0:0:0:
165,236,61171,1,0,0:0:0:0:
199,239,61238,5,0,0:0:0:0:
233,234,61305,1,0,0:0:0:0:
267,226,61372,1,0,0:0:0:0:
301,219,61439,1,0,0:0:0:0:
336,219,61506,1,8,0:0:0:0:
479,26,61774,5,4,0:0:0:0:
256,192,62042,1,4,0:0:0:0:
33,358,62310,1,4,0:0:0:0:
316,299,62578,5,8,0:0:0:0:
350,293,62645,1,0,0:0:0:0:
378,272,62712,1,0,0:0:0:0:
397,242,62779,1,0,0:0:0:0:
404,207,62846,1,0,0:0:0:0:
304,204,62980,1,0,0:0:0:0:
201,173,63114,2,0,B|220:124|272:107,2,100,8|0|0,0:0|0:0|0:0,0:0:0:0:
200,52,63516,6,0,B|151:69|98:43,1,100,0|8,0:0|0:0,0:0:0:0:
116,139,63784,2,0,B|156:176|146:229,2,100,0|0|4,0:0|0:0|0:0,0:0:0:0:
48,212,64186,2,0,B|7:174|18:121,1,100,0|4,0:0|0:0,0:0:0:0:
86,48,64454,1,0,0:0:0:0:
276,253,64722,5,8,0:0:0:0:
307,267,64789,1,0,0:0:0:0:
341,268,64856,1,0,0:0:0:0:
374,256,64923,1,0,0:0:0:0:
399,232,64990,1,0,0:0:0:0:
325,164,65124,1,0,0:0:0:0:
226,183,65258,2,0,B|204:229|142:234,1,100,8|0,0:0|0:0,0:0:0:0:
138,133,65526,1,0,0:0:0:0:
199,53,65660,5,0,0:0:0:0:
233,46,65727,1,0,0:0:0:0:
267,45,65794,1,8,0:0:0:0:
298,59,65861,1,0,0:0:0:0:
326,79,65928,1,0,0:0:0:0:
343,109,65995,1,0,0:0:0:0:
353,142,66062,1,0,0:0:0:0:
253,129,66196,6,0,B|227:176|168:184,1,100,4|0,0:0|0:0,0:0:0:0:
83,138,66464,2,0,B|109:91|168:83,1,100,4|4,0:0|0:0,0:0:0:0:
253,129,66732,1,0,0:0:0:0:
328,194,66866,1,8,0:0:0:0:
302,217,66933,1,0,0:0:0:0:
269,230,67000,1,0,0:0:0:0:
234,229,67067,1,0,0:0:0:0:
200,217,67134,1,0,0:0:0:0:
253,129,67268,6,0,B|277:79|333:80,1,100,0|8,0:0|0:0,0:0:0:0:
424,124,67536,2,0,B|400:174|344:173,1,100
208,308,67804,2,0,B|256:328|304:308,2,100,0|8|0,0:0|0:0|0:0,0:0:0:0:
157,168,68206,2,0,B|211:158|226:102,1,100,0|4,0:0|0:0,0:0:0:0:
119,112,68474,2,0,B|137:60|96:19,1,100,0|4,0:0|0:0,0:0:0:0:
23,87,68742,6,0,B|15:205|115:258,1,200,0|8,0:0|0:0,0:0:0:0:
205,281,69144,1,0,0:0:0:0:
297,243,69278,5,0,0:0:0:0:
321,217,69345,1,0,0:0:0:0:
354,207,69412,1,0,0:0:0:0:
387,217,69479,1,0,0:0:0:0:
411,243,69546,1,8,0:0:0:0:
355,326,69680,6,0,B|355:207,1,100,0|4,0:0|0:0,0:0:0:0:
422,152,69948,1,0,0:0:0:0:
355,77,70082,1,8,0:0:0:0:
289,152,70216,1,0,0:0:0:0:
252,58,70350,2,0,B|209:27|150:40,1,100,4|0,0:0|0:0,0:0:0:0:
176,136,70618,2,0,B|168:112,8,25,0|0|0|0|0|0|0|0|4,0:0|0:0|0:0|0:0|0:0|0:0|0:0|0:0|0:0,0:0:0:0:
124,216,71020,5,0,0:0:0:0:
152,236,71087,1,0,0:0:0:0:
188,240,71154,1,8,0:0:0:0:
274,190,71288,2,0,B|320:169|372:187,1,100
274,189,71556,2,0,B|228:210|176:192,1,100,0|8,0:0|0:0,0:0:0:0:
226,105,71824,6,0,B|276:83|323:107,1,100
412,151,72092,1,0,0:0:0:0:
413,250,72226,1,8,0:0:0:0:
327,198,72360,1,0,0:0:0:0:
251,264,72494,1,0,0:0:0:0:
233,233,72561,1,0,0:0:0:0:
226,198,72628,1,0,0:0:0:0:
233,163,72695,1,0,0:0:0:0:
251,132,72762,1,4,0:0:0:0:
482,193,73030,1,4,0:0:0:0:
452,97,73164,6,0,B|416:57|360:64,1,100,0|8,0:0|0:0,0:0:0:0:
336,152,73432,2,0,B|372:172|372:212|336:232,1,100
361,320,73700,2,0,B|416:327|452:287,1,100,0|8,0:0|0:0,0:0:0:0:
368,232,73968,2,0,B|313:225|277:265,1,100,0|0,0:0|0:0,0:0:0:0:
180,276,74236,2,0,B|184:224|224:188,1,100,0|8,0:0|0:0,0:0:0:0:
280,108,74504,1,0,0:0:0:0:
176,52,74638,5,4,0:0:0:0:
256,280,74906,1,4,0:0:0:0:
336,52,75174,1,4,0:0:0:0:
256,140,75308,6,0,B|256:240,1,100,0|8,0:0|0:0,0:0:0:0:
220,332,75576,1,0,0:0:0:0:
256,340,75643,1,0,0:0:0:0:
292,332,75710,1,0,0:0:0:0:
345,239,75844,2,0,B|301:199|257:239,1,100,0|8,0:0|0:0,0:0:0:0:
136,168,76112,6,0,B|160:120|216:100,1,100
303,102,76380,2,0,B|352:120|376:168,1,100,0|8,0:0|0:0,0:0:0:0:
412,76,76648,1,0,0:0:0:0:
388,52,76715,1,0,0:0:0:0:
356,36,76782,1,0,0:0:0:0:
256,40,76916,2,0,B|240:88|180:104,1,100,0|4,0:0|0:0,0:0:0:0:
344,280,77318,1,4,0:0:0:0:
224,288,77452,5,0,0:0:0:0:
188,296,77519,1,0,0:0:0:0:
160,316,77586,1,8,0:0:0:0:
164,216,77720,2,0,B|216:200|232:148,1,100
274,57,77988,2,0,B|326:76|326:137,1,100,0|8,0:0|0:0,0:0:0:0:
232,148,78256,1,0,0:0:0:0:
297,209,78390,6,0,B|353:196|391:232,1,100
322,304,78658,1,8,0:0:0:0:
371,110,78926,1,4,0:0:0:0:
256,273,79194,1,4,0:0:0:0:
424,164,79462,1,4,0:0:0:0:
90,85,88038,5,0,0:0:0:0:
95,119,88105,1,0,0:0:0:0:
114,148,88172,1,0,0:0:0:0:
141,169,88239,1,0,0:0:0:0:
175,176,88306,1,8,0:0:0:0:
192,77,88440,2,0,B|236:53|296:60,1,100
261,155,88708,2,0,B|275:208|229:246,1,100,0|8,0:0|0:0,0:0:0:0:
323,283,88976,5,0,0:0:0:0:
351,263,89043,1,0,0:0:0:0:
385,256,89110,1,0,0:0:0:0:
395,156,89244,2,0,B|342:144|325:90,1,100,0|8,0:0|0:0,0:0:0:0:
225,79,89512,1,0,0:0:0:0:
199,176,89646,5,0,0:0:0:0:
177,203,89713,1,0,0:0:0:0:
142,210,89780,1,0,0:0:0:0:
108,200,89847,1,0,0:0:0:0:
87,171,89914,1,8,0:0:0:0:
92,136,89981,1,0,0:0:0:0:
113,108,90048,1,0,0:0:0:0:
146,98,90115,1,0,0:0:0:0:
180,105,90182,5,0,0:0:0:0:
214,107,90249,1,0,0:0:0:0:
248,103,90316,1,0,0:0:0:0:
281,92,90383,1,0,0:0:0:0:
309,72,90450,1,8,0:0:0:0:
341,60,90517,1,0,0:0:0:0:
375,59,90584,1,0,0:0:0:0:
407,71,90651,1,0,0:0:0:0:
433,94,90718,5,0,0:0:0:0:
449,124,90785,1,0,0:0:0:0:
450,158,90852,1,0,0:0:0:0:
439,191,90919,1,0,0:0:0:0:
417,218,90986,1,8,0:0:0:0:
383,227,91053,1,0,0:0:0:0:
348,223,91120,1,0,0:0:0:0:
316,206,91187,1,0,0:0:0:0:
283,191,91254,5,0,0:0:0:0:
248,190,91321,1,0,0:0:0:0:
215,203,91388,1,0,0:0:0:0:
188,225,91455,1,0,0:0:0:0:
169,254,91522,1,8,0:0:0:0:
169,288,91589,1,0,0:0:0:0:
188,317,91656,1,0,0:0:0:0:
220,330,91723,1,0,0:0:0:0:
254,323,91790,5,0,0:0:0:0:
275,295,91857,1,0,0:0:0:0:
280,265,91924,1,0,0:0:0:0:
261,241,91991,1,0,0:0:0:0:
231,233,92058,1,8,0:0:0:0:
201,227,92125,1,0,0:0:0:0:
176,209,92192,1,0,0:0:0:0:
160,183,92259,1,0,0:0:0:0:
151,154,92326,5,0,0:0:0:0:
157,124,92393,1,0,0:0:0:0:
180,105,92460,1,0,0:0:0:0:
209,99,92527,1,0,0:0:0:0:
238,103,92594,1,8,0:0:0:0:
260,122,92661,1,0,0:0:0:0:
279,145,92728,1,0,0:0:0:0:
354,210,92862,6,0,B|374:221|405:217,2,50
385,115,93130,2,0,B|369:66|315:41,1,100,8|0,0:0|0:0,0:0:0:0:
386,117,93398,2,0,B|402:166|456:191,1,100,0|0,0:0|0:0,0:0:0:0:
408,279,93666,2,0,B|351:289|332:340,1,100,8|0,0:0|0:0,0:0:0:0:
269,259,93934,1,0,0:0:0:0:
280,226,94001,1,0,0:0:0:0:
305,202,94068,1,0,0:0:0:0:
332,180,94135,1,0,0:0:0:0:
348,148,94202,1,8,0:0:0:0:
267,123,94336,6,0,B|230:161|174:152,1,100
202,55,94604,2,0,B|239:17|295:26,1,100,0|8,0:0|0:0,0:0:0:0:
382,68,94872,2,0,B|408:118|372:160,1,100
282,108,95140,2,0,B|259:63|199:55,1,100,0|8,0:0|0:0,0:0:0:0:
191,162,95408,5,0,0:0:0:0:
175,193,95475,1,0,0:0:0:0:
146,213,95542,1,0,0:0:0:0:
50,241,95676,2,0,B|77:283|62:339,1,100,0|8,0:0|0:0,0:0:0:0:
162,324,95944,2,0,B|214:326|253:286,1,100,0|0,0:0|0:0,0:0:0:0:
347,325,96212,2,0,B|367:277|343:226,1,100,0|8,0:0|0:0,0:0:0:0:
312,136,96480,1,0,0:0:0:0:
248,208,96614,1,4,0:0:0:0:
