osu file format v13

[General]
AudioFilename: Dimrain47 - Midnight Siege_BPM214.29.mp3
AudioLeadIn: 0
PreviewTime: -1
Countdown: 1
SampleSet: None
StackLeniency: 0.7
Mode: 0
LetterboxInBreaks: 1
WidescreenStoryboard: 0

[Editor]
DistanceSpacing: 1
BeatDivisor: 4
GridSize: 8
TimelineZoom: 1

[Metadata]
Title:Midnight Siege - Stream practice
TitleUnicode:Midnight Siege - Stream practice
Artist:Dimrain47
ArtistUnicode:Dimrain47
Creator:LegendAXS
Version:Epic BPM214
Source:Newgrounds
Tags:Techno Stream Dimrain
BeatmapID:459139
BeatmapSetID:193181

[Difficulty]
HPDrainRate:7
CircleSize:4
OverallDifficulty:7
ApproachRate:10
SliderMultiplier:2
SliderTickRate:1

[Events]
//Background and Video events
0,0,"The_Tides_of_Elegance.jpg",0,0
//Break Periods
2,31699,33214
2,83218,91453
//Storyboard Layer 0 (Background)
//Storyboard Layer 1 (Fail)
//Storyboard Layer 2 (Pass)
//Storyboard Layer 3 (Foreground)
//Storyboard Sound Samples
//Background Colour Transformations
3,100,163,162,255

[TimingPoints]
9099,279.994400111998,4,2,1,30,1,0
13579,-100,4,2,2,20,0,0
13649,-100,4,2,2,55,0,0
74058,-100,4,2,2,55,0,1
83018,-100,4,2,2,55,0,0

[Colours]
Combo1 : 0,128,170
Combo2 : 101,92,205
Combo3 : 27,89,205

[HitObjects]
122,114,9099,6,0,B|88:184|128:264|204:260,2,200
205,169,9799,1,0,0:0:0:0:
287,224,9939,1,0,0:0:0:0:
369,279,10079,1,0,0:0:0:0:
387,79,10359,5,0,0:0:0:0:
328,160,10499,1,0,0:0:0:0:
125,79,10779,5,0,0:0:0:0:
184,160,10919,1,0,0:0:0:0:
256,91,11059,1,0,0:0:0:0:
256,125,11129,1,0,0:0:0:0:
256,159,11199,1,0,0:0:0:0:
256,193,11269,1,0,0:0:0:0:
256,227,11339,1,0,0:0:0:0:
168,72,11619,6,0,B|256:24|256:24|344:72,2,200
256,120,12319,1,0,0:0:0:0:
416,224,12599,5,0,0:0:0:0:
360,136,12739,1,0,0:0:0:0:
152,136,13019,5,0,0:0:0:0:
96,224,13159,1,0,0:0:0:0:
84,64,13579,5,4,0:0:0:0:
88,98,13649,1,0,0:0:0:0:
99,130,13719,1,0,0:0:0:0:
120,157,13789,1,0,0:0:0:0:
147,178,13859,1,8,0:0:0:0:
179,191,13929,1,0,0:0:0:0:
213,197,13999,1,0,0:0:0:0:
247,191,14069,1,0,0:0:0:0:
279,178,14139,5,0,0:0:0:0:
306,157,14209,1,0,0:0:0:0:
327,130,14279,1,0,0:0:0:0:
338,98,14349,1,0,0:0:0:0:
342,64,14419,1,8,0:0:0:0:
354,96,14489,1,0,0:0:0:0:
364,129,14559,1,0,0:0:0:0:
382,158,14629,1,0,0:0:0:0:
398,189,14699,5,0,0:0:0:0:
419,216,14769,1,0,0:0:0:0:
440,243,14839,1,0,0:0:0:0:
462,269,14909,1,0,0:0:0:0:
490,288,14979,1,8,0:0:0:0:
456,278,15049,1,0,0:0:0:0:
422,268,15119,1,0,0:0:0:0:
387,266,15189,1,0,0:0:0:0:
352,268,15259,5,0,0:0:0:0:
318,279,15329,1,0,0:0:0:0:
289,299,15399,1,0,0:0:0:0:
265,324,15469,1,0,0:0:0:0:
245,353,15539,2,4,B|168:352|168:240|84:239,1,200
92,204,15889,5,0,0:0:0:0:
105,171,15959,1,0,0:0:0:0:
130,146,16029,1,0,0:0:0:0:
158,125,16099,1,8,0:0:0:0:
190,111,16169,1,0,0:0:0:0:
224,102,16239,1,0,0:0:0:0:
258,100,16309,1,0,0:0:0:0:
292,104,16379,5,0,0:0:0:0:
278,136,16449,1,0,0:0:0:0:
270,170,16519,1,0,0:0:0:0:
270,205,16589,1,0,0:0:0:0:
280,238,16659,1,8,0:0:0:0:
303,263,16729,1,0,0:0:0:0:
331,283,16799,1,0,0:0:0:0:
364,292,16869,1,0,0:0:0:0:
398,290,16939,5,0,0:0:0:0:
386,257,17009,1,0,0:0:0:0:
364,229,17079,1,0,0:0:0:0:
358,194,17149,1,0,0:0:0:0:
361,159,17219,1,8,0:0:0:0:
373,126,17289,1,0,0:0:0:0:
393,97,17359,1,0,0:0:0:0:
420,75,17429,1,0,0:0:0:0:
450,58,17499,5,4,0:0:0:0:
170,57,17779,1,4,0:0:0:0:
312,298,18059,5,4,0:0:0:0:
283,277,18129,1,0,0:0:0:0:
249,266,18199,1,0,0:0:0:0:
214,263,18269,1,0,0:0:0:0:
179,267,18339,1,8,0:0:0:0:
144,262,18409,1,0,0:0:0:0:
111,248,18479,1,0,0:0:0:0:
83,225,18549,1,0,0:0:0:0:
68,192,18619,5,0,0:0:0:0:
68,157,18689,1,0,0:0:0:0:
87,128,18759,1,0,0:0:0:0:
118,112,18829,1,0,0:0:0:0:
152,115,18899,1,8,0:0:0:0:
178,138,18969,1,0,0:0:0:0:
206,158,19039,1,0,0:0:0:0:
240,164,19109,1,0,0:0:0:0:
274,159,19179,5,0,0:0:0:0:
301,136,19249,1,0,0:0:0:0:
315,104,19319,1,0,0:0:0:0:
322,69,19389,1,0,0:0:0:0:
345,43,19459,1,8,0:0:0:0:
377,30,19529,1,0,0:0:0:0:
411,29,19599,1,0,0:0:0:0:
443,41,19669,1,0,0:0:0:0:
469,63,19739,5,0,0:0:0:0:
478,96,19809,1,0,0:0:0:0:
471,130,19879,1,0,0:0:0:0:
447,155,19949,1,0,0:0:0:0:
414,166,20019,1,4,0:0:0:0:
134,157,20299,5,4,0:0:0:0:
157,183,20369,1,0,0:0:0:0:
173,213,20439,1,0,0:0:0:0:
184,245,20509,1,0,0:0:0:0:
190,279,20579,1,8,0:0:0:0:
205,310,20649,1,0,0:0:0:0:
231,332,20719,1,0,0:0:0:0:
265,339,20789,1,0,0:0:0:0:
299,335,20859,5,0,0:0:0:0:
329,317,20929,1,0,0:0:0:0:
351,290,20999,1,0,0:0:0:0:
354,255,21069,1,0,0:0:0:0:
340,222,21139,1,8,0:0:0:0:
316,196,21209,1,0,0:0:0:0:
283,183,21279,1,0,0:0:0:0:
248,180,21349,1,0,0:0:0:0:
213,172,21419,5,0,0:0:0:0:
184,151,21489,1,0,0:0:0:0:
163,122,21559,1,0,0:0:0:0:
156,87,21629,1,0,0:0:0:0:
168,54,21699,1,8,0:0:0:0:
197,35,21769,1,0,0:0:0:0:
232,35,21839,1,0,0:0:0:0:
258,57,21909,1,0,0:0:0:0:
281,82,21979,5,0,0:0:0:0:
310,100,22049,1,0,0:0:0:0:
343,108,22119,1,0,0:0:0:0:
377,101,22189,1,0,0:0:0:0:
410,90,22259,1,4,0:0:0:0:
196,271,22539,5,4,0:0:0:0:
169,293,22609,1,0,0:0:0:0:
134,300,22679,1,0,0:0:0:0:
99,295,22749,1,0,0:0:0:0:
69,276,22819,1,8,0:0:0:0:
54,244,22889,1,0,0:0:0:0:
52,209,22959,1,0,0:0:0:0:
65,176,23029,1,0,0:0:0:0:
92,153,23099,6,0,B|184:84|279:154,1,200,2|2,0:0|0:0,0:0:0:0:
325,238,23519,1,0,0:0:0:0:
338,138,23659,5,0,0:0:0:0:
372,143,23729,1,0,0:0:0:0:
402,159,23799,1,0,0:0:0:0:
426,184,23869,1,0,0:0:0:0:
441,215,23939,1,8,0:0:0:0:
450,248,24009,1,0,0:0:0:0:
446,282,24079,1,0,0:0:0:0:
432,314,24149,1,0,0:0:0:0:
404,335,24219,6,0,B|353:356|306:319,1,100,0|4,0:0|0:0,0:0:0:0:
274,228,24499,2,0,B|329:209|373:245,1,100,0|4,0:0|0:0,0:0:0:0:
310,321,24779,2,0,B|234:338|167:291|182:203,1,200,2|8,0:0|0:0,0:0:0:0:
192,181,25129,1,0,0:0:0:0:
202,147,25199,1,0,0:0:0:0:
199,112,25269,1,0,0:0:0:0:
191,77,25339,2,0,B|149:37|86:41|46:104|83:160,1,200,2|2,0:0|0:0,0:0:0:0:
158,214,25759,1,0,0:0:0:0:
256,195,25899,5,0,0:0:0:0:
253,160,25969,1,0,0:0:0:0:
263,126,26039,1,0,0:0:0:0:
286,100,26109,1,0,0:0:0:0:
319,88,26179,1,8,0:0:0:0:
353,88,26249,1,0,0:0:0:0:
384,103,26319,1,0,0:0:0:0:
406,129,26389,1,0,0:0:0:0:
422,159,26459,6,0,B|441:212|413:258,1,100,0|4,0:0|0:0,0:0:0:0:
323,298,26739,2,0,B|304:245|332:199,1,100,0|4,0:0|0:0,0:0:0:0:
323,298,27019,6,0,B|238:242|128:263,1,200,2|8,0:0|0:0,0:0:0:0:
100,279,27369,1,0,0:0:0:0:
86,311,27439,1,0,0:0:0:0:
94,344,27509,1,0,0:0:0:0:
126,358,27579,5,0,0:0:0:0:
159,347,27649,1,0,0:0:0:0:
173,315,27719,1,0,0:0:0:0:
191,285,27789,1,0,0:0:0:0:
216,261,27859,1,8,0:0:0:0:
276,181,27999,1,0,0:0:0:0:
176,170,28139,5,0,0:0:0:0:
142,160,28209,1,0,0:0:0:0:
113,139,28279,1,0,0:0:0:0:
94,109,28349,1,0,0:0:0:0:
88,74,28419,1,8,0:0:0:0:
187,69,28559,1,0,0:0:0:0:
282,97,28699,6,0,B|326:61|380:76,1,100,0|4,0:0|0:0,0:0:0:0:
344,170,28979,2,0,B|300:206|246:191,1,100,0|4,0:0|0:0,0:0:0:0:
282,97,29259,2,0,B|330:52|422:67|458:129,1,200,2|8,0:0|0:0,0:0:0:0:
392,204,29679,1,0,0:0:0:0:
431,295,29819,2,0,B|374:319|326:281,1,100
240,280,30099,2,0,B|297:256|345:294,1,100,8|0,0:0|0:0,0:0:0:0:
392,204,30379,6,0,B|283:187|232:97,1,200,4|8,0:0|0:0,0:0:0:0:
104,32,30799,1,0,0:0:0:0:
16,128,30939,1,4,0:0:0:0:
104,224,31079,1,0,0:0:0:0:
192,128,31219,1,8,0:0:0:0:
224,112,31289,1,0,0:0:0:0:
256,128,31359,1,0,0:0:0:0:
288,144,31429,1,0,0:0:0:0:
320,128,31499,1,4,0:0:0:0:
457,47,33739,6,0,B|461:76|436:90,2,50,2|0|0,0:0|0:0|0:0,0:0:0:0:
195,148,34159,2,0,B|191:119|216:105,2,50,2|0|0,0:0|0:0|0:0,0:0:0:0:
456,248,34579,2,0,B|460:277|435:291,2,50,2|0|0,0:0|0:0|0:0,0:0:0:0:
449,213,34789,2,0,B|445:184|470:170,2,50,0|2|0,0:0|0:0|0:0,0:0:0:0:
425,238,34999,2,0,B|404:286|341:282,2,100,0|2|0,0:0|0:0|0:0,0:0:0:0:
344,178,35419,6,0,B|365:130|428:134,2,100,2|0|2,0:0|0:0|0:0,0:0:0:0:
278,102,35839,2,0,B|260:156|200:163,1,100,0|2,0:0|0:0,0:0:0:0:
272,235,36119,2,0,B|328:238|347:293,1,100,0|2,0:0|0:0,0:0:0:0:
253,329,36399,2,0,B|196:320|183:260,1,100,0|2,0:0|0:0,0:0:0:0:
272,236,36679,1,0,0:0:0:0:
336,312,36819,1,2,0:0:0:0:
272,236,36959,6,0,B|330:237|363:198,1,100,0|2,0:0|0:0,0:0:0:0:
276,146,37239,2,0,B|218:145|185:184,1,100,0|2,0:0|0:0,0:0:0:0:
160,80,37519,2,0,B|256:24|352:80,1,200,0|0,0:0|0:0,0:0:0:0:
256,128,37939,2,0,B|268:176|244:176|256:228,1,100,2|0,0:0|0:0,0:0:0:0:
232,324,38219,6,0,B|257:334|282:324,2,50,2|0|0,0:0|0:0|0:0,0:0:0:0:
280,128,38639,2,0,B|255:118|230:128,2,50,2|0|0,0:0|0:0|0:0,0:0:0:0:
88,192,39059,2,0,B|78:168|88:143,2,50,2|0|0,0:0|0:0|0:0,0:0:0:0:
140,192,39269,2,0,B|150:217|140:242,2,50,0|2|0,0:0|0:0|0:0,0:0:0:0:
192,192,39479,2,0,B|182:167|192:142,2,50,0|0|2,0:0|0:0|0:0,0:0:0:0:
288,160,39759,6,0,B|332:128|336:76,1,100,0|2,0:0|0:0,0:0:0:0:
244,148,40039,2,0,B|238:94|195:64,1,100,0|2,0:0|0:0,0:0:0:0:
212,180,40319,2,0,B|162:158|115:180,1,100,0|2,0:0|0:0,0:0:0:0:
224,224,40599,2,0,B|180:256|176:308,2,100,0|2|0,0:0|0:0|0:0,0:0:0:0:
384,296,41159,6,0,B|460:280|460:168|384:152,1,200,0|0,0:0|0:0,0:0:0:0:
268,224,41579,2,0,B|320:236|376:224,1,100,2|0,0:0|0:0,0:0:0:0:
320,136,41859,1,2,0:0:0:0:
268,224,41999,2,0,B|164:200|52:224,1,200,0|0,0:0|0:0,0:0:0:0:
128,140,42419,2,0,B|180:136|216:88,1,100,2|0,0:0|0:0,0:0:0:0:
308,56,42699,5,0,0:0:0:0:
344,60,42769,1,0,0:0:0:0:
372,84,42839,1,0,0:0:0:0:
300,152,42979,1,8,0:0:0:0:
214,199,43119,2,0,B|158:191|106:223,1,100
214,199,43399,2,0,B|270:207|322:175,1,100,0|8,0:0|0:0,0:0:0:0:
388,124,43679,5,0,0:0:0:0:
404,156,43749,1,0,0:0:0:0:
408,192,43819,1,0,0:0:0:0:
404,228,43889,1,0,0:0:0:0:
388,260,43959,1,0,0:0:0:0:
315,194,44099,1,8,0:0:0:0:
215,199,44239,2,0,B|198:143|148:133,1,100
124,230,44519,2,0,B|141:286|191:296,1,100,0|8,0:0|0:0,0:0:0:0:
215,198,44799,5,0,0:0:0:0:
182,183,44869,1,0,0:0:0:0:
160,155,44939,1,0,0:0:0:0:
154,120,45009,1,0,0:0:0:0:
162,86,45079,1,0,0:0:0:0:
257,116,45219,1,8,0:0:0:0:
350,151,45359,2,0,B|343:206|389:241,1,100
280,209,45639,2,0,B|287:154|241:119,1,100,0|8,0:0|0:0,0:0:0:0:
139,85,45919,5,0,0:0:0:0:
106,98,45989,1,0,0:0:0:0:
86,127,46059,1,0,0:0:0:0:
81,226,46199,2,0,B|127:199|180:214,1,100,0|8,0:0|0:0,0:0:0:0:
227,126,46479,1,0,0:0:0:0:
273,214,46619,5,0,0:0:0:0:
292,242,46689,1,0,0:0:0:0:
322,258,46759,1,0,0:0:0:0:
356,260,46829,1,0,0:0:0:0:
388,247,46899,1,8,0:0:0:0:
412,221,46969,1,0,0:0:0:0:
413,186,47039,1,8,0:0:0:0:
405,151,47109,1,8,0:0:0:0:
379,127,47179,1,0,0:0:0:0:
275,114,47319,6,0,B|344:191,1,100,0|8,0:0|0:0,0:0:0:0:
275,114,47599,1,0,0:0:0:0:
183,73,47739,1,0,0:0:0:0:
162,170,47879,2,0,B|161:226|112:257,1,100,0|8,0:0|0:0,0:0:0:0:
215,247,48159,5,0,0:0:0:0:
247,233,48229,1,0,0:0:0:0:
281,230,48299,1,0,0:0:0:0:
381,230,48439,2,0,B|374:175|327:147,1,100,0|8,0:0|0:0,0:0:0:0:
232,121,48719,1,0,0:0:0:0:
145,171,48859,6,0,B|112:211|56:207,2,100,0|0|8,0:0|0:0|0:0,0:0:0:0:
67,107,49279,2,0,B|99:63|159:67,1,100
145,170,49559,2,0,B|198:178|238:132,1,100,0|8,0:0|0:0,0:0:0:0:
273,43,49839,2,0,B|332:65|329:127,2,100
234,136,50258,1,8,0:0:0:0:
314,195,50398,1,0,0:0:0:0:
340,218,50468,1,0,0:0:0:0:
353,250,50538,1,0,0:0:0:0:
377,347,50678,2,0,B|318:362|282:319,1,100,0|8,0:0|0:0,0:0:0:0:
235,236,50958,5,0,0:0:0:0:
169,160,51098,1,0,0:0:0:0:
132,253,51238,2,0,B|101:290|40:289,1,100,0|8,0:0|0:0,0:0:0:0:
48,188,51518,1,8,0:0:0:0:
86,95,51658,5,0,0:0:0:0:
110,69,51728,1,0,0:0:0:0:
141,52,51798,1,0,0:0:0:0:
175,45,51868,1,0,0:0:0:0:
208,54,51938,1,8,0:0:0:0:
237,72,52008,1,0,0:0:0:0:
263,95,52078,1,0,0:0:0:0:
276,127,52148,1,0,0:0:0:0:
281,161,52218,5,0,0:0:0:0:
293,193,52288,1,0,0:0:0:0:
316,219,52358,1,0,0:0:0:0:
347,234,52428,1,0,0:0:0:0:
381,239,52498,1,8,0:0:0:0:
368,160,52638,1,0,0:0:0:0:
427,106,52778,6,0,B|486:190|442:316,1,200,4|8,0:0|0:0,0:0:0:0:
365,355,53198,1,0,0:0:0:0:
286,293,53338,1,0,0:0:0:0:
257,272,53408,1,0,0:0:0:0:
223,263,53478,1,0,0:0:0:0:
188,264,53548,1,0,0:0:0:0:
154,273,53618,1,8,0:0:0:0:
68,192,53758,5,0,0:0:0:0:
144,96,53898,1,4,0:0:0:0:
248,156,54038,2,0,B|300:149|330:104,1,100,0|8,0:0|0:0,0:0:0:0:
455,309,54458,6,0,B|384:231|282:217,1,200,4|8,0:0|0:0,0:0:0:0:
182,211,54878,1,0,0:0:0:0:
110,140,55018,2,0,B|154:104|204:114,1,100,4|0,0:0|0:0,0:0:0:0:
182,211,55298,2,0,B|138:247|88:237,1,100,4|0,0:0|0:0,0:0:0:0:
176,21,55578,2,0,B|212:65|202:115,1,100,4|0,0:0|0:0,0:0:0:0:
115,330,55858,2,0,B|79:286|89:236,1,100,4|0,0:0|0:0,0:0:0:0:
110,139,56138,5,4,0:0:0:0:
115,104,56208,1,0,0:0:0:0:
134,74,56278,1,0,0:0:0:0:
166,61,56348,1,0,0:0:0:0:
200,64,56418,1,8,0:0:0:0:
228,84,56488,1,0,0:0:0:0:
247,113,56558,1,0,0:0:0:0:
275,132,56628,1,0,0:0:0:0:
308,141,56698,5,0,0:0:0:0:
342,140,56768,1,0,0:0:0:0:
372,122,56838,1,0,0:0:0:0:
386,90,56908,1,0,0:0:0:0:
378,55,56978,1,8,0:0:0:0:
351,32,57048,1,0,0:0:0:0:
316,26,57118,1,0,0:0:0:0:
287,46,57188,1,0,0:0:0:0:
272,77,57258,5,0,0:0:0:0:
268,111,57328,1,0,0:0:0:0:
274,145,57398,1,0,0:0:0:0:
275,179,57468,1,0,0:0:0:0:
264,212,57538,1,8,0:0:0:0:
253,245,57608,1,0,0:0:0:0:
229,271,57678,1,0,0:0:0:0:
197,285,57748,1,0,0:0:0:0:
162,286,57818,5,0,0:0:0:0:
127,278,57888,1,0,0:0:0:0:
101,253,57958,1,0,0:0:0:0:
96,218,58028,1,0,0:0:0:0:
102,183,58098,1,4,0:0:0:0:
163,57,58378,5,4,0:0:0:0:
171,90,58448,1,0,0:0:0:0:
182,123,58518,1,0,0:0:0:0:
198,153,58588,1,0,0:0:0:0:
221,178,58658,1,8,0:0:0:0:
248,199,58728,1,0,0:0:0:0:
277,218,58798,1,0,0:0:0:0:
308,232,58868,1,0,0:0:0:0:
342,233,58938,5,0,0:0:0:0:
373,217,59008,1,0,0:0:0:0:
395,190,59078,1,0,0:0:0:0:
402,155,59148,1,0,0:0:0:0:
400,120,59218,1,8,0:0:0:0:
384,88,59288,1,0,0:0:0:0:
353,70,59358,1,0,0:0:0:0:
318,68,59428,1,0,0:0:0:0:
284,78,59498,5,0,0:0:0:0:
257,100,59568,1,0,0:0:0:0:
239,130,59638,1,0,0:0:0:0:
226,162,59708,1,0,0:0:0:0:
215,195,59778,1,8,0:0:0:0:
194,223,59848,1,0,0:0:0:0:
168,246,59918,1,0,0:0:0:0:
137,262,59988,1,0,0:0:0:0:
102,262,60058,5,4,0:0:0:0:
34,31,60338,1,4,0:0:0:0:
195,209,60618,5,4,0:0:0:0:
219,234,60688,1,0,0:0:0:0:
247,254,60758,1,0,0:0:0:0:
279,267,60828,1,0,0:0:0:0:
313,272,60898,1,8,0:0:0:0:
347,264,60968,1,0,0:0:0:0:
370,237,61038,1,0,0:0:0:0:
380,203,61108,1,0,0:0:0:0:
409,183,61178,5,0,0:0:0:0:
443,180,61248,1,0,0:0:0:0:
473,197,61318,1,0,0:0:0:0:
487,228,61388,1,0,0:0:0:0:
487,263,61458,1,8,0:0:0:0:
478,296,61528,1,0,0:0:0:0:
449,316,61598,1,0,0:0:0:0:
415,325,61668,1,0,0:0:0:0:
380,328,61738,5,0,0:0:0:0:
346,338,61808,1,0,0:0:0:0:
313,351,61878,1,0,0:0:0:0:
278,354,61948,1,0,0:0:0:0:
243,352,62018,1,8,0:0:0:0:
208,343,62088,1,0,0:0:0:0:
175,330,62158,1,0,0:0:0:0:
149,306,62228,1,0,0:0:0:0:
140,272,62298,5,0,0:0:0:0:
151,238,62368,1,0,0:0:0:0:
179,217,62438,1,0,0:0:0:0:
212,206,62508,1,0,0:0:0:0:
246,202,62578,1,4,0:0:0:0:
434,53,62858,5,4,0:0:0:0:
402,67,62928,1,0,0:0:0:0:
369,79,62998,1,0,0:0:0:0:
334,85,63068,1,0,0:0:0:0:
299,87,63138,1,8,0:0:0:0:
264,87,63208,1,0,0:0:0:0:
229,83,63278,1,0,0:0:0:0:
195,73,63348,1,0,0:0:0:0:
160,73,63418,5,0,0:0:0:0:
127,84,63488,1,0,0:0:0:0:
100,106,63558,1,0,0:0:0:0:
89,139,63628,1,0,0:0:0:0:
89,174,63698,1,8,0:0:0:0:
105,204,63768,1,0,0:0:0:0:
133,224,63838,1,0,0:0:0:0:
165,236,63908,1,0,0:0:0:0:
199,239,63978,5,0,0:0:0:0:
233,234,64048,1,0,0:0:0:0:
267,226,64118,1,0,0:0:0:0:
301,219,64188,1,0,0:0:0:0:
336,219,64258,1,8,0:0:0:0:
479,26,64538,5,4,0:0:0:0:
256,192,64818,1,4,0:0:0:0:
33,358,65098,1,4,0:0:0:0:
316,299,65378,5,8,0:0:0:0:
350,293,65448,1,0,0:0:0:0:
378,272,65518,1,0,0:0:0:0:
397,242,65588,1,0,0:0:0:0:
404,207,65658,1,0,0:0:0:0:
304,204,65798,1,0,0:0:0:0:
201,173,65938,2,0,B|220:124|272:107,2,100,8|0|0,0:0|0:0|0:0,0:0:0:0:
200,52,66358,6,0,B|151:69|98:43,1,100,0|8,0:0|0:0,0:0:0:0:
116,139,66638,2,0,B|156:176|146:229,2,100,0|0|4,0:0|0:0|0:0,0:0:0:0:
48,212,67058,2,0,B|7:174|18:121,1,100,0|4,0:0|0:0,0:0:0:0:
86,48,67338,1,0,0:0:0:0:
276,253,67618,5,8,0:0:0:0:
307,267,67688,1,0,0:0:0:0:
341,268,67758,1,0,0:0:0:0:
374,256,67828,1,0,0:0:0:0:
399,232,67898,1,0,0:0:0:0:
325,164,68038,1,0,0:0:0:0:
226,183,68178,2,0,B|204:229|142:234,1,100,8|0,0:0|0:0,0:0:0:0:
138,133,68458,1,0,0:0:0:0:
199,53,68598,5,0,0:0:0:0:
233,46,68668,1,0,0:0:0:0:
267,45,68738,1,8,0:0:0:0:
298,59,68808,1,0,0:0:0:0:
326,79,68878,1,0,0:0:0:0:
343,109,68948,1,0,0:0:0:0:
353,142,69018,1,0,0:0:0:0:
253,129,69158,6,0,B|227:176|168:184,1,100,4|0,0:0|0:0,0:0:0:0:
83,138,69438,2,0,B|109:91|168:83,1,100,4|4,0:0|0:0,0:0:0:0:
253,129,69718,1,0,0:0:0:0:
328,194,69858,1,8,0:0:0:0:
302,217,69928,1,0,0:0:0:0:
269,230,69998,1,0,0:0:0:0:
234,229,70068,1,0,0:0:0:0:
200,217,70138,1,0,0:0:0:0:
253,129,70278,6,0,B|277:79|333:80,1,100,0|8,0:0|0:0,0:0:0:0:
424,124,70558,2,0,B|400:174|344:173,1,100
208,308,70838,2,0,B|256:328|304:308,2,100,0|8|0,0:0|0:0|0:0,0:0:0:0:
157,168,71258,2,0,B|211:158|226:102,1,100,0|4,0:0|0:0,0:0:0:0:
119,112,71538,2,0,B|137:60|96:19,1,100,0|4,0:0|0:0,0:0:0:0:
23,87,71818,6,0,B|15:205|115:258,1,200,0|8,0:0|0:0,0:0:0:0:
205,281,72238,1,0,0:0:0:0:
297,243,72378,5,0,0:0:0:0:
321,217,72448,1,0,0:0:0:0:
354,207,72518,1,0,0:0:0:0:
387,217,72588,1,0,0:0:0:0:
411,243,72658,1,8,0:0:0:0:
355,326,72798,6,0,B|355:207,1,100,0|4,0:0|0:0,0:0:0:0:
422,152,73078,1,0,0:0:0:0:
355,77,73218,1,8,0:0:0:0:
289,152,73358,1,0,0:0:0:0:
252,58,73498,2,0,B|209:27|150:40,1,100,4|0,0:0|0:0,0:0:0:0:
176,136,73778,2,0,B|168:112,8,25,0|0|0|0|0|0|0|0|4,0:0|0:0|0:0|0:0|0:0|0:0|0:0|0:0|0:0,0:0:0:0:
124,216,74198,5,0,0:0:0:0:
152,236,74268,1,0,0:0:0:0:
188,240,74338,1,8,0:0:0:0:
274,190,74478,2,0,B|320:169|372:187,1,100
274,189,74758,2,0,B|228:210|176:192,1,100,0|8,0:0|0:0,0:0:0:0:
226,105,75038,6,0,B|276:83|323:107,1,100
412,151,75318,1,0,0:0:0:0:
413,250,75458,1,8,0:0:0:0:
327,198,75598,1,0,0:0:0:0:
251,264,75738,1,0,0:0:0:0:
233,233,75808,1,0,0:0:0:0:
226,198,75878,1,0,0:0:0:0:
233,163,75948,1,0,0:0:0:0:
251,132,76018,1,4,0:0:0:0:
482,193,76298,1,4,0:0:0:0:
452,97,76438,6,0,B|416:57|360:64,1,100,0|8,0:0|0:0,0:0:0:0:
336,152,76718,2,0,B|372:172|372:212|336:232,1,100
361,320,76998,2,0,B|416:327|452:287,1,100,0|8,0:0|0:0,0:0:0:0:
368,232,77278,2,0,B|313:225|277:265,1,100,0|0,0:0|0:0,0:0:0:0:
180,276,77558,2,0,B|184:224|224:188,1,100,0|8,0:0|0:0,0:0:0:0:
280,108,77838,1,0,0:0:0:0:
176,52,77978,5,4,0:0:0:0:
256,280,78258,1,4,0:0:0:0:
336,52,78538,1,4,0:0:0:0:
256,140,78678,6,0,B|256:240,1,100,0|8,0:0|0:0,0:0:0:0:
220,332,78958,1,0,0:0:0:0:
256,340,79028,1,0,0:0:0:0:
292,332,79098,1,0,0:0:0:0:
345,239,79238,2,0,B|301:199|257:239,1,100,0|8,0:0|0:0,0:0:0:0:
136,168,79518,6,0,B|160:120|216:100,1,100
303,102,79798,2,0,B|352:120|376:168,1,100,0|8,0:0|0:0,0:0:0:0:
412,76,80078,1,0,0:0:0:0:
388,52,80148,1,0,0:0:0:0:
356,36,80218,1,0,0:0:0:0:
256,40,80358,2,0,B|240:88|180:104,1,100,0|4,0:0|0:0,0:0:0:0:
344,280,80778,1,4,0:0:0:0:
224,288,80918,5,0,0:0:0:0:
188,296,80988,1,0,0:0:0:0:
160,316,81058,1,8,0:0:0:0:
164,216,81198,2,0,B|216:200|232:148,1,100
274,57,81478,2,0,B|326:76|326:137,1,100,0|8,0:0|0:0,0:0:0:0:
232,148,81758,1,0,0:0:0:0:
297,209,81898,6,0,B|353:196|391:232,1,100
322,304,82178,1,8,0:0:0:0:
371,110,82458,1,4,0:0:0:0:
256,273,82738,1,4,0:0:0:0:
424,164,83018,1,4,0:0:0:0:
90,85,91978,5,0,0:0:0:0:
95,119,92048,1,0,0:0:0:0:
114,148,92118,1,0,0:0:0:0:
141,169,92188,1,0,0:0:0:0:
175,176,92258,1,8,0:0:0:0:
192,77,92398,2,0,B|236:53|296:60,1,100
261,155,92678,2,0,B|275:208|229:246,1,100,0|8,0:0|0:0,0:0:0:0:
323,283,92958,5,0,0:0:0:0:
351,263,93028,1,0,0:0:0:0:
385,256,93098,1,0,0:0:0:0:
395,156,93238,2,0,B|342:144|325:90,1,100,0|8,0:0|0:0,0:0:0:0:
225,79,93518,1,0,0:0:0:0:
199,176,93658,5,0,0:0:0:0:
177,203,93728,1,0,0:0:0:0:
142,210,93798,1,0,0:0:0:0:
108,200,93868,1,0,0:0:0:0:
87,171,93938,1,8,0:0:0:0:
92,136,94008,1,0,0:0:0:0:
113,108,94078,1,0,0:0:0:0:
146,98,94148,1,0,0:0:0:0:
180,105,94218,5,0,0:0:0:0:
214,107,94288,1,0,0:0:0:0:
248,103,94358,1,0,0:0:0:0:
281,92,94428,1,0,0:0:0:0:
309,72,94498,1,8,0:0:0:0:
341,60,94568,1,0,0:0:0:0:
375,59,94638,1,0,0:0:0:0:
407,71,94708,1,0,0:0:0:0:
433,94,94778,5,0,0:0:0:0:
449,124,94848,1,0,0:0:0:0:
450,158,94918,1,0,0:0:0:0:
439,191,94988,1,0,0:0:0:0:
417,218,95058,1,8,0:0:0:0:
383,227,95128,1,0,0:0:0:0:
348,223,95198,1,0,0:0:0:0:
316,206,95268,1,0,0:0:0:0:
283,191,95338,5,0,0:0:0:0:
248,190,95408,1,0,0:0:0:0:
215,203,95478,1,0,0:0:0:0:
188,225,95548,1,0,0:0:0:0:
169,254,95618,1,8,0:0:0:0:
169,288,95688,1,0,0:0:0:0:
188,317,95758,1,0,0:0:0:0:
220,330,95828,1,0,0:0:0:0:
254,323,95898,5,0,0:0:0:0:
275,295,95968,1,0,0:0:0:0:
280,265,96038,1,0,0:0:0:0:
261,241,96108,1,0,0:0:0:0:
231,233,96178,1,8,0:0:0:0:
201,227,96248,1,0,0:0:0:0:
176,209,96318,1,0,0:0:0:0:
160,183,96388,1,0,0:0:0:0:
151,154,96458,5,0,0:0:0:0:
157,124,96528,1,0,0:0:0:0:
180,105,96598,1,0,0:0:0:0:
209,99,96668,1,0,0:0:0:0:
238,103,96738,1,8,0:0:0:0:
260,122,96808,1,0,0:0:0:0:
279,145,96878,1,0,0:0:0:0:
354,210,97018,6,0,B|374:221|405:217,2,50
385,115,97298,2,0,B|369:66|315:41,1,100,8|0,0:0|0:0,0:0:0:0:
386,117,97578,2,0,B|402:166|456:191,1,100,0|0,0:0|0:0,0:0:0:0:
408,279,97858,2,0,B|351:289|332:340,1,100,8|0,0:0|0:0,0:0:0:0:
269,259,98138,1,0,0:0:0:0:
280,226,98208,1,0,0:0:0:0:
305,202,98278,1,0,0:0:0:0:
332,180,98348,1,0,0:0:0:0:
348,148,98418,1,8,0:0:0:0:
267,123,98558,6,0,B|230:161|174:152,1,100
202,55,98838,2,0,B|239:17|295:26,1,100,0|8,0:0|0:0,0:0:0:0:
382,68,99118,2,0,B|408:118|372:160,1,100
282,108,99398,2,0,B|259:63|199:55,1,100,0|8,0:0|0:0,0:0:0:0:
191,162,99678,5,0,0:0:0:0:
175,193,99748,1,0,0:0:0:0:
146,213,99818,1,0,0:0:0:0:
50,241,99958,2,0,B|77:283|62:339,1,100,0|8,0:0|0:0,0:0:0:0:
162,324,100237,2,0,B|214:326|253:286,1,100,0|0,0:0|0:0,0:0:0:0:
347,325,100517,2,0,B|367:277|343:226,1,100,0|8,0:0|0:0,0:0:0:0:
312,136,100797,1,0,0:0:0:0:
248,208,100937,1,4,0:0:0:0:
