osu file format v9

[General]
AudioFilename: Dimrain47 - Midnight Siege.mp3
AudioLeadIn: 0
PreviewTime: 80200
Countdown: 1
SampleSet: Soft
StackLeniency: 0.7
Mode: 0
LetterboxInBreaks: 1

[Editor]
DistanceSpacing: 1
BeatDivisor: 4
GridSize: 4

[Metadata]
Title:Midnight Siege
Artist:Dimrain47
Creator:Kyshiro
Version:Superior
Source:Newgrounds
Tags:Techno Stream Dimrain

[Difficulty]
HPDrainRate:3
CircleSize:3
OverallDifficulty:4
ApproachRate:4
SliderMultiplier:1.3
SliderTickRate:1

[Events]
//Background and Video events
0,0,"The_Tides_of_Elegance.jpg"
//Break Periods
2,118800,130080
//Storyboard Layer 0 (Background)
//Storyboard Layer 1 (Fail)
//Storyboard Layer 2 (Pass)
//Storyboard Layer 3 (Foreground)
//Storyboard Sound Samples
//Background Colour Transformations
3,100,163,162,255

[TimingPoints]
13000,400,4,2,1,30,1,0
13000,-100,4,2,1,20,0,0
19400,-100,4,2,2,55,0,0
105800,-100,4,2,2,55,0,1
118600,-100,4,2,2,55,0,0

[Colours]
Combo1 : 0,128,170
Combo2 : 74,74,255
Combo3 : 16,54,124

[HitObjects]
52,64,13000,5,0
52,324,13800,1,0
256,192,14600,1,0
360,212,15000,1,0
288,288,15400,1,0
464,44,16200,5,0
204,44,17000,1,0
328,272,17800,1,0
252,204,18200,1,0
352,172,18600,1,0
180,128,19400,6,0,B|176:200|104:224,1,130,4|8
236,228,20200,2,0,B|240:156|312:132,2,130,0|8|0
276,352,21400,1,8
356,228,21800,2,0,B|428:204|432:132,1,130,0|4
304,124,22600,5,4
256,244,23000,1,8
208,124,23400,1,0
156,228,23800,2,0,B|84:204|80:132,1,130,8|0
224,80,24600,1,8
316,172,25000,2,4,B|340:240|412:260,2,130,4|4|4
256,308,26200,5,8
152,228,26600,1,0
128,96,27000,1,8
256,68,27400,2,0,B|256:196,1,130,0|8
256,328,28200,1,0
144,260,28600,1,4
256,198,29000,5,4
368,260,29400,1,8
256,328,29800,1,0
116,292,30200,1,8
120,164,30600,2,0,B|152:104|224:92,1,130,0|8
228,228,31400,2,0,B|204:296|256:352,2,130,0|4|4
352,264,32600,5,8
460,196,33000,1,0
340,144,33400,1,8
276,32,33800,2,0,B|340:-8|404:32,1,130.000000596046,0|8
340,144,34600,2,0,B|336:180|312:200,4,65,0|4|8|4|0
208,152,35800,5,8
84,108,36200,1,0
68,240,36600,1,8
180,308,37000,2,0,B|180:344|144:360,2,65.000000298023,0|0|8
152,180,37800,1,0
248,268,38200,2,0,B|284:276|312:248,2,65
368,132,39000,2,0,B|368:88|336:40|296:32,1,130,8|0
248,140,39800,1,8
172,244,40200,1,0
44,260,40600,2,0,B|40:188|96:144,1,130.000000596046,8|0
156,32,41400,1,8
156,32,41800,5,0
244,128,42200,2,0,B|280:192|344:208,1,130,8|0
292,88,43000,2,0,B|248:128|168:152,1,130,8|4
256,256,43800,1,8
384,252,44200,1,4
256,256,44600,2,0,B|200:232|192:280|128:256,1,130,8|4
256,40,48200,5,0
256,168,48600,1,2
196,284,49000,1,0
128,176,49400,1,2
192,64,49800,1,0
320,64,50200,1,2
384,176,50600,1,0
256,168,51000,2,0,B|276:228|240:236|256:296,1,130,2|0
336,208,51800,6,0,B|356:136|408:104,1,130,2|0
312,16,52600,2,0,B|276:56|236:56|200:16,1,130,2|0
103,103,53400,2,0,B|156:136|176:208,1,130,2|0
208,332,54200,1,2
328,284,54600,5,0
376,164,55000,1,2
256,188,55400,1,0
144,120,55800,1,2
256,58,56200,2,0,B|256:188,1,130,0|2
376,164,57000,2,0,B|388:244|316:280,1,130,0|2
376,164,57800,6,0,B|337:92|392:34,1,130,0|2
256,56,58600,2,0,B|228:120|156:128,1,130,0|2
256,192,59400,1,0
388,192,59800,1,2
316,76,60200,1,0
256,192,60600,1,2
196,76,61000,5,0
124,192,61400,2,0,B|136:272|212:268,1,130.000000596046,8|0
340,256,62200,2,0,B|368:276|372:316,2,65.000000298023,8|0|0
232,328,63000,1,8
212,196,63400,2,0,B|272:156|340:164,1,130,0|8
400,48,64200,5,0
476,152,64600,1,8
448,280,65000,1,0
356,176,65400,2,0,B|288:168|292:216|224:208,1,130,8|0
176,328,66200,1,8
100,220,66600,1,0
128,92,67000,1,8
212,192,67400,2,0,B|252:168|268:124|260:80,1,130,0|8
460,192,68600,5,8
336,192,69000,2,0,B|323:250|348:260|336:320,2,130,0|8|0
460,192,70200,1,8
400,76,70600,1,0
272,76,71000,1,8
212,192,71400,1,0
336,192,71800,2,0,B|323:250|348:260|336:320,1,130,8|0
208,344,72600,5,8
136,96,73400,1,8
172,220,73800,6,0,B|232:256|304:228,1,130,4|0
244,104,74600,1,0
372,120,75000,1,0
388,248,75400,1,4
268,296,75800,1,0
188,196,76200,2,0,B|244:176|264:200|324:192,1,130,0|0
308,64,77000,5,4
180,40,77400,2,0,B|308:64,1,130,0|4
393,158,78200,2,0,B|331:274,1,130,0|4
180,272,79000,1,4
256,164,79400,1,4
332,272,79800,1,4
256,164,80200,6,0,B|280:108|240:88|256:36,2,130,4|8|0
256,292,81400,1,8
380,252,81800,1,0
380,120,82200,1,8
256,80,82600,1,0
132,120,83000,2,0,B|128:160|92:168,2,65.000000298023,4|0|4
96,248,83800,5,8
24,140,84200,1,0
108,40,84600,1,8
236,72,85000,1,0
240,208,85400,1,8
340,292,85800,1,4
460,240,86200,1,4
452,112,86600,5,4
336,172,87000,2,0,B|264:176|216:132,1,130,8|0
96,80,87800,1,8
140,204,88200,1,0
184,324,88600,1,8
260,220,89000,1,0
212,100,89400,2,4,B|268:56|332:60,1,130
344,188,90200,5,8
436,280,90600,1,0
472,156,91000,1,8
344,188,91400,1,0
260,88,91800,1,8
180,192,92200,1,4
116,80,92600,2,4,B|92:140|20:172,1,130,4|4
96,284,93400,5,8
216,336,93800,1,0
212,208,94200,1,8
212,80,94600,1,0
328,140,95000,1,8
212,208,95400,1,0
336,256,95800,1,8
444,192,96200,5,0
444,320,96600,2,0,B|372:312|336:256,1,130,8|0
284,136,97400,1,8
156,176,97800,1,0
52,260,98200,2,0,B|76:332|144:352,1,130,8|0
176,228,99000,1,8
184,100,99400,5,0
60,136,99800,2,0,B|24:196|56:264,1,130,8|0
168,196,100600,1,8
296,196,101000,1,0
410,261,101400,2,0,B|440:196|404:136,1,130,8|0
336,40,102200,6,0,B|276:76|212:44,1,130,8|0
336,40,103000,2,0,B|396:4|460:36,1,130,8|0
380,136,103800,1,8
284,220,104200,1,4
408,256,104600,1,0
504,168,105000,1,4
460,44,105400,1,4
332,28,105800,5,4
272,144,106200,2,0,B|200:128|168:64,1,130,8|0
223,209,107000,2,0,B|207:239|175:251,2,65.000000298023,8|0|0
352,192,107800,2,0,B|340:120|396:72,1,130,8|0
480,172,108600,1,4
392,75,109000,5,4
272,136,109400,6,0,B|260:208|184:220,1,130,8|0
156,96,110200,2,0,B|132:80|132:40,2,65.000000298023,8|0|0
96,216,111000,1,8
192,304,111400,1,4
256,192,111800,1,4
320,304,112200,5,4
392,196,112600,2,0,B|424:212|440:244,2,65.000000298023,8|0|0
256,192,113400,2,8,B|220:248|152:264,1,130,8|0
256,192,114200,2,8,B|292:136|360:120,1,130,8|0
376,248,115000,1,4
256,316,115400,5,4
260,196,115800,1,8
260,196,116200,1,0
384,176,116600,2,0,B|372:108|308:72,1,130.000000596046,8|0
260,196,117400,1,8
260,196,117800,1,4
140,236,118200,1,4
160,108,118600,1,4
104,124,131400,6,0,B|116:200|68:256,1,130,0|8
192,192,132200,2,0,B|264:200|316:160,1,130.000000596046,0|8
436,208,133000,2,0,B|395:160|407:84,1,130,0|8
292,36,133800,2,0,B|256:32|232:56,2,65.000000298023,0|0|8
284,116,134400,1,0
212,148,134600,6,0,B|208:212|136:248,1,130.000000596046,0|8
276,316,135400,2,0,B|276:284|248:260,2,65.000000298023,0|0|8
200,320,136000,1,0
152,256,136200,2,0,B|108:196|140:128,1,130.000000596046,0|8
236,48,137000,1,0
336,132,137400,1,8
220,192,137800,6,0,B|236:268|300:284,1,130.000000596046,0|8
172,300,138600,1,0
300,284,139000,1,8
220,192,139400,1,0
284,80,139800,1,8
372,168,140200,2,4,B|440:184|464:300|364:332|300:284,1,260.000001192092,4|4
160,124,141800,5,0
256,364,142600,1,4
352,124,143400,1,4
256,212,143800,1,4
160,124,144200,1,4
