osu file format v9

[General]
AudioFilename: Dimrain47 - Midnight Siege.mp3
AudioLeadIn: 0
PreviewTime: 80200
Countdown: 1
SampleSet: Normal
StackLeniency: 0.7
Mode: 0
LetterboxInBreaks: 1

[Editor]
DistanceSpacing: 1
BeatDivisor: 1
GridSize: 4

[Metadata]
Title:Midnight Siege
Artist:Dimrain47
Creator:Kyshiro
Version:Fine
Source:Newgrounds
Tags:Techno Stream Dimrain

[Difficulty]
HPDrainRate:2
CircleSize:3
OverallDifficulty:2
ApproachRate:3
SliderMultiplier:0.9
SliderTickRate:1

[Events]
//Background and Video events
0,0,"The_Tides_of_Elegance.jpg"
//Break Periods
2,118800,129960
//Storyboard Layer 0 (Background)
//Storyboard Layer 1 (Fail)
//Storyboard Layer 2 (Pass)
//Storyboard Layer 3 (Foreground)
//Storyboard Sound Samples
//Background Colour Transformations
3,100,163,162,255

[TimingPoints]
13000,400,4,2,1,30,1,0
19400,-100,4,1,2,55,0,0
105800,-100,4,1,2,55,0,1
118600,-100,4,1,2,55,0,0

[Colours]
Combo1 : 0,128,170
Combo2 : 101,92,205
Combo3 : 27,89,205

[HitObjects]
256,192,13000,2,0,B|256:100,2,90
256,284,14200,1,0
128,156,15000,6,0,B|128:104|80:84,1,90
44,164,15800,1,0
92,240,16200,1,0
256,192,17000,6,0,B|312:260,2,90
212,272,18200,1,0
164,192,18600,1,0
212,112,19000,1,0
124,112,19400,5,4
124,24,19800,1,8
300,76,20600,1,8
368,136,21000,2,0,B|400:168|400:168|400:220,1,90.000000596046,0|8
256,320,22200,1,4
256,232,22600,1,4
56,52,23800,5,8
120,112,24200,2,0,B|156:144|156:144|196:144,1,90.000000596046,0|8
264,204,25000,1,4
352,204,25400,1,4
440,204,25800,1,4
196,324,27000,5,8
260,264,27400,1,0
172,240,27800,1,8
256,80,28600,1,4
256,168,29000,1,4
468,336,30200,5,8
468,248,30600,1,0
392,200,31000,1,8
392,292,31400,1,0
316,336,31800,1,4
316,248,32200,1,4
52,192,33400,6,0,B|96:192|96:192|124:156,1,90.000000596046,8|0
216,156,34200,1,8
332,296,35000,2,0,B|332:252|332:252|368:224,1,90.000000596046,8|0
176,64,36600,5,8
256,108,37000,1,0
176,148,37400,1,8
256,192,37800,1,0
336,148,38200,1,8
336,64,38600,1,0
256,344,39800,6,0,B|256:252,1,90.000000596046,8|0
256,164,40600,2,0,B|212:164|212:164|184:200,1,90.000000596046,8|0
92,200,41400,1,8
92,112,41800,1,0
348,192,43000,5,8
400,120,43400,1,4
224,120,44200,1,4
224,304,45000,1,4
256,40,48200,5,0
256,128,48600,1,0
196,196,49000,1,0
108,196,49400,2,0,B|108:240|108:240|141:271,1,90.000000596046
304,292,50600,5,0
392,276,51000,1,0
408,188,51400,2,0,B|408:120|408:120|360:76,1,135.000000894069
268,72,52400,1,0
120,40,53000,2,0,B|120:108|120:108|172:148,1,135.000000894069
172,240,54000,1,0
256,344,54600,6,0,B|256:208,1,135.000000894069
148,128,55800,2,0,B|196:76|196:76|264:76,1,135.000000894069
364,164,57000,2,0,B|320:216|320:216|248:216,1,135.000000894069
120,216,58200,2,0,B|120:148|120:148|168:100,1,135.000000894069
292,88,59400,2,0,B|308:152|308:152|376:152,1,135.000000894069
256,212,60600,2,0,B|256:308,1,90.000000596046
164,304,61400,5,8
84,144,62200,1,8
116,60,62600,2,0,B|168:80|172:128,1,90.000000596046,0|8
348,96,63800,1,8
336,184,64200,2,0,B|384:196|416:156,1,90.000000596046,0|8
256,236,65400,5,8
256,324,65800,2,0,B|212:324|212:324|176:284,1,90.000000596046,0|8
172,200,66600,2,0,B|188:156|188:156|232:140,1,90.000000596046,0|8
316,160,67400,1,0
404,160,67800,1,8
60,76,68600,5,8
116,144,69000,2,0,B|148:180|148:180|148:224,1,90.000000596046,0|8
324,192,70200,1,8
404,148,70600,2,0,B|428:192|404:236,1,90.000000596046,0|8
228,192,71800,1,8
148,148,72200,2,0,B|124:192|148:236,1,90.000000596046,0|8
256,92,73400,6,0,B|256:184,1,90.000000596046,8|4
256,272,74200,1,8
384,148,75000,1,8
408,60,75400,1,4
320,84,75800,1,8
204,220,76600,5,8
128,172,77000,1,4
124,260,77400,1,8
48,216,77800,1,4
52,128,78200,1,8
128,80,78600,5,4
208,124,79000,1,4
284,172,79400,1,4
284,260,79800,1,4
376,260,80200,6,0,B|420:260|420:260|448:220,1,90.000000596046,4|8
408,48,81400,1,8
336,104,81800,2,0,B|336:148|336:148|304:180,1,90.000000596046,0|8
124,192,83000,1,4
216,192,83400,1,4
452,324,84600,5,8
364,324,85000,2,0,B|320:324|320:324|292:280,1,90.000000596046,0|8
244,212,85800,1,4
192,136,86200,1,4
144,60,86600,1,4
48,312,87800,5,8
48,224,88200,2,0,B|84:196|84:196|84:152,1,90.000000596046,0|8
256,188,89400,2,4,B|228:148|256:104,1,90.000000596046
432,308,91000,5,8
384,232,91400,2,0,B|432:216|476:232,1,90.000000596046,0|8
432,148,92200,1,4
344,148,92600,1,4
256,148,93000,1,4
56,332,94200,5,8
144,332,94600,2,0,B|144:240,1,90.000000596046,0|8
144,60,95800,1,8
232,60,96200,1,0
380,288,97400,6,0,B|344:252|344:252|296:252,1,90.000000596046,8|0
304,164,98200,1,8
124,164,99000,2,0,B|216:164,1,90.000000596046,8|0
460,52,100600,5,8
392,112,101000,1,0
324,172,101400,1,8
192,52,102200,1,8
104,52,102600,1,0
224,292,103800,6,0,B|256:324|256:324|304:324,1,90.000000596046,8|4
300,236,104600,1,8
216,208,105000,1,4
280,148,105400,1,8
192,124,105800,1,4
36,344,107000,6,0,B|36:248,1,90.000000596046,8|0
36,164,107800,1,8
216,164,108600,2,4,B|216:256,1,90.000000596046
400,56,110200,5,8
472,112,110600,1,0
388,144,111000,1,8
316,92,111400,1,4
244,144,111800,1,4
176,200,112200,1,4
256,344,113400,5,8
256,256,113800,2,0,B|304:256|304:256|336:228,1,90.000000596046,0|8
200,112,115000,1,4
112,112,115400,1,4
364,204,116600,5,8
376,116,117000,2,0,B|320:112|296:148,1,90.000000596046,0|8
276,236,117800,1,4
348,292,118200,1,4
436,268,118600,1,4
256,44,131400,5,0
256,132,131800,1,8
256,312,132600,1,8
184,256,133000,2,0,B|208:220|208:220|260:220,1,90.000000596046,0|8
388,100,134200,1,8
388,192,134600,1,0
132,112,135800,5,8
220,116,136200,1,0
172,192,136600,1,8
344,248,137400,1,8
268,204,137800,1,0
48,48,139000,5,8
48,136,139400,1,0
120,188,139800,2,0,B|192:240,1,90.000000596046,8|0
244,168,140600,2,0,B|172:116,1,90.000000596046,8|0
456,148,142200,5,8
456,236,142600,1,0
380,192,143000,1,8
256,60,143800,1,8
256,148,144200,1,4
