osu file format v9

[General]
AudioFilename: Dimrain47 - Midnight Siege.mp3
AudioLeadIn: 0
PreviewTime: 80200
Countdown: 1
SampleSet: Soft
StackLeniency: 0.7
Mode: 0
LetterboxInBreaks: 1

[Editor]
DistanceSpacing: 1
BeatDivisor: 4
GridSize: 8

[Metadata]
Title:Midnight Siege
Artist:Dimrain47
Creator:Kyshiro
Version:Epic
Source:Newgrounds
Tags:Techno Stream Dimrain

[Difficulty]
HPDrainRate:7
CircleSize:4
OverallDifficulty:7
ApproachRate:8
SliderMultiplier:2
SliderTickRate:1

[Events]
//Background and Video events
0,0,"The_Tides_of_Elegance.jpg"
//Break Periods
2,45200,47450
2,118800,130650
//Storyboard Layer 0 (Background)
//Storyboard Layer 1 (Fail)
//Storyboard Layer 2 (Pass)
//Storyboard Layer 3 (Foreground)
//Storyboard Sound Samples
//Background Colour Transformations
3,100,163,162,255

[TimingPoints]
13000,400,4,2,1,30,1,0
19400,-100,4,2,2,20,0,0
19500,-100,4,2,2,55,0,0
105800,-100,4,2,2,55,0,1
118600,-100,4,2,2,55,0,0

[Colours]
Combo1 : 0,128,170
Combo2 : 101,92,205
Combo3 : 27,89,205

[HitObjects]
122,114,13000,6,0,B|88:184|128:264|204:260,2,200
205,169,14000,1,0
287,224,14200,1,0
369,279,14400,1,0
387,79,14800,5,0
328,160,15000,1,0
125,79,15400,5,0
184,160,15600,1,0
256,91,15800,1,0
256,125,15900,1,0
256,159,16000,1,0
256,193,16100,1,0
256,227,16200,1,0
168,72,16600,6,0,B|256:24|256:24|344:72,2,200
256,120,17600,1,0
416,224,18000,5,0
360,136,18200,1,0
152,136,18600,5,0
96,224,18800,1,0
84,64,19400,5,4
88,98,19500,1,0
99,130,19600,1,0
120,157,19700,1,0
147,178,19800,1,8
179,191,19900,1,0
213,197,20000,1,0
247,191,20100,1,0
279,178,20200,5,0
306,157,20300,1,0
327,130,20400,1,0
338,98,20500,1,0
342,64,20600,1,8
354,96,20700,1,0
364,129,20800,1,0
382,158,20900,1,0
398,189,21000,5,0
419,216,21100,1,0
440,243,21200,1,0
462,269,21300,1,0
490,288,21400,1,8
456,278,21500,1,0
422,268,21600,1,0
387,266,21700,1,0
352,268,21800,5,0
318,279,21900,1,0
289,299,22000,1,0
265,324,22100,1,0
245,353,22200,2,4,B|168:352|168:240|84:239,1,200
92,204,22700,5,0
105,171,22800,1,0
130,146,22900,1,0
158,125,23000,1,8
190,111,23100,1,0
224,102,23200,1,0
258,100,23300,1,0
292,104,23400,5,0
278,136,23500,1,0
270,170,23600,1,0
270,205,23700,1,0
280,238,23800,1,8
303,263,23900,1,0
331,283,24000,1,0
364,292,24100,1,0
398,290,24200,5,0
386,257,24300,1,0
364,229,24400,1,0
358,194,24500,1,0
361,159,24600,1,8
373,126,24700,1,0
393,97,24800,1,0
420,75,24900,1,0
450,58,25000,5,4
170,57,25400,1,4
312,298,25800,5,4
283,277,25900,1,0
249,266,26000,1,0
214,263,26100,1,0
179,267,26200,1,8
144,262,26300,1,0
111,248,26400,1,0
83,225,26500,1,0
68,192,26600,5,0
68,157,26700,1,0
87,128,26800,1,0
118,112,26900,1,0
152,115,27000,1,8
178,138,27100,1,0
206,158,27200,1,0
240,164,27300,1,0
274,159,27400,5,0
301,136,27500,1,0
315,104,27600,1,0
322,69,27700,1,0
345,43,27800,1,8
377,30,27900,1,0
411,29,28000,1,0
443,41,28100,1,0
469,63,28200,5,0
478,96,28300,1,0
471,130,28400,1,0
447,155,28500,1,0
414,166,28600,1,4
134,157,29000,5,4
157,183,29100,1,0
173,213,29200,1,0
184,245,29300,1,0
190,279,29400,1,8
205,310,29500,1,0
231,332,29600,1,0
265,339,29700,1,0
299,335,29800,5,0
329,317,29900,1,0
351,290,30000,1,0
354,255,30100,1,0
340,222,30200,1,8
316,196,30300,1,0
283,183,30400,1,0
248,180,30500,1,0
213,172,30600,5,0
184,151,30700,1,0
163,122,30800,1,0
156,87,30900,1,0
168,54,31000,1,8
197,35,31100,1,0
232,35,31200,1,0
258,57,31300,1,0
281,82,31400,5,0
310,100,31500,1,0
343,108,31600,1,0
377,101,31700,1,0
410,90,31800,1,4
196,271,32200,5,4
169,293,32300,1,0
134,300,32400,1,0
99,295,32500,1,0
69,276,32600,1,8
54,244,32700,1,0
52,209,32800,1,0
65,176,32900,1,0
92,153,33000,6,0,B|184:84|279:154,1,200,2|2
325,238,33600,1,0
338,138,33800,5,0
372,143,33900,1,0
402,159,34000,1,0
426,184,34100,1,0
441,215,34200,1,8
450,248,34300,1,0
446,282,34400,1,0
432,314,34500,1,0
404,335,34600,6,0,B|353:356|306:319,1,100,0|4
274,228,35000,2,0,B|329:209|373:245,1,100,0|4
310,321,35400,2,0,B|234:338|167:291|182:203,1,200,2|8
192,181,35900,1,0
202,147,36000,1,0
199,112,36100,1,0
191,77,36200,2,0,B|149:37|86:41|46:104|83:160,1,200,2|2
158,214,36800,1,0
256,195,37000,5,0
253,160,37100,1,0
263,126,37200,1,0
286,100,37300,1,0
319,88,37400,1,8
353,88,37500,1,0
384,103,37600,1,0
406,129,37700,1,0
422,159,37800,6,0,B|441:212|413:258,1,100,0|4
323,298,38200,2,0,B|304:245|332:199,1,100,0|4
323,298,38600,6,0,B|238:242|128:263,1,200,2|8
100,279,39100,1,0
86,311,39200,1,0
94,344,39300,1,0
126,358,39400,5,0
159,347,39500,1,0
173,315,39600,1,0
191,285,39700,1,0
216,261,39800,1,8
276,181,40000,1,0
176,170,40200,5,0
142,160,40300,1,0
113,139,40400,1,0
94,109,40500,1,0
88,74,40600,1,8
187,69,40800,1,0
282,97,41000,6,0,B|326:61|380:76,1,100,0|4
344,170,41400,2,0,B|300:206|246:191,1,100,0|4
282,97,41800,2,0,B|330:52|422:67|458:129,1,200,2|8
392,204,42400,1,0
431,295,42600,2,0,B|374:319|326:281,1,100
240,280,43000,2,0,B|297:256|345:294,1,100,8|0
392,204,43400,6,0,B|283:187|232:97,1,200,4|8
104,32,44000,1,0
16,128,44200,1,4
104,224,44400,1,0
192,128,44600,1,8
224,112,44700,1,0
256,128,44800,1,0
288,144,44900,1,0
320,128,45000,1,4
457,47,48200,6,0,B|461:76|436:90,2,50,2|0|0
195,148,48800,2,0,B|191:119|216:105,2,50,2|0|0
456,248,49400,2,0,B|460:277|435:291,2,50,2|0|0
449,213,49700,2,0,B|445:184|470:170,2,50,0|2|0
425,238,50000,2,0,B|404:286|341:282,2,100,0|2|0
344,178,50600,6,0,B|365:130|428:134,2,100,2|0|2
278,102,51200,2,0,B|260:156|200:163,1,100,0|2
272,235,51600,2,0,B|328:238|347:293,1,100,0|2
253,329,52000,2,0,B|196:320|183:260,1,100,0|2
272,236,52400,1,0
336,312,52600,1,2
272,236,52800,6,0,B|330:237|363:198,1,100,0|2
276,146,53200,2,0,B|218:145|185:184,1,100,0|2
160,80,53600,2,0,B|256:24|352:80,1,200,0|0
256,128,54200,2,0,B|268:176|244:176|256:228,1,100,2|0
232,324,54600,6,0,B|257:334|282:324,2,50,2|0|0
280,128,55200,2,0,B|255:118|230:128,2,50,2|0|0
88,192,55800,2,0,B|78:168|88:143,2,50,2|0|0
140,192,56100,2,0,B|150:217|140:242,2,50,0|2|0
192,192,56400,2,0,B|182:167|192:142,2,50,0|0|2
288,160,56800,6,0,B|332:128|336:76,1,100,0|2
244,148,57200,2,0,B|238:94|195:64,1,100,0|2
212,180,57600,2,0,B|162:158|115:180,1,100,0|2
224,224,58000,2,0,B|180:256|176:308,2,100,0|2|0
384,296,58800,6,0,B|460:280|460:168|384:152,1,200,0|0
268,224,59400,2,0,B|320:236|376:224,1,100,2|0
320,136,59800,1,2
268,224,60000,2,0,B|164:200|52:224,1,200,0|0
128,140,60600,2,0,B|180:136|216:88,1,100,2|0
308,56,61000,5,0
344,60,61100,1,0
372,84,61200,1,0
300,152,61400,1,8
214,199,61600,2,0,B|158:191|106:223,1,100
214,199,62000,2,0,B|270:207|322:175,1,100,0|8
388,124,62400,5,0
404,156,62500,1,0
408,192,62600,1,0
404,228,62700,1,0
388,260,62800,1,0
315,194,63000,1,8
215,199,63200,2,0,B|198:143|148:133,1,100
124,230,63600,2,0,B|141:286|191:296,1,100,0|8
215,198,64000,5,0
182,183,64100,1,0
160,155,64200,1,0
154,120,64300,1,0
162,86,64400,1,0
257,116,64600,1,8
350,151,64800,2,0,B|343:206|389:241,1,100
280,209,65200,2,0,B|287:154|241:119,1,100,0|8
139,85,65600,5,0
106,98,65700,1,0
86,127,65800,1,0
81,226,66000,2,0,B|127:199|180:214,1,100,0|8
227,126,66400,1,0
273,214,66600,5,0
292,242,66700,1,0
322,258,66800,1,0
356,260,66900,1,0
388,247,67000,1,8
412,221,67100,1,0
413,186,67200,1,8
405,151,67300,1,8
379,127,67400,1,0
275,114,67600,6,0,B|344:191,1,100,0|8
275,114,68000,1,0
183,73,68200,1,0
162,170,68400,2,0,B|161:226|112:257,1,100,0|8
215,247,68800,5,0
247,233,68900,1,0
281,230,69000,1,0
381,230,69200,2,0,B|374:175|327:147,1,100,0|8
232,121,69600,1,0
145,171,69800,6,0,B|112:211|56:207,2,100,0|0|8
67,107,70400,2,0,B|99:63|159:67,1,100
145,170,70800,2,0,B|198:178|238:132,1,100,0|8
273,43,71200,2,0,B|332:65|329:127,2,100
234,136,71800,1,8
314,195,72000,1,0
340,218,72100,1,0
353,250,72200,1,0
377,347,72400,2,0,B|318:362|282:319,1,100,0|8
235,236,72800,5,0
169,160,73000,1,0
132,253,73200,2,0,B|101:290|40:289,1,100,0|8
48,188,73600,1,8
86,95,73800,5,0
110,69,73900,1,0
141,52,74000,1,0
175,45,74100,1,0
208,54,74200,1,8
237,72,74300,1,0
263,95,74400,1,0
276,127,74500,1,0
281,161,74600,5,0
293,193,74700,1,0
316,219,74800,1,0
347,234,74900,1,0
381,239,75000,1,8
368,160,75200,1,0
427,106,75400,6,0,B|486:190|442:316,1,200,4|8
365,355,76000,1,0
286,293,76200,1,0
257,272,76300,1,0
223,263,76400,1,0
188,264,76500,1,0
154,273,76600,1,8
68,192,76800,5,0
144,96,77000,1,4
248,156,77200,2,0,B|300:149|330:104,1,100,0|8
455,309,77800,6,0,B|384:231|282:217,1,200,4|8
182,211,78400,1,0
110,140,78600,2,0,B|154:104|204:114,1,100,4|0
182,211,79000,2,0,B|138:247|88:237,1,100,4|0
176,21,79400,2,0,B|212:65|202:115,1,100,4|0
115,330,79800,2,0,B|79:286|89:236,1,100,4|0
110,139,80200,5,4
115,104,80300,1,0
134,74,80400,1,0
166,61,80500,1,0
200,64,80600,1,8
228,84,80700,1,0
247,113,80800,1,0
275,132,80900,1,0
308,141,81000,5,0
342,140,81100,1,0
372,122,81200,1,0
386,90,81300,1,0
378,55,81400,1,8
351,32,81500,1,0
316,26,81600,1,0
287,46,81700,1,0
272,77,81800,5,0
268,111,81900,1,0
274,145,82000,1,0
275,179,82100,1,0
264,212,82200,1,8
253,245,82300,1,0
229,271,82400,1,0
197,285,82500,1,0
162,286,82600,5,0
127,278,82700,1,0
101,253,82800,1,0
96,218,82900,1,0
102,183,83000,1,4
163,57,83400,5,4
171,90,83500,1,0
182,123,83600,1,0
198,153,83700,1,0
221,178,83800,1,8
248,199,83900,1,0
277,218,84000,1,0
308,232,84100,1,0
342,233,84200,5,0
373,217,84300,1,0
395,190,84400,1,0
402,155,84500,1,0
400,120,84600,1,8
384,88,84700,1,0
353,70,84800,1,0
318,68,84900,1,0
284,78,85000,5,0
257,100,85100,1,0
239,130,85200,1,0
226,162,85300,1,0
215,195,85400,1,8
194,223,85500,1,0
168,246,85600,1,0
137,262,85700,1,0
102,262,85800,5,4
34,31,86200,1,4
195,209,86600,5,4
219,234,86700,1,0
247,254,86800,1,0
279,267,86900,1,0
313,272,87000,1,8
347,264,87100,1,0
370,237,87200,1,0
380,203,87300,1,0
409,183,87400,5,0
443,180,87500,1,0
473,197,87600,1,0
487,228,87700,1,0
487,263,87800,1,8
478,296,87900,1,0
449,316,88000,1,0
415,325,88100,1,0
380,328,88200,5,0
346,338,88300,1,0
313,351,88400,1,0
278,354,88500,1,0
243,352,88600,1,8
208,343,88700,1,0
175,330,88800,1,0
149,306,88900,1,0
140,272,89000,5,0
151,238,89100,1,0
179,217,89200,1,0
212,206,89300,1,0
246,202,89400,1,4
434,53,89800,5,4
402,67,89900,1,0
369,79,90000,1,0
334,85,90100,1,0
299,87,90200,1,8
264,87,90300,1,0
229,83,90400,1,0
195,73,90500,1,0
160,73,90600,5,0
127,84,90700,1,0
100,106,90800,1,0
89,139,90900,1,0
89,174,91000,1,8
105,204,91100,1,0
133,224,91200,1,0
165,236,91300,1,0
199,239,91400,5,0
233,234,91500,1,0
267,226,91600,1,0
301,219,91700,1,0
336,219,91800,1,8
479,26,92200,5,4
256,192,92600,1,4
33,358,93000,1,4
316,299,93400,5,8
350,293,93500,1,0
378,272,93600,1,0
397,242,93700,1,0
404,207,93800,1,0
304,204,94000,1,0
201,173,94200,2,0,B|220:124|272:107,2,100,8|0|0
200,52,94800,6,0,B|151:69|98:43,1,100,0|8
116,139,95200,2,0,B|156:176|146:229,2,100,0|0|4
48,212,95800,2,0,B|7:174|18:121,1,100,0|4
86,48,96200,1,0
276,253,96600,5,8
307,267,96700,1,0
341,268,96800,1,0
374,256,96900,1,0
399,232,97000,1,0
325,164,97200,1,0
226,183,97400,2,0,B|204:229|142:234,1,100,8|0
138,133,97800,1,0
199,53,98000,5,0
233,46,98100,1,0
267,45,98200,1,8
298,59,98300,1,0
326,79,98400,1,0
343,109,98500,1,0
353,142,98600,1,0
253,129,98800,6,0,B|227:176|168:184,1,100,4|0
83,138,99200,2,0,B|109:91|168:83,1,100,4|4
253,129,99600,1,0
328,194,99800,1,8
302,217,99900,1,0
269,230,100000,1,0
234,229,100100,1,0
200,217,100200,1,0
253,129,100400,6,0,B|277:79|333:80,1,100,0|8
424,124,100800,2,0,B|400:174|344:173,1,100
208,308,101200,2,0,B|256:328|304:308,2,100,0|8|0
157,168,101800,2,0,B|211:158|226:102,1,100,0|4
119,112,102200,2,0,B|137:60|96:19,1,100,0|4
23,87,102600,6,0,B|15:205|115:258,1,200,0|8
205,281,103200,1,0
297,243,103400,5,0
321,217,103500,1,0
354,207,103600,1,0
387,217,103700,1,0
411,243,103800,1,8
355,326,104000,6,0,B|355:207,1,100,0|4
422,152,104400,1,0
355,77,104600,1,8
289,152,104800,1,0
252,58,105000,2,0,B|209:27|150:40,1,100,4|0
176,136,105400,2,0,B|168:112,8,25,0|0|0|0|0|0|0|0|4
124,216,106000,5,0
152,236,106100,1,0
188,240,106200,1,8
274,190,106400,2,0,B|320:169|372:187,1,100
274,189,106800,2,0,B|228:210|176:192,1,100,0|8
226,105,107200,6,0,B|276:83|323:107,1,100
412,151,107600,1,0
413,250,107800,1,8
327,198,108000,1,0
251,264,108200,1,0
233,233,108300,1,0
226,198,108400,1,0
233,163,108500,1,0
251,132,108600,1,4
482,193,109000,1,4
452,97,109200,6,0,B|416:57|360:64,1,100,0|8
336,152,109600,2,0,B|372:172|372:212|336:232,1,100
361,320,110000,2,0,B|416:327|452:287,1,100,0|8
368,232,110400,2,0,B|313:225|277:265,1,100,0|0
180,276,110800,2,0,B|184:224|224:188,1,100,0|8
280,108,111200,1,0
176,52,111400,5,4
256,280,111800,1,4
336,52,112200,1,4
256,140,112400,6,0,B|256:240,1,100,0|8
220,332,112800,1,0
256,340,112900,1,0
292,332,113000,1,0
345,239,113200,2,0,B|301:199|257:239,1,100,0|8
136,168,113600,6,0,B|160:120|216:100,1,100
303,102,114000,2,0,B|352:120|376:168,1,100,0|8
412,76,114400,1,0
388,52,114500,1,0
356,36,114600,1,0
256,40,114800,2,0,B|240:88|180:104,1,100,0|4
344,280,115400,1,4
224,288,115600,5,0
188,296,115700,1,0
160,316,115800,1,8
164,216,116000,2,0,B|216:200|232:148,1,100
274,57,116400,2,0,B|326:76|326:137,1,100,0|8
232,148,116800,1,0
297,209,117000,6,0,B|353:196|391:232,1,100
322,304,117400,1,8
371,110,117800,1,4
256,273,118200,1,4
424,164,118600,1,4
90,85,131400,5,0
95,119,131500,1,0
114,148,131600,1,0
141,169,131700,1,0
175,176,131800,1,8
192,77,132000,2,0,B|236:53|296:60,1,100
261,155,132400,2,0,B|275:208|229:246,1,100,0|8
323,283,132800,5,0
351,263,132900,1,0
385,256,133000,1,0
395,156,133200,2,0,B|342:144|325:90,1,100,0|8
225,79,133600,1,0
199,176,133800,5,0
177,203,133900,1,0
142,210,134000,1,0
108,200,134100,1,0
87,171,134200,1,8
92,136,134300,1,0
113,108,134400,1,0
146,98,134500,1,0
180,105,134600,5,0
214,107,134700,1,0
248,103,134800,1,0
281,92,134900,1,0
309,72,135000,1,8
341,60,135100,1,0
375,59,135200,1,0
407,71,135300,1,0
433,94,135400,5,0
449,124,135500,1,0
450,158,135600,1,0
439,191,135700,1,0
417,218,135800,1,8
383,227,135900,1,0
348,223,136000,1,0
316,206,136100,1,0
283,191,136200,5,0
248,190,136300,1,0
215,203,136400,1,0
188,225,136500,1,0
169,254,136600,1,8
169,288,136700,1,0
188,317,136800,1,0
220,330,136900,1,0
254,323,137000,5,0
275,295,137100,1,0
280,265,137200,1,0
261,241,137300,1,0
231,233,137400,1,8
201,227,137500,1,0
176,209,137600,1,0
160,183,137700,1,0
151,154,137800,5,0
157,124,137900,1,0
180,105,138000,1,0
209,99,138100,1,0
238,103,138200,1,8
260,122,138300,1,0
279,145,138400,1,0
354,210,138600,6,0,B|374:221|405:217,2,50
385,115,139000,2,0,B|369:66|315:41,1,100,8|0
386,117,139400,2,0,B|402:166|456:191,1,100,0|0
408,279,139800,2,0,B|351:289|332:340,1,100,8|0
269,259,140200,1,0
280,226,140300,1,0
305,202,140400,1,0
332,180,140500,1,0
348,148,140600,1,8
267,123,140800,6,0,B|230:161|174:152,1,100
202,55,141200,2,0,B|239:17|295:26,1,100,0|8
382,68,141600,2,0,B|408:118|372:160,1,100
282,108,142000,2,0,B|259:63|199:55,1,100,0|8
191,162,142400,5,0
175,193,142500,1,0
146,213,142600,1,0
50,241,142800,2,0,B|77:283|62:339,1,100,0|8
162,324,143200,2,0,B|214:326|253:286,1,100,0|0
347,325,143600,2,0,B|367:277|343:226,1,100,0|8
312,136,144000,1,0
248,208,144200,1,4
