osu file format v12

[General]
AudioFilename: Infernoplex.mp3
AudioLeadIn: 1500
PreviewTime: 39420
Countdown: 0
SampleSet: None
StackLeniency: 0.7
Mode: 3
LetterboxInBreaks: 0

[Editor]
DistanceSpacing: 0.8
BeatDivisor: 8
GridSize: 16

[Metadata]
Title:Infernoplex
TitleUnicode:Infernoplex
Artist:Dimrain47
ArtistUnicode:Dimrain47
Creator:Stepmania 5
Version:
Source:
Tags:
BeatmapID:257116
BeatmapSetID:95821

[Difficulty]
HPDrainRate:6
CircleSize:4
OverallDifficulty:5
ApproachRate:9
SliderMultiplier:1.4
SliderTickRate:1

[Events]
//Background and Video events
0,0,"Infernoplex-bg.png",0,0
//Break Periods
2,34323,38837
2,196842,201700
//Storyboard Layer 0 (Background)
//Storyboard Layer 1 (Fail)
//Storyboard Layer 2 (Pass)
//Storyboard Layer 3 (Foreground)
//Storyboard Sound Samples
//Background Colour Transformations
3,100,163,162,255

[TimingPoints]
98,342.818,4,1,0,15,1,0
98,-100,4,1,0,15,0,0
12440,171.4095,4,1,0,15,1,0
23410,342.818,4,1,0,15,1,0
39865,171.4095,4,1,0,15,1,0
56320,342.818,4,1,0,15,1,0
59063,171.4095,4,1,0,15,1,0
93345,342.8199,4,1,0,15,1,0
115285,171.4296,4,1,0,15,1,0
126257,342.8199,4,1,0,15,1,0
137227,171.4296,4,1,0,15,1,0
192770,260.8707,4,1,0,15,1,0
193814,342.8591,4,1,0,15,1,0
224328,171.43,4,1,0,15,1,0
225025,-1000,4,1,0,15,0,0
225045,-100,4,1,0,15,0,0
225066,-1000,4,1,0,15,0,0
225086,-100,4,1,0,15,0,0
225108,-1000,4,1,0,15,0,0
225128,-100,4,1,0,15,0,0
225149,-1000,4,1,0,15,0,0
225189,-100,4,1,0,15,0,0
225210,-1000,4,1,0,15,0,0
225230,-100,4,1,0,15,0,0
225252,-1000,4,1,0,15,0,0
225272,-100,4,1,0,15,0,0
225293,-1000,4,1,0,15,0,0
225313,-100,4,1,0,15,0,0
225324,342.8611,4,1,0,15,1,0

[HitObjects]
64,192,1384,1,0,0:0:0:0:
192,192,1555,1,0,0:0:0:0:
192,192,1727,1,0,0:0:0:0:
64,192,1898,1,0,0:0:0:0:
320,192,2070,1,0,0:0:0:0:
448,192,2241,1,0,0:0:0:0:
320,192,2412,1,0,0:0:0:0:
192,192,2584,1,0,0:0:0:0:
64,192,2755,1,0,0:0:0:0:
192,192,2927,1,0,0:0:0:0:
192,192,3098,1,0,0:0:0:0:
64,192,3269,1,0,0:0:0:0:
448,192,3441,1,0,0:0:0:0:
320,192,3612,1,0,0:0:0:0:
192,192,3784,1,0,0:0:0:0:
320,192,3955,1,0,0:0:0:0:
64,192,4126,1,0,0:0:0:0:
192,192,4298,1,0,0:0:0:0:
192,192,4469,1,0,0:0:0:0:
64,192,4641,1,0,0:0:0:0:
448,192,4812,1,0,0:0:0:0:
320,192,4984,1,0,0:0:0:0:
192,192,5155,1,0,0:0:0:0:
320,192,5326,1,0,0:0:0:0:
64,192,5498,1,0,0:0:0:0:
192,192,5669,1,0,0:0:0:0:
192,192,5841,1,0,0:0:0:0:
64,192,6012,1,0,0:0:0:0:
320,192,6183,1,0,0:0:0:0:
448,192,6355,1,0,0:0:0:0:
320,192,6526,1,0,0:0:0:0:
192,192,6698,1,0,0:0:0:0:
64,192,6869,1,0,0:0:0:0:
320,192,7040,1,0,0:0:0:0:
320,192,7212,1,0,0:0:0:0:
192,192,7383,1,0,0:0:0:0:
448,192,7555,1,0,0:0:0:0:
320,192,7726,1,0,0:0:0:0:
192,192,7897,1,0,0:0:0:0:
64,192,8069,1,0,0:0:0:0:
192,192,8240,1,0,0:0:0:0:
448,192,8412,1,0,0:0:0:0:
448,192,8583,1,0,0:0:0:0:
64,192,8755,1,0,0:0:0:0:
320,192,8926,1,0,0:0:0:0:
448,192,9097,1,0,0:0:0:0:
192,192,9269,1,0,0:0:0:0:
320,192,9440,1,0,0:0:0:0:
64,192,9612,1,0,0:0:0:0:
192,192,9783,1,0,0:0:0:0:
192,192,9954,1,0,0:0:0:0:
64,192,10126,1,0,0:0:0:0:
320,192,10297,1,0,0:0:0:0:
448,192,10469,1,0,0:0:0:0:
64,192,10640,1,0,0:0:0:0:
320,192,10811,1,0,0:0:0:0:
192,192,10983,1,0,0:0:0:0:
64,192,11069,1,0,0:0:0:0:
192,192,11154,1,0,0:0:0:0:
64,192,11240,1,0,0:0:0:0:
192,192,11326,1,0,0:0:0:0:
320,192,11411,1,0,0:0:0:0:
448,192,11497,1,0,0:0:0:0:
320,192,11583,1,0,0:0:0:0:
448,192,11668,1,0,0:0:0:0:
320,192,11754,1,0,0:0:0:0:
448,192,11840,1,0,0:0:0:0:
320,192,11926,1,0,0:0:0:0:
64,192,12011,1,0,0:0:0:0:
192,192,12097,1,0,0:0:0:0:
64,192,12183,1,0,0:0:0:0:
64,192,12354,1,0,0:0:0:0:
192,192,12440,1,0,0:0:0:0:
320,192,12526,1,0,0:0:0:0:
448,192,12612,1,0,0:0:0:0:
192,192,12697,1,0,0:0:0:0:
448,192,12783,1,0,0:0:0:0:
320,192,12869,1,0,0:0:0:0:
192,192,12955,1,0,0:0:0:0:
64,192,13040,1,0,0:0:0:0:
192,192,13126,1,0,0:0:0:0:
320,192,13212,1,0,0:0:0:0:
448,192,13297,1,0,0:0:0:0:
64,192,13383,1,0,0:0:0:0:
448,192,13469,1,0,0:0:0:0:
320,192,13555,1,0,0:0:0:0:
192,192,13640,1,0,0:0:0:0:
64,192,13726,1,0,0:0:0:0:
320,192,13812,1,0,0:0:0:0:
192,192,13897,1,0,0:0:0:0:
448,192,13983,1,0,0:0:0:0:
320,192,14069,1,0,0:0:0:0:
64,192,14154,1,0,0:0:0:0:
448,192,14240,1,0,0:0:0:0:
192,192,14326,1,0,0:0:0:0:
64,192,14412,1,0,0:0:0:0:
448,192,14497,1,0,0:0:0:0:
320,192,14583,1,0,0:0:0:0:
192,192,14669,1,0,0:0:0:0:
320,192,14754,1,0,0:0:0:0:
448,192,14840,1,0,0:0:0:0:
64,192,14926,1,0,0:0:0:0:
192,192,15011,1,0,0:0:0:0:
320,192,15097,1,0,0:0:0:0:
448,192,15183,1,0,0:0:0:0:
320,192,15269,1,0,0:0:0:0:
192,192,15354,1,0,0:0:0:0:
64,192,15440,1,0,0:0:0:0:
448,192,15526,1,0,0:0:0:0:
192,192,15611,1,0,0:0:0:0:
320,192,15697,1,0,0:0:0:0:
64,192,15783,1,0,0:0:0:0:
192,192,15869,1,0,0:0:0:0:
320,192,15954,1,0,0:0:0:0:
64,192,16040,1,0,0:0:0:0:
192,192,16126,1,0,0:0:0:0:
448,192,16211,1,0,0:0:0:0:
320,192,16297,1,0,0:0:0:0:
192,192,16383,1,0,0:0:0:0:
64,192,16468,1,0,0:0:0:0:
320,192,16554,1,0,0:0:0:0:
64,192,16640,1,0,0:0:0:0:
192,192,16726,1,0,0:0:0:0:
64,192,16811,1,0,0:0:0:0:
448,192,16897,1,0,0:0:0:0:
64,192,16983,1,0,0:0:0:0:
192,192,17068,1,0,0:0:0:0:
64,192,17154,1,0,0:0:0:0:
320,192,17240,1,0,0:0:0:0:
64,192,17326,1,0,0:0:0:0:
320,192,17411,1,0,0:0:0:0:
64,192,17497,1,0,0:0:0:0:
448,192,17583,1,0,0:0:0:0:
64,192,17668,1,0,0:0:0:0:
320,192,17754,1,0,0:0:0:0:
192,192,17840,1,0,0:0:0:0:
448,192,17840,1,0,0:0:0:0:
320,192,17925,1,0,0:0:0:0:
192,192,18011,1,0,0:0:0:0:
64,192,18097,1,0,0:0:0:0:
192,192,18183,1,0,0:0:0:0:
320,192,18268,1,0,0:0:0:0:
448,192,18354,1,0,0:0:0:0:
320,192,18440,1,0,0:0:0:0:
192,192,18525,1,0,0:0:0:0:
64,192,18611,1,0,0:0:0:0:
448,192,18697,1,0,0:0:0:0:
192,192,18783,1,0,0:0:0:0:
320,192,18868,1,0,0:0:0:0:
448,192,18954,1,0,0:0:0:0:
320,192,19040,1,0,0:0:0:0:
192,192,19125,1,0,0:0:0:0:
64,192,19211,1,0,0:0:0:0:
448,192,19297,1,0,0:0:0:0:
320,192,19382,1,0,0:0:0:0:
192,192,19468,1,0,0:0:0:0:
64,192,19554,1,0,0:0:0:0:
448,192,19640,1,0,0:0:0:0:
64,192,19725,1,0,0:0:0:0:
192,192,19811,1,0,0:0:0:0:
320,192,19897,1,0,0:0:0:0:
448,192,19982,1,0,0:0:0:0:
64,192,20068,1,0,0:0:0:0:
192,192,20154,1,0,0:0:0:0:
320,192,20239,1,0,0:0:0:0:
448,192,20325,1,0,0:0:0:0:
192,192,20411,1,0,0:0:0:0:
320,192,20497,1,0,0:0:0:0:
448,192,20582,1,0,0:0:0:0:
192,192,20668,1,0,0:0:0:0:
320,192,20754,1,0,0:0:0:0:
448,192,20839,1,0,0:0:0:0:
64,192,20925,1,0,0:0:0:0:
192,192,21011,1,0,0:0:0:0:
448,192,21097,1,0,0:0:0:0:
192,192,21182,1,0,0:0:0:0:
64,192,21268,1,0,0:0:0:0:
448,192,21354,1,0,0:0:0:0:
64,192,21439,1,0,0:0:0:0:
320,192,21525,1,0,0:0:0:0:
448,192,21611,1,0,0:0:0:0:
192,192,21696,1,0,0:0:0:0:
64,192,21782,1,0,0:0:0:0:
192,192,21868,1,0,0:0:0:0:
320,192,21954,1,0,0:0:0:0:
448,192,21954,1,0,0:0:0:0:
64,192,22039,1,0,0:0:0:0:
320,192,22125,1,0,0:0:0:0:
192,192,22211,1,0,0:0:0:0:
320,192,22296,1,0,0:0:0:0:
448,192,22296,1,0,0:0:0:0:
192,192,22382,1,0,0:0:0:0:
64,192,22468,1,0,0:0:0:0:
192,192,22554,1,0,0:0:0:0:
320,192,22639,1,0,0:0:0:0:
448,192,22639,1,0,0:0:0:0:
64,192,22725,1,0,0:0:0:0:
320,192,22811,1,0,0:0:0:0:
448,192,22896,1,0,0:0:0:0:
192,192,22982,1,0,0:0:0:0:
320,192,23068,1,0,0:0:0:0:
448,192,23153,1,0,0:0:0:0:
320,192,23239,1,0,0:0:0:0:
64,192,23325,1,0,0:0:0:0:
64,192,23667,1,0,0:0:0:0:
64,192,24010,1,0,0:0:0:0:
64,192,24353,1,0,0:0:0:0:
64,192,25382,1,0,0:0:0:0:
192,0,25553,128,0,25725:0:0:0:0:
64,192,25724,1,0,0:0:0:0:
192,0,25896,128,0,26067:0:0:0:0:
64,192,26067,1,0,0:0:0:0:
64,192,26410,1,0,0:0:0:0:
64,192,26753,1,0,0:0:0:0:
64,192,27096,1,0,0:0:0:0:
64,192,28124,1,0,0:0:0:0:
192,0,28296,128,0,28467:0:0:0:0:
64,192,28467,1,0,0:0:0:0:
192,192,28553,1,0,0:0:0:0:
64,192,28638,1,0,0:0:0:0:
192,192,28724,1,0,0:0:0:0:
64,192,28810,1,0,0:0:0:0:
64,192,28981,1,0,0:0:0:0:
320,192,29153,1,0,0:0:0:0:
448,192,29153,1,0,0:0:0:0:
64,192,29667,1,0,0:0:0:0:
320,192,29838,1,0,0:0:0:0:
448,192,29838,1,0,0:0:0:0:
64,192,30181,1,0,0:0:0:0:
64,192,30352,1,0,0:0:0:0:
320,192,30524,1,0,0:0:0:0:
448,192,30524,1,0,0:0:0:0:
64,192,30695,1,0,0:0:0:0:
192,192,30781,1,0,0:0:0:0:
192,192,30952,1,0,0:0:0:0:
64,192,31038,1,0,0:0:0:0:
320,192,31124,1,0,0:0:0:0:
448,192,31209,1,0,0:0:0:0:
320,192,31295,1,0,0:0:0:0:
192,192,31381,1,0,0:0:0:0:
320,192,31467,1,0,0:0:0:0:
64,192,31552,1,0,0:0:0:0:
64,192,31724,1,0,0:0:0:0:
320,192,31895,1,0,0:0:0:0:
448,192,31895,1,0,0:0:0:0:
64,192,32409,1,0,0:0:0:0:
320,192,32581,1,0,0:0:0:0:
448,192,32581,1,0,0:0:0:0:
64,192,32924,1,0,0:0:0:0:
448,192,32924,1,0,0:0:0:0:
192,192,33095,1,0,0:0:0:0:
64,192,33266,1,0,0:0:0:0:
448,192,33266,1,0,0:0:0:0:
192,192,33438,1,0,0:0:0:0:
320,192,33609,1,0,0:0:0:0:
448,192,33609,1,0,0:0:0:0:
192,192,33781,1,0,0:0:0:0:
64,192,33952,1,0,0:0:0:0:
320,192,33952,1,0,0:0:0:0:
448,192,34123,1,0,0:0:0:0:
320,0,39437,132,0,39780:0:0:0:0:
192,0,39780,128,0,40809:0:0:0:0:
448,192,40980,1,0,0:0:0:0:
320,192,41065,1,0,0:0:0:0:
192,0,41151,128,0,41494:0:0:0:0:
192,192,41665,1,0,0:0:0:0:
320,192,41751,1,0,0:0:0:0:
448,0,41837,128,0,42351:0:0:0:0:
320,192,42351,1,0,0:0:0:0:
192,192,42436,1,0,0:0:0:0:
64,192,42522,1,0,0:0:0:0:
448,192,42608,1,0,0:0:0:0:
320,192,42694,1,0,0:0:0:0:
192,192,42779,1,0,0:0:0:0:
448,192,42865,1,0,0:0:0:0:
64,192,42951,1,0,0:0:0:0:
192,192,43036,1,0,0:0:0:0:
320,192,43122,1,0,0:0:0:0:
64,192,43208,1,0,0:0:0:0:
448,192,43294,1,0,0:0:0:0:
192,192,43379,1,0,0:0:0:0:
320,192,43465,1,0,0:0:0:0:
448,192,43551,1,0,0:0:0:0:
320,192,43636,1,0,0:0:0:0:
192,192,43722,1,0,0:0:0:0:
64,192,43808,1,0,0:0:0:0:
192,192,43893,1,0,0:0:0:0:
448,192,43979,1,0,0:0:0:0:
64,192,44065,1,0,0:0:0:0:
192,192,44151,1,0,0:0:0:0:
448,192,44236,1,0,0:0:0:0:
320,192,44322,1,0,0:0:0:0:
448,192,44408,1,0,0:0:0:0:
192,192,44493,1,0,0:0:0:0:
320,192,44579,1,0,0:0:0:0:
64,192,44665,1,0,0:0:0:0:
448,192,44751,1,0,0:0:0:0:
192,192,44836,1,0,0:0:0:0:
448,192,44922,1,0,0:0:0:0:
192,192,45179,1,0,0:0:0:0:
320,0,45265,128,0,45951:0:0:0:0:
64,192,45608,1,0,0:0:0:0:
192,192,45693,1,0,0:0:0:0:
448,192,45779,1,0,0:0:0:0:
192,192,45865,1,0,0:0:0:0:
64,192,45950,1,0,0:0:0:0:
192,192,46036,1,0,0:0:0:0:
320,192,46122,1,0,0:0:0:0:
448,192,46208,1,0,0:0:0:0:
64,192,46293,1,0,0:0:0:0:
448,192,46379,1,0,0:0:0:0:
320,192,46465,1,0,0:0:0:0:
192,192,46550,1,0,0:0:0:0:
64,192,46636,1,0,0:0:0:0:
320,192,46722,1,0,0:0:0:0:
192,192,46807,1,0,0:0:0:0:
448,192,46893,1,0,0:0:0:0:
320,192,46979,1,0,0:0:0:0:
64,192,47065,1,0,0:0:0:0:
448,192,47150,1,0,0:0:0:0:
192,192,47236,1,0,0:0:0:0:
64,192,47322,1,0,0:0:0:0:
448,192,47407,1,0,0:0:0:0:
320,192,47493,1,0,0:0:0:0:
64,192,47579,1,0,0:0:0:0:
192,192,47664,1,0,0:0:0:0:
448,192,47750,1,0,0:0:0:0:
64,192,47836,1,0,0:0:0:0:
192,192,47922,1,0,0:0:0:0:
320,192,48007,1,0,0:0:0:0:
448,192,48093,1,0,0:0:0:0:
320,192,48179,1,0,0:0:0:0:
192,192,48264,1,0,0:0:0:0:
64,192,48350,1,0,0:0:0:0:
448,192,48436,1,0,0:0:0:0:
192,192,48522,1,0,0:0:0:0:
320,192,48607,1,0,0:0:0:0:
64,192,48693,1,0,0:0:0:0:
192,192,48779,1,0,0:0:0:0:
320,192,48864,1,0,0:0:0:0:
64,192,48950,1,0,0:0:0:0:
192,192,49036,1,0,0:0:0:0:
448,192,49121,1,0,0:0:0:0:
320,192,49207,1,0,0:0:0:0:
192,192,49293,1,0,0:0:0:0:
64,192,49379,1,0,0:0:0:0:
320,192,49464,1,0,0:0:0:0:
64,192,49550,1,0,0:0:0:0:
192,192,49636,1,0,0:0:0:0:
64,192,49721,1,0,0:0:0:0:
448,192,49807,1,0,0:0:0:0:
64,192,49893,1,0,0:0:0:0:
192,192,49979,1,0,0:0:0:0:
64,192,50064,1,0,0:0:0:0:
320,192,50150,1,0,0:0:0:0:
64,192,50236,1,0,0:0:0:0:
320,192,50321,1,0,0:0:0:0:
64,192,50407,1,0,0:0:0:0:
192,192,50493,1,0,0:0:0:0:
320,192,50578,1,0,0:0:0:0:
448,192,50664,1,0,0:0:0:0:
64,192,50750,1,0,0:0:0:0:
320,192,50750,1,0,0:0:0:0:
192,192,50836,1,0,0:0:0:0:
448,192,50921,1,0,0:0:0:0:
64,192,51007,1,0,0:0:0:0:
192,192,51093,1,0,0:0:0:0:
320,192,51178,1,0,0:0:0:0:
448,192,51264,1,0,0:0:0:0:
320,192,51350,1,0,0:0:0:0:
192,192,51435,1,0,0:0:0:0:
64,192,51521,1,0,0:0:0:0:
448,192,51607,1,0,0:0:0:0:
192,192,51693,1,0,0:0:0:0:
320,192,51778,1,0,0:0:0:0:
448,192,51864,1,0,0:0:0:0:
320,192,51950,1,0,0:0:0:0:
192,192,52035,1,0,0:0:0:0:
64,192,52121,1,0,0:0:0:0:
448,192,52207,1,0,0:0:0:0:
320,192,52293,1,0,0:0:0:0:
192,192,52378,1,0,0:0:0:0:
64,192,52464,1,0,0:0:0:0:
448,192,52550,1,0,0:0:0:0:
64,192,52635,1,0,0:0:0:0:
192,192,52721,1,0,0:0:0:0:
320,192,52807,1,0,0:0:0:0:
448,192,52892,1,0,0:0:0:0:
64,192,52978,1,0,0:0:0:0:
192,192,53064,1,0,0:0:0:0:
320,192,53150,1,0,0:0:0:0:
448,192,53235,1,0,0:0:0:0:
192,192,53321,1,0,0:0:0:0:
320,192,53407,1,0,0:0:0:0:
448,192,53492,1,0,0:0:0:0:
192,192,53578,1,0,0:0:0:0:
320,192,53664,1,0,0:0:0:0:
448,192,53750,1,0,0:0:0:0:
64,192,53835,1,0,0:0:0:0:
192,192,53921,1,0,0:0:0:0:
448,192,54007,1,0,0:0:0:0:
192,192,54092,1,0,0:0:0:0:
320,192,54178,1,0,0:0:0:0:
448,192,54264,1,0,0:0:0:0:
64,192,54349,1,0,0:0:0:0:
320,192,54435,1,0,0:0:0:0:
448,192,54521,1,0,0:0:0:0:
320,192,54607,1,0,0:0:0:0:
64,192,54692,1,0,0:0:0:0:
320,192,54778,1,0,0:0:0:0:
64,192,54864,1,0,0:0:0:0:
192,192,54864,1,0,0:0:0:0:
320,192,54949,1,0,0:0:0:0:
64,192,55035,1,0,0:0:0:0:
320,192,55121,1,0,0:0:0:0:
64,192,55207,1,0,0:0:0:0:
192,192,55207,1,0,0:0:0:0:
320,192,55292,1,0,0:0:0:0:
64,192,55378,1,0,0:0:0:0:
448,192,55464,1,0,0:0:0:0:
64,192,55549,1,0,0:0:0:0:
192,192,55549,1,0,0:0:0:0:
448,192,55635,1,0,0:0:0:0:
192,192,55721,1,0,0:0:0:0:
448,192,55806,1,0,0:0:0:0:
64,192,55892,1,0,0:0:0:0:
192,192,55892,1,0,0:0:0:0:
320,192,55978,1,0,0:0:0:0:
448,192,56064,1,0,0:0:0:0:
320,192,56149,1,0,0:0:0:0:
64,192,56235,1,0,0:0:0:0:
448,192,56406,1,0,0:0:0:0:
448,192,56577,1,0,0:0:0:0:
64,192,56749,1,0,0:0:0:0:
320,192,56920,1,0,0:0:0:0:
448,192,56920,1,0,0:0:0:0:
448,192,57092,1,0,0:0:0:0:
448,192,57263,1,0,0:0:0:0:
64,192,57435,1,0,0:0:0:0:
64,192,57606,1,0,0:0:0:0:
448,192,57777,1,0,0:0:0:0:
448,192,57949,1,0,0:0:0:0:
64,192,58120,1,0,0:0:0:0:
320,192,58292,1,0,0:0:0:0:
448,192,58292,1,0,0:0:0:0:
64,192,58463,1,0,0:0:0:0:
448,192,58634,1,0,0:0:0:0:
320,192,58806,1,0,0:0:0:0:
192,0,58977,128,0,59663:0:0:0:0:
320,192,59063,1,0,0:0:0:0:
448,192,59149,1,0,0:0:0:0:
64,192,59235,1,0,0:0:0:0:
320,192,59320,1,0,0:0:0:0:
448,192,59406,1,0,0:0:0:0:
64,192,59492,1,0,0:0:0:0:
320,192,59578,1,0,0:0:0:0:
448,192,59663,1,0,0:0:0:0:
320,192,59749,1,0,0:0:0:0:
192,192,59835,1,0,0:0:0:0:
64,192,59920,1,0,0:0:0:0:
192,192,60006,1,0,0:0:0:0:
320,192,60092,1,0,0:0:0:0:
448,192,60178,1,0,0:0:0:0:
320,192,60263,1,0,0:0:0:0:
64,192,60349,1,0,0:0:0:0:
192,0,60349,128,0,61721:0:0:0:0:
64,192,60692,1,0,0:0:0:0:
64,192,61035,1,0,0:0:0:0:
64,192,61377,1,0,0:0:0:0:
64,192,61720,1,0,0:0:0:0:
448,0,61720,128,0,63091:0:0:0:0:
64,192,62063,1,0,0:0:0:0:
64,192,62406,1,0,0:0:0:0:
192,0,62406,128,0,63092:0:0:0:0:
64,192,62749,1,0,0:0:0:0:
320,192,63091,1,0,0:0:0:0:
64,0,63091,128,0,64462:0:0:0:0:
320,192,63434,1,0,0:0:0:0:
320,192,63777,1,0,0:0:0:0:
320,192,64120,1,0,0:0:0:0:
192,192,64463,1,0,0:0:0:0:
320,0,64463,128,0,65149:0:0:0:0:
192,192,64806,1,0,0:0:0:0:
192,192,65148,1,0,0:0:0:0:
192,192,65491,1,0,0:0:0:0:
448,192,65834,1,0,0:0:0:0:
320,192,65920,1,0,0:0:0:0:
192,192,66005,1,0,0:0:0:0:
64,192,66091,1,0,0:0:0:0:
448,192,66177,1,0,0:0:0:0:
320,192,66263,1,0,0:0:0:0:
192,192,66348,1,0,0:0:0:0:
64,192,66434,1,0,0:0:0:0:
448,192,66520,1,0,0:0:0:0:
192,192,66605,1,0,0:0:0:0:
320,192,66691,1,0,0:0:0:0:
64,192,66777,1,0,0:0:0:0:
448,192,66862,1,0,0:0:0:0:
192,192,66948,1,0,0:0:0:0:
320,192,67034,1,0,0:0:0:0:
448,192,67120,1,0,0:0:0:0:
64,192,67205,1,0,0:0:0:0:
192,192,67291,1,0,0:0:0:0:
320,192,67377,1,0,0:0:0:0:
448,192,67462,1,0,0:0:0:0:
64,192,67548,1,0,0:0:0:0:
192,192,67634,1,0,0:0:0:0:
320,192,67720,1,0,0:0:0:0:
448,192,67805,1,0,0:0:0:0:
64,192,67891,1,0,0:0:0:0:
320,192,67977,1,0,0:0:0:0:
192,192,68062,1,0,0:0:0:0:
448,192,68148,1,0,0:0:0:0:
64,192,68234,1,0,0:0:0:0:
320,192,68319,1,0,0:0:0:0:
192,192,68405,1,0,0:0:0:0:
448,192,68491,1,0,0:0:0:0:
64,192,68577,1,0,0:0:0:0:
192,192,68662,1,0,0:0:0:0:
320,192,68748,1,0,0:0:0:0:
192,192,68834,1,0,0:0:0:0:
64,192,68919,1,0,0:0:0:0:
192,192,69005,1,0,0:0:0:0:
320,192,69091,1,0,0:0:0:0:
448,192,69177,1,0,0:0:0:0:
320,192,69262,1,0,0:0:0:0:
192,192,69348,1,0,0:0:0:0:
320,192,69434,1,0,0:0:0:0:
448,192,69519,1,0,0:0:0:0:
320,192,69605,1,0,0:0:0:0:
192,192,69691,1,0,0:0:0:0:
64,192,69776,1,0,0:0:0:0:
192,192,69862,1,0,0:0:0:0:
320,192,69948,1,0,0:0:0:0:
448,192,70034,1,0,0:0:0:0:
192,192,70119,1,0,0:0:0:0:
320,192,70205,1,0,0:0:0:0:
64,192,70291,1,0,0:0:0:0:
320,192,70376,1,0,0:0:0:0:
192,192,70462,1,0,0:0:0:0:
448,192,70548,1,0,0:0:0:0:
192,192,70633,1,0,0:0:0:0:
320,192,70719,1,0,0:0:0:0:
64,192,70805,1,0,0:0:0:0:
320,192,70976,1,0,0:0:0:0:
192,192,71041,1,0,0:0:0:0:
320,192,71083,1,0,0:0:0:0:
192,192,71148,1,0,0:0:0:0:
320,192,71212,1,0,0:0:0:0:
192,192,71255,1,0,0:0:0:0:
64,0,71319,128,0,72004:0:0:0:0:
448,0,72005,128,0,72348:0:0:0:0:
192,0,72348,128,0,72519:0:0:0:0:
320,0,72519,128,0,72691:0:0:0:0:
64,0,72690,128,0,73033:0:0:0:0:
192,0,73033,128,0,73204:0:0:0:0:
320,0,73205,128,0,73376:0:0:0:0:
192,0,73376,128,0,74062:0:0:0:0:
320,0,73890,128,0,74061:0:0:0:0:
448,0,74062,128,0,74233:0:0:0:0:
192,0,74233,128,0,74405:0:0:0:0:
448,0,74405,128,0,74576:0:0:0:0:
64,0,74576,128,0,74748:0:0:0:0:
320,0,74747,128,0,74918:0:0:0:0:
192,0,74919,128,0,75091:0:0:0:0:
64,0,75090,128,0,75261:0:0:0:0:
448,0,75262,128,0,75433:0:0:0:0:
192,0,75433,128,0,75605:0:0:0:0:
320,0,75604,128,0,75775:0:0:0:0:
448,0,75776,128,0,75948:0:0:0:0:
64,192,75947,1,0,0:0:0:0:
192,192,75947,1,0,0:0:0:0:
320,192,76119,1,0,0:0:0:0:
448,192,76119,1,0,0:0:0:0:
64,192,76290,1,0,0:0:0:0:
320,192,76290,1,0,0:0:0:0:
192,192,76461,1,0,0:0:0:0:
448,192,76461,1,0,0:0:0:0:
64,192,76633,1,0,0:0:0:0:
448,192,76633,1,0,0:0:0:0:
320,192,76804,1,0,0:0:0:0:
192,0,76804,128,0,77489:0:0:0:0:
320,0,77318,128,0,77489:0:0:0:0:
448,0,77490,128,0,77833:0:0:0:0:
320,0,77833,128,0,78004:0:0:0:0:
192,0,78004,128,0,78176:0:0:0:0:
64,0,78176,128,0,78690:0:0:0:0:
192,0,78690,128,0,78862:0:0:0:0:
320,0,78861,128,0,79032:0:0:0:0:
64,0,79033,128,0,79204:0:0:0:0:
448,0,79204,128,0,79376:0:0:0:0:
320,0,79375,128,0,79546:0:0:0:0:
192,0,79547,128,0,79719:0:0:0:0:
64,0,79718,128,0,79889:0:0:0:0:
320,0,79890,128,0,80061:0:0:0:0:
192,0,80061,128,0,80233:0:0:0:0:
448,0,80232,128,0,80403:0:0:0:0:
320,0,80404,128,0,80576:0:0:0:0:
192,0,80575,128,0,80746:0:0:0:0:
320,192,80747,1,0,0:0:0:0:
448,192,80747,1,0,0:0:0:0:
64,192,80918,1,0,0:0:0:0:
448,192,80918,1,0,0:0:0:0:
192,192,81089,1,0,0:0:0:0:
320,192,81089,1,0,0:0:0:0:
64,192,81261,1,0,0:0:0:0:
320,192,81261,1,0,0:0:0:0:
64,192,81432,1,0,0:0:0:0:
448,192,81432,1,0,0:0:0:0:
192,192,81604,1,0,0:0:0:0:
448,192,81604,1,0,0:0:0:0:
320,192,81947,1,0,0:0:0:0:
448,192,81947,1,0,0:0:0:0:
448,0,82289,128,0,82803:0:0:0:0:
192,0,82804,128,0,83147:0:0:0:0:
320,0,83146,128,0,83317:0:0:0:0:
192,0,83318,128,0,83490:0:0:0:0:
320,0,83489,128,0,83660:0:0:0:0:
64,0,83661,128,0,84175:0:0:0:0:
320,0,84175,128,0,84518:0:0:0:0:
448,0,84518,128,0,84689:0:0:0:0:
320,0,84689,128,0,84861:0:0:0:0:
192,0,84860,128,0,85031:0:0:0:0:
64,0,85032,128,0,85289:0:0:0:0:
64,192,85546,1,0,0:0:0:0:
192,192,85632,1,0,0:0:0:0:
320,192,85718,1,0,0:0:0:0:
448,192,85803,1,0,0:0:0:0:
64,192,85889,1,0,0:0:0:0:
448,192,85975,1,0,0:0:0:0:
320,192,86060,1,0,0:0:0:0:
448,192,86146,1,0,0:0:0:0:
192,192,86232,1,0,0:0:0:0:
448,192,86317,1,0,0:0:0:0:
192,192,86403,1,0,0:0:0:0:
320,192,86489,1,0,0:0:0:0:
448,192,86575,1,0,0:0:0:0:
192,192,86660,1,0,0:0:0:0:
448,192,86746,1,0,0:0:0:0:
64,192,86832,1,0,0:0:0:0:
192,192,86917,1,0,0:0:0:0:
448,192,87003,1,0,0:0:0:0:
192,192,87089,1,0,0:0:0:0:
320,0,87175,128,0,87432:0:0:0:0:
192,192,87432,1,0,0:0:0:0:
64,192,87517,1,0,0:0:0:0:
192,192,87603,1,0,0:0:0:0:
320,192,87689,1,0,0:0:0:0:
448,0,87774,128,0,87945:0:0:0:0:
320,0,87946,128,0,88289:0:0:0:0:
64,0,88289,128,0,88632:0:0:0:0:
192,0,88631,128,0,88974:0:0:0:0:
320,0,88974,128,0,89145:0:0:0:0:
448,0,89146,128,0,89660:0:0:0:0:
320,0,89660,128,0,90003:0:0:0:0:
192,0,90003,128,0,90175:0:0:0:0:
448,192,90346,1,0,0:0:0:0:
192,192,90431,1,0,0:0:0:0:
448,192,90517,1,0,0:0:0:0:
320,192,90603,1,0,0:0:0:0:
192,192,90688,1,0,0:0:0:0:
448,192,90774,1,0,0:0:0:0:
192,192,90860,1,0,0:0:0:0:
320,192,90946,1,0,0:0:0:0:
192,192,91031,1,0,0:0:0:0:
64,192,91117,1,0,0:0:0:0:
320,192,91203,1,0,0:0:0:0:
64,192,91288,1,0,0:0:0:0:
192,192,91374,1,0,0:0:0:0:
320,192,91460,1,0,0:0:0:0:
64,192,91545,1,0,0:0:0:0:
448,192,91631,1,0,0:0:0:0:
320,192,91717,1,0,0:0:0:0:
192,192,91803,1,0,0:0:0:0:
64,192,91888,1,0,0:0:0:0:
448,0,91974,128,0,92403:0:0:0:0:
320,192,92403,1,0,0:0:0:0:
192,192,92488,1,0,0:0:0:0:
448,192,92574,1,0,0:0:0:0:
320,192,92660,1,0,0:0:0:0:
64,0,92660,128,0,93089:0:0:0:0:
192,192,92917,1,0,0:0:0:0:
320,192,93088,1,0,0:0:0:0:
320,192,93260,1,0,0:0:0:0:
448,0,93260,128,0,93774:0:0:0:0:
192,192,93774,1,0,0:0:0:0:
192,192,93945,1,0,0:0:0:0:
64,0,94117,128,0,94460:0:0:0:0:
192,192,94460,1,0,0:0:0:0:
64,0,94631,128,0,95145:0:0:0:0:
320,192,95145,1,0,0:0:0:0:
320,192,95317,1,0,0:0:0:0:
192,0,95488,128,0,95831:0:0:0:0:
320,192,95831,1,0,0:0:0:0:
192,0,96002,128,0,96345:0:0:0:0:
320,0,96345,128,0,96688:0:0:0:0:
64,0,96688,128,0,97031:0:0:0:0:
448,0,97031,128,0,97374:0:0:0:0:
320,0,97373,128,0,97716:0:0:0:0:
192,0,97716,128,0,98058:0:0:0:0:
64,0,98059,128,0,98402:0:0:0:0:
320,0,98402,128,0,98745:0:0:0:0:
64,192,98745,1,0,0:0:0:0:
192,0,98745,128,0,100116:0:0:0:0:
320,192,99259,1,0,0:0:0:0:
320,192,99430,1,0,0:0:0:0:
64,192,99602,1,0,0:0:0:0:
448,0,99602,128,0,99945:0:0:0:0:
320,192,99945,1,0,0:0:0:0:
64,192,100116,1,0,0:0:0:0:
448,0,100116,128,0,101488:0:0:0:0:
192,192,100630,1,0,0:0:0:0:
192,192,100802,1,0,0:0:0:0:
320,192,100973,1,0,0:0:0:0:
64,0,100973,128,0,101316:0:0:0:0:
320,192,101316,1,0,0:0:0:0:
320,192,101487,1,0,0:0:0:0:
192,0,101487,128,0,102858:0:0:0:0:
320,192,101830,1,0,0:0:0:0:
64,0,101830,128,0,102173:0:0:0:0:
320,192,102173,1,0,0:0:0:0:
448,0,102173,128,0,102516:0:0:0:0:
64,192,102516,1,0,0:0:0:0:
320,0,102516,128,0,102859:0:0:0:0:
64,0,102859,128,0,103545:0:0:0:0:
448,0,102859,128,0,103545:0:0:0:0:
192,192,103201,1,0,0:0:0:0:
320,192,103201,1,0,0:0:0:0:
192,0,103544,128,0,104229:0:0:0:0:
320,0,103887,128,0,104230:0:0:0:0:
64,192,104230,1,0,0:0:0:0:
448,192,104230,1,0,0:0:0:0:
320,192,104401,1,0,0:0:0:0:
320,192,104573,1,0,0:0:0:0:
64,192,104744,1,0,0:0:0:0:
192,192,104916,1,0,0:0:0:0:
320,192,105087,1,0,0:0:0:0:
320,192,105258,1,0,0:0:0:0:
64,192,105430,1,0,0:0:0:0:
192,192,105601,1,0,0:0:0:0:
448,192,105773,1,0,0:0:0:0:
448,192,105944,1,0,0:0:0:0:
192,192,106115,1,0,0:0:0:0:
320,192,106287,1,0,0:0:0:0:
448,192,106458,1,0,0:0:0:0:
320,192,106630,1,0,0:0:0:0:
192,192,106801,1,0,0:0:0:0:
64,192,106972,1,0,0:0:0:0:
192,192,107144,1,0,0:0:0:0:
192,192,107315,1,0,0:0:0:0:
64,192,107487,1,0,0:0:0:0:
320,192,107658,1,0,0:0:0:0:
448,192,107829,1,0,0:0:0:0:
448,192,108001,1,0,0:0:0:0:
192,192,108172,1,0,0:0:0:0:
448,192,108344,1,0,0:0:0:0:
320,192,108515,1,0,0:0:0:0:
320,192,108687,1,0,0:0:0:0:
64,192,108858,1,0,0:0:0:0:
320,192,109029,1,0,0:0:0:0:
448,192,109201,1,0,0:0:0:0:
320,192,109372,1,0,0:0:0:0:
192,192,109544,1,0,0:0:0:0:
64,192,109715,1,0,0:0:0:0:
64,192,109886,1,0,0:0:0:0:
320,192,110058,1,0,0:0:0:0:
448,192,110058,1,0,0:0:0:0:
64,192,110572,1,0,0:0:0:0:
320,192,110743,1,0,0:0:0:0:
448,192,110743,1,0,0:0:0:0:
64,192,111086,1,0,0:0:0:0:
64,192,111258,1,0,0:0:0:0:
320,192,111429,1,0,0:0:0:0:
448,192,111429,1,0,0:0:0:0:
192,192,111601,1,0,0:0:0:0:
320,192,111686,1,0,0:0:0:0:
448,192,111686,1,0,0:0:0:0:
448,192,111858,1,0,0:0:0:0:
192,192,111943,1,0,0:0:0:0:
64,192,112115,1,0,0:0:0:0:
448,192,112200,1,0,0:0:0:0:
320,192,112286,1,0,0:0:0:0:
448,192,112372,1,0,0:0:0:0:
192,192,112458,1,0,0:0:0:0:
192,192,112629,1,0,0:0:0:0:
320,192,112800,1,0,0:0:0:0:
448,192,112800,1,0,0:0:0:0:
64,192,113315,1,0,0:0:0:0:
320,192,113486,1,0,0:0:0:0:
448,192,113486,1,0,0:0:0:0:
192,192,113829,1,0,0:0:0:0:
192,192,114000,1,0,0:0:0:0:
320,192,114086,1,0,0:0:0:0:
448,192,114172,1,0,0:0:0:0:
320,192,114257,1,0,0:0:0:0:
192,192,114343,1,0,0:0:0:0:
64,192,114429,1,0,0:0:0:0:
448,192,114514,1,0,0:0:0:0:
64,192,114600,1,0,0:0:0:0:
192,192,114686,1,0,0:0:0:0:
320,192,114772,1,0,0:0:0:0:
448,192,114857,1,0,0:0:0:0:
64,192,114943,1,0,0:0:0:0:
192,192,115029,1,0,0:0:0:0:
320,192,115114,1,0,0:0:0:0:
448,192,115200,1,0,0:0:0:0:
320,192,115285,1,0,0:0:0:0:
192,192,115371,1,0,0:0:0:0:
64,192,115457,1,0,0:0:0:0:
448,192,115543,1,0,0:0:0:0:
192,192,115628,1,0,0:0:0:0:
320,192,115714,1,0,0:0:0:0:
64,192,115800,1,0,0:0:0:0:
448,192,115885,1,0,0:0:0:0:
320,192,115971,1,0,0:0:0:0:
448,192,116057,1,0,0:0:0:0:
192,192,116143,1,0,0:0:0:0:
320,192,116228,1,0,0:0:0:0:
448,192,116314,1,0,0:0:0:0:
192,192,116400,1,0,0:0:0:0:
320,192,116485,1,0,0:0:0:0:
64,192,116571,1,0,0:0:0:0:
192,192,116657,1,0,0:0:0:0:
64,192,116743,1,0,0:0:0:0:
320,192,116828,1,0,0:0:0:0:
448,192,116914,1,0,0:0:0:0:
64,192,117000,1,0,0:0:0:0:
320,192,117085,1,0,0:0:0:0:
448,192,117171,1,0,0:0:0:0:
64,192,117257,1,0,0:0:0:0:
192,192,117343,1,0,0:0:0:0:
448,192,117428,1,0,0:0:0:0:
64,192,117514,1,0,0:0:0:0:
320,192,117600,1,0,0:0:0:0:
448,192,117685,1,0,0:0:0:0:
64,192,117771,1,0,0:0:0:0:
192,192,117857,1,0,0:0:0:0:
448,192,117943,1,0,0:0:0:0:
320,192,118028,1,0,0:0:0:0:
192,192,118114,1,0,0:0:0:0:
64,192,118200,1,0,0:0:0:0:
448,192,118285,1,0,0:0:0:0:
320,192,118371,1,0,0:0:0:0:
64,192,118457,1,0,0:0:0:0:
448,192,118543,1,0,0:0:0:0:
192,192,118628,1,0,0:0:0:0:
64,192,118714,1,0,0:0:0:0:
192,192,118800,1,0,0:0:0:0:
320,192,118885,1,0,0:0:0:0:
64,192,118971,1,0,0:0:0:0:
320,192,119057,1,0,0:0:0:0:
448,192,119143,1,0,0:0:0:0:
192,192,119228,1,0,0:0:0:0:
320,192,119314,1,0,0:0:0:0:
192,192,119400,1,0,0:0:0:0:
320,192,119485,1,0,0:0:0:0:
64,192,119571,1,0,0:0:0:0:
320,192,119657,1,0,0:0:0:0:
448,192,119743,1,0,0:0:0:0:
320,192,119828,1,0,0:0:0:0:
192,192,119914,1,0,0:0:0:0:
320,192,120000,1,0,0:0:0:0:
448,192,120085,1,0,0:0:0:0:
320,192,120171,1,0,0:0:0:0:
192,192,120257,1,0,0:0:0:0:
320,192,120343,1,0,0:0:0:0:
64,192,120428,1,0,0:0:0:0:
320,192,120514,1,0,0:0:0:0:
192,192,120600,1,0,0:0:0:0:
320,192,120685,1,0,0:0:0:0:
448,192,120771,1,0,0:0:0:0:
320,192,120857,1,0,0:0:0:0:
192,192,120943,1,0,0:0:0:0:
64,192,121028,1,0,0:0:0:0:
448,192,121114,1,0,0:0:0:0:
320,192,121200,1,0,0:0:0:0:
448,192,121285,1,0,0:0:0:0:
64,192,121371,1,0,0:0:0:0:
192,192,121457,1,0,0:0:0:0:
64,192,121543,1,0,0:0:0:0:
320,192,121628,1,0,0:0:0:0:
192,192,121714,1,0,0:0:0:0:
320,192,121800,1,0,0:0:0:0:
64,192,121885,1,0,0:0:0:0:
448,192,121971,1,0,0:0:0:0:
64,192,122057,1,0,0:0:0:0:
192,192,122143,1,0,0:0:0:0:
448,192,122228,1,0,0:0:0:0:
192,192,122314,1,0,0:0:0:0:
320,192,122400,1,0,0:0:0:0:
64,192,122485,1,0,0:0:0:0:
320,192,122571,1,0,0:0:0:0:
192,192,122657,1,0,0:0:0:0:
448,192,122743,1,0,0:0:0:0:
192,192,122828,1,0,0:0:0:0:
448,192,122914,1,0,0:0:0:0:
320,192,123000,1,0,0:0:0:0:
448,192,123085,1,0,0:0:0:0:
64,192,123171,1,0,0:0:0:0:
320,192,123257,1,0,0:0:0:0:
192,192,123343,1,0,0:0:0:0:
64,192,123428,1,0,0:0:0:0:
320,192,123514,1,0,0:0:0:0:
192,192,123600,1,0,0:0:0:0:
448,192,123685,1,0,0:0:0:0:
192,192,123771,1,0,0:0:0:0:
320,192,123857,1,0,0:0:0:0:
64,192,123943,1,0,0:0:0:0:
320,192,124028,1,0,0:0:0:0:
192,192,124114,1,0,0:0:0:0:
448,192,124200,1,0,0:0:0:0:
192,192,124285,1,0,0:0:0:0:
320,192,124371,1,0,0:0:0:0:
192,192,124457,1,0,0:0:0:0:
448,192,124543,1,0,0:0:0:0:
320,0,124628,128,0,124714:0:0:0:0:
192,0,124714,128,0,124799:0:0:0:0:
64,0,124800,128,0,124886:0:0:0:0:
448,0,124885,128,0,124971:0:0:0:0:
320,0,124971,128,0,125057:0:0:0:0:
448,0,125057,128,0,125142:0:0:0:0:
192,0,125143,128,0,125229:0:0:0:0:
320,0,125228,128,0,125314:0:0:0:0:
192,0,125314,128,0,125399:0:0:0:0:
320,0,125400,128,0,125486:0:0:0:0:
64,0,125485,128,0,125571:0:0:0:0:
320,0,125571,128,0,125657:0:0:0:0:
192,0,125657,128,0,125742:0:0:0:0:
64,0,125743,128,0,125829:0:0:0:0:
192,0,125828,128,0,125914:0:0:0:0:
448,0,125914,128,0,125999:0:0:0:0:
192,0,126000,128,0,126086:0:0:0:0:
320,0,126085,128,0,126128:0:0:0:0:
64,192,126171,1,0,0:0:0:0:
192,192,126171,1,0,0:0:0:0:
192,192,126343,1,0,0:0:0:0:
320,192,126343,1,0,0:0:0:0:
320,192,126514,1,0,0:0:0:0:
448,192,126514,1,0,0:0:0:0:
192,192,126686,1,0,0:0:0:0:
320,192,126686,1,0,0:0:0:0:
64,192,126857,1,0,0:0:0:0:
192,192,126857,1,0,0:0:0:0:
192,192,127029,1,0,0:0:0:0:
320,192,127029,1,0,0:0:0:0:
320,192,127200,1,0,0:0:0:0:
448,192,127200,1,0,0:0:0:0:
192,192,127372,1,0,0:0:0:0:
320,192,127372,1,0,0:0:0:0:
64,192,127543,1,0,0:0:0:0:
448,192,127543,1,0,0:0:0:0:
64,192,127714,1,0,0:0:0:0:
320,192,127714,1,0,0:0:0:0:
64,192,127886,1,0,0:0:0:0:
192,192,127886,1,0,0:0:0:0:
64,192,128057,1,0,0:0:0:0:
320,192,128057,1,0,0:0:0:0:
64,192,128229,1,0,0:0:0:0:
448,192,128229,1,0,0:0:0:0:
64,192,128400,1,0,0:0:0:0:
320,192,128400,1,0,0:0:0:0:
64,192,128571,1,0,0:0:0:0:
192,192,128571,1,0,0:0:0:0:
64,192,128743,1,0,0:0:0:0:
320,192,128743,1,0,0:0:0:0:
192,192,128914,1,0,0:0:0:0:
448,192,128914,1,0,0:0:0:0:
192,192,129086,1,0,0:0:0:0:
320,192,129086,1,0,0:0:0:0:
64,192,129257,1,0,0:0:0:0:
320,192,129257,1,0,0:0:0:0:
192,192,129428,1,0,0:0:0:0:
320,192,129428,1,0,0:0:0:0:
192,192,129600,1,0,0:0:0:0:
448,192,129600,1,0,0:0:0:0:
192,192,129771,1,0,0:0:0:0:
320,192,129771,1,0,0:0:0:0:
64,192,129943,1,0,0:0:0:0:
320,192,129943,1,0,0:0:0:0:
192,192,130114,1,0,0:0:0:0:
320,192,130114,1,0,0:0:0:0:
192,192,130285,1,0,0:0:0:0:
448,192,130285,1,0,0:0:0:0:
64,192,130457,1,0,0:0:0:0:
448,192,130457,1,0,0:0:0:0:
192,192,130628,1,0,0:0:0:0:
448,192,130628,1,0,0:0:0:0:
64,192,130800,1,0,0:0:0:0:
448,192,130800,1,0,0:0:0:0:
192,192,130971,1,0,0:0:0:0:
448,192,130971,1,0,0:0:0:0:
64,192,131143,1,0,0:0:0:0:
320,192,131143,1,0,0:0:0:0:
64,192,131314,1,0,0:0:0:0:
320,192,131314,1,0,0:0:0:0:
64,192,131485,1,0,0:0:0:0:
320,192,131485,1,0,0:0:0:0:
64,192,131657,1,0,0:0:0:0:
192,192,131657,1,0,0:0:0:0:
192,192,131828,1,0,0:0:0:0:
320,192,131828,1,0,0:0:0:0:
64,192,132000,1,0,0:0:0:0:
192,192,132000,1,0,0:0:0:0:
192,192,132171,1,0,0:0:0:0:
320,192,132171,1,0,0:0:0:0:
64,192,132342,1,0,0:0:0:0:
192,192,132342,1,0,0:0:0:0:
192,192,132514,1,0,0:0:0:0:
320,192,132514,1,0,0:0:0:0:
64,192,132685,1,0,0:0:0:0:
192,192,132685,1,0,0:0:0:0:
192,192,132857,1,0,0:0:0:0:
320,192,132857,1,0,0:0:0:0:
64,192,133028,1,0,0:0:0:0:
192,192,133028,1,0,0:0:0:0:
192,192,133199,1,0,0:0:0:0:
448,192,133199,1,0,0:0:0:0:
64,192,133371,1,0,0:0:0:0:
192,192,133371,1,0,0:0:0:0:
192,192,133542,1,0,0:0:0:0:
448,192,133542,1,0,0:0:0:0:
64,192,133714,1,0,0:0:0:0:
192,192,133714,1,0,0:0:0:0:
192,192,133885,1,0,0:0:0:0:
448,192,133885,1,0,0:0:0:0:
64,192,134057,1,0,0:0:0:0:
192,192,134057,1,0,0:0:0:0:
192,192,134228,1,0,0:0:0:0:
448,192,134228,1,0,0:0:0:0:
192,192,134399,1,0,0:0:0:0:
320,192,134399,1,0,0:0:0:0:
192,192,134571,1,0,0:0:0:0:
448,192,134571,1,0,0:0:0:0:
192,192,134742,1,0,0:0:0:0:
320,192,134742,1,0,0:0:0:0:
192,192,134914,1,0,0:0:0:0:
448,192,134914,1,0,0:0:0:0:
192,192,135085,1,0,0:0:0:0:
320,192,135085,1,0,0:0:0:0:
192,192,135256,1,0,0:0:0:0:
448,192,135256,1,0,0:0:0:0:
192,192,135428,1,0,0:0:0:0:
320,192,135428,1,0,0:0:0:0:
192,192,135599,1,0,0:0:0:0:
448,192,135599,1,0,0:0:0:0:
320,192,135771,1,0,0:0:0:0:
448,192,135771,1,0,0:0:0:0:
192,192,135942,1,0,0:0:0:0:
320,192,135942,1,0,0:0:0:0:
64,192,136113,1,0,0:0:0:0:
192,192,136113,1,0,0:0:0:0:
192,192,136285,1,0,0:0:0:0:
320,192,136285,1,0,0:0:0:0:
192,192,136456,1,0,0:0:0:0:
448,192,136456,1,0,0:0:0:0:
192,192,136628,1,0,0:0:0:0:
320,192,136628,1,0,0:0:0:0:
64,192,136799,1,0,0:0:0:0:
320,192,136799,1,0,0:0:0:0:
64,192,136970,1,0,0:0:0:0:
448,192,136970,1,0,0:0:0:0:
192,192,137142,1,0,0:0:0:0:
320,192,137142,1,0,0:0:0:0:
64,192,137313,1,0,0:0:0:0:
192,192,137399,1,0,0:0:0:0:
448,192,137485,1,0,0:0:0:0:
320,192,137656,1,0,0:0:0:0:
448,192,137742,1,0,0:0:0:0:
64,192,137827,1,0,0:0:0:0:
320,192,137999,1,0,0:0:0:0:
64,192,138085,1,0,0:0:0:0:
320,192,138170,1,0,0:0:0:0:
448,192,138256,1,0,0:0:0:0:
64,192,138342,1,0,0:0:0:0:
320,192,138427,1,0,0:0:0:0:
192,192,138513,1,0,0:0:0:0:
64,192,138685,1,0,0:0:0:0:
192,192,138770,1,0,0:0:0:0:
448,192,138856,1,0,0:0:0:0:
320,192,139027,1,0,0:0:0:0:
448,192,139113,1,0,0:0:0:0:
64,192,139199,1,0,0:0:0:0:
320,192,139370,1,0,0:0:0:0:
64,192,139456,1,0,0:0:0:0:
320,192,139542,1,0,0:0:0:0:
448,192,139627,1,0,0:0:0:0:
64,192,139713,1,0,0:0:0:0:
320,192,139799,1,0,0:0:0:0:
192,192,139885,1,0,0:0:0:0:
64,192,140056,1,0,0:0:0:0:
192,192,140142,1,0,0:0:0:0:
448,192,140227,1,0,0:0:0:0:
320,192,140399,1,0,0:0:0:0:
448,192,140485,1,0,0:0:0:0:
64,192,140570,1,0,0:0:0:0:
448,192,140742,1,0,0:0:0:0:
320,192,140827,1,0,0:0:0:0:
192,192,140913,1,0,0:0:0:0:
64,192,140999,1,0,0:0:0:0:
192,192,141085,1,0,0:0:0:0:
448,192,141170,1,0,0:0:0:0:
320,192,141256,1,0,0:0:0:0:
320,192,141427,1,0,0:0:0:0:
64,192,141513,1,0,0:0:0:0:
192,192,141599,1,0,0:0:0:0:
448,192,141770,1,0,0:0:0:0:
64,192,141856,1,0,0:0:0:0:
320,192,141942,1,0,0:0:0:0:
448,192,142113,1,0,0:0:0:0:
64,192,142199,1,0,0:0:0:0:
192,192,142285,1,0,0:0:0:0:
320,192,142370,1,0,0:0:0:0:
64,192,142456,1,0,0:0:0:0:
320,192,142542,1,0,0:0:0:0:
448,192,142627,1,0,0:0:0:0:
192,192,142799,1,0,0:0:0:0:
320,192,142885,1,0,0:0:0:0:
64,192,142970,1,0,0:0:0:0:
448,192,143142,1,0,0:0:0:0:
64,192,143227,1,0,0:0:0:0:
192,192,143313,1,0,0:0:0:0:
64,192,143485,1,0,0:0:0:0:
192,192,143570,1,0,0:0:0:0:
320,192,143656,1,0,0:0:0:0:
64,192,143742,1,0,0:0:0:0:
192,192,143827,1,0,0:0:0:0:
448,192,143913,1,0,0:0:0:0:
64,192,143999,1,0,0:0:0:0:
320,192,144170,1,0,0:0:0:0:
64,192,144256,1,0,0:0:0:0:
320,192,144342,1,0,0:0:0:0:
64,192,144513,1,0,0:0:0:0:
448,192,144599,1,0,0:0:0:0:
320,192,144685,1,0,0:0:0:0:
64,192,144856,1,0,0:0:0:0:
448,192,144942,1,0,0:0:0:0:
192,192,145027,1,0,0:0:0:0:
320,192,145113,1,0,0:0:0:0:
64,192,145199,1,0,0:0:0:0:
192,192,145285,1,0,0:0:0:0:
320,192,145370,1,0,0:0:0:0:
192,192,145542,1,0,0:0:0:0:
320,192,145627,1,0,0:0:0:0:
64,192,145713,1,0,0:0:0:0:
320,192,145885,1,0,0:0:0:0:
448,192,145970,1,0,0:0:0:0:
320,192,146056,1,0,0:0:0:0:
64,192,146227,1,0,0:0:0:0:
448,192,146313,1,0,0:0:0:0:
320,192,146399,1,0,0:0:0:0:
64,192,146485,1,0,0:0:0:0:
320,192,146570,1,0,0:0:0:0:
448,192,146656,1,0,0:0:0:0:
192,0,146742,128,0,148114:0:0:0:0:
320,0,146742,128,0,148114:0:0:0:0:
64,192,146827,1,0,0:0:0:0:
448,192,146913,1,0,0:0:0:0:
64,192,146999,1,0,0:0:0:0:
448,192,147085,1,0,0:0:0:0:
64,192,147170,1,0,0:0:0:0:
448,192,147256,1,0,0:0:0:0:
64,192,147342,1,0,0:0:0:0:
448,192,147427,1,0,0:0:0:0:
64,192,147513,1,0,0:0:0:0:
448,192,147599,1,0,0:0:0:0:
64,192,147685,1,0,0:0:0:0:
448,192,147770,1,0,0:0:0:0:
64,192,147856,1,0,0:0:0:0:
448,192,147942,1,0,0:0:0:0:
64,192,148027,1,0,0:0:0:0:
448,0,148113,128,0,149484:0:0:0:0:
320,192,148199,1,0,0:0:0:0:
192,192,148285,1,0,0:0:0:0:
64,192,148370,1,0,0:0:0:0:
320,192,148456,1,0,0:0:0:0:
192,192,148542,1,0,0:0:0:0:
64,192,148627,1,0,0:0:0:0:
320,192,148713,1,0,0:0:0:0:
192,192,148799,1,0,0:0:0:0:
64,192,148885,1,0,0:0:0:0:
320,192,148970,1,0,0:0:0:0:
192,192,149056,1,0,0:0:0:0:
64,192,149142,1,0,0:0:0:0:
320,192,149227,1,0,0:0:0:0:
192,192,149313,1,0,0:0:0:0:
64,192,149399,1,0,0:0:0:0:
320,192,149485,1,0,0:0:0:0:
64,192,149570,1,0,0:0:0:0:
192,192,149656,1,0,0:0:0:0:
320,192,149742,1,0,0:0:0:0:
64,192,149827,1,0,0:0:0:0:
192,192,149913,1,0,0:0:0:0:
320,192,149999,1,0,0:0:0:0:
64,192,150085,1,0,0:0:0:0:
192,192,150170,1,0,0:0:0:0:
320,192,150256,1,0,0:0:0:0:
64,192,150342,1,0,0:0:0:0:
192,192,150427,1,0,0:0:0:0:
320,192,150513,1,0,0:0:0:0:
64,192,150599,1,0,0:0:0:0:
192,192,150685,1,0,0:0:0:0:
448,192,150770,1,0,0:0:0:0:
192,192,150856,1,0,0:0:0:0:
320,192,150942,1,0,0:0:0:0:
448,192,151027,1,0,0:0:0:0:
320,192,151113,1,0,0:0:0:0:
64,192,151199,1,0,0:0:0:0:
192,192,151285,1,0,0:0:0:0:
320,192,151370,1,0,0:0:0:0:
448,192,151456,1,0,0:0:0:0:
192,192,151542,1,0,0:0:0:0:
448,192,151627,1,0,0:0:0:0:
64,192,151713,1,0,0:0:0:0:
192,192,151799,1,0,0:0:0:0:
320,192,151885,1,0,0:0:0:0:
192,192,151970,1,0,0:0:0:0:
448,192,152056,1,0,0:0:0:0:
64,192,152142,1,0,0:0:0:0:
320,192,152227,1,0,0:0:0:0:
448,192,152313,1,0,0:0:0:0:
192,192,152399,1,0,0:0:0:0:
448,192,152485,1,0,0:0:0:0:
192,192,152570,1,0,0:0:0:0:
320,192,152656,1,0,0:0:0:0:
64,192,152742,1,0,0:0:0:0:
448,192,152827,1,0,0:0:0:0:
320,192,152913,1,0,0:0:0:0:
192,192,152999,1,0,0:0:0:0:
64,192,153085,1,0,0:0:0:0:
192,192,153170,1,0,0:0:0:0:
320,192,153256,1,0,0:0:0:0:
192,192,153342,1,0,0:0:0:0:
448,192,153427,1,0,0:0:0:0:
320,192,153513,1,0,0:0:0:0:
192,192,153599,1,0,0:0:0:0:
320,192,153685,1,0,0:0:0:0:
64,192,153770,1,0,0:0:0:0:
192,192,153856,1,0,0:0:0:0:
320,192,153942,1,0,0:0:0:0:
448,192,154027,1,0,0:0:0:0:
320,192,154113,1,0,0:0:0:0:
192,192,154199,1,0,0:0:0:0:
320,192,154285,1,0,0:0:0:0:
64,192,154370,1,0,0:0:0:0:
192,192,154456,1,0,0:0:0:0:
320,192,154542,1,0,0:0:0:0:
192,192,154627,1,0,0:0:0:0:
448,192,154713,1,0,0:0:0:0:
320,192,154799,1,0,0:0:0:0:
192,192,154885,1,0,0:0:0:0:
320,192,154970,1,0,0:0:0:0:
64,192,155056,1,0,0:0:0:0:
192,192,155142,1,0,0:0:0:0:
320,192,155227,1,0,0:0:0:0:
448,192,155313,1,0,0:0:0:0:
192,192,155399,1,0,0:0:0:0:
448,192,155485,1,0,0:0:0:0:
320,192,155570,1,0,0:0:0:0:
192,192,155656,1,0,0:0:0:0:
448,192,155742,1,0,0:0:0:0:
64,192,155827,1,0,0:0:0:0:
320,192,155913,1,0,0:0:0:0:
192,192,155999,1,0,0:0:0:0:
448,192,156085,1,0,0:0:0:0:
64,192,156170,1,0,0:0:0:0:
320,192,156256,1,0,0:0:0:0:
448,192,156342,1,0,0:0:0:0:
192,192,156427,1,0,0:0:0:0:
448,192,156513,1,0,0:0:0:0:
64,192,156599,1,0,0:0:0:0:
320,192,156685,1,0,0:0:0:0:
448,192,156770,1,0,0:0:0:0:
64,192,156856,1,0,0:0:0:0:
320,192,156942,1,0,0:0:0:0:
448,192,157027,1,0,0:0:0:0:
192,192,157113,1,0,0:0:0:0:
320,192,157199,1,0,0:0:0:0:
448,192,157285,1,0,0:0:0:0:
320,192,157370,1,0,0:0:0:0:
448,192,157456,1,0,0:0:0:0:
320,192,157542,1,0,0:0:0:0:
192,192,157627,1,0,0:0:0:0:
64,192,157713,1,0,0:0:0:0:
192,192,157799,1,0,0:0:0:0:
320,192,157885,1,0,0:0:0:0:
64,192,157970,1,0,0:0:0:0:
448,192,158056,1,0,0:0:0:0:
320,192,158142,1,0,0:0:0:0:
192,192,158227,1,0,0:0:0:0:
64,192,158313,1,0,0:0:0:0:
320,192,158399,1,0,0:0:0:0:
64,192,158485,1,0,0:0:0:0:
320,192,158570,1,0,0:0:0:0:
192,192,158656,1,0,0:0:0:0:
448,192,158742,1,0,0:0:0:0:
320,192,158827,1,0,0:0:0:0:
192,192,158913,1,0,0:0:0:0:
64,192,158999,1,0,0:0:0:0:
192,192,159085,1,0,0:0:0:0:
192,192,159256,1,0,0:0:0:0:
320,192,159342,1,0,0:0:0:0:
448,192,159427,1,0,0:0:0:0:
64,192,159599,1,0,0:0:0:0:
192,192,159685,1,0,0:0:0:0:
320,192,159770,1,0,0:0:0:0:
64,192,159942,1,0,0:0:0:0:
448,192,160027,1,0,0:0:0:0:
320,192,160113,1,0,0:0:0:0:
192,192,160199,1,0,0:0:0:0:
64,192,160285,1,0,0:0:0:0:
192,192,160370,1,0,0:0:0:0:
320,192,160456,1,0,0:0:0:0:
192,192,160627,1,0,0:0:0:0:
320,192,160713,1,0,0:0:0:0:
448,192,160799,1,0,0:0:0:0:
64,192,160970,1,0,0:0:0:0:
320,192,161056,1,0,0:0:0:0:
192,192,161142,1,0,0:0:0:0:
192,192,161313,1,0,0:0:0:0:
64,192,161399,1,0,0:0:0:0:
320,192,161485,1,0,0:0:0:0:
192,192,161570,1,0,0:0:0:0:
448,192,161656,1,0,0:0:0:0:
320,192,161742,1,0,0:0:0:0:
192,192,161828,1,0,0:0:0:0:
192,192,161999,1,0,0:0:0:0:
64,192,162085,1,0,0:0:0:0:
320,192,162170,1,0,0:0:0:0:
320,192,162342,1,0,0:0:0:0:
448,192,162428,1,0,0:0:0:0:
192,192,162513,1,0,0:0:0:0:
192,192,162685,1,0,0:0:0:0:
64,192,162770,1,0,0:0:0:0:
320,192,162856,1,0,0:0:0:0:
192,192,162942,1,0,0:0:0:0:
448,192,163028,1,0,0:0:0:0:
320,192,163113,1,0,0:0:0:0:
192,192,163199,1,0,0:0:0:0:
64,192,163370,1,0,0:0:0:0:
320,192,163456,1,0,0:0:0:0:
448,192,163542,1,0,0:0:0:0:
64,192,163713,1,0,0:0:0:0:
192,192,163799,1,0,0:0:0:0:
448,192,163885,1,0,0:0:0:0:
64,192,164056,1,0,0:0:0:0:
320,192,164142,1,0,0:0:0:0:
448,192,164228,1,0,0:0:0:0:
64,192,164313,1,0,0:0:0:0:
192,192,164399,1,0,0:0:0:0:
448,192,164485,1,0,0:0:0:0:
64,0,164570,128,0,164741:0:0:0:0:
192,192,164656,1,0,0:0:0:0:
448,0,164742,128,0,164914:0:0:0:0:
320,192,164828,1,0,0:0:0:0:
64,0,164913,128,0,165084:0:0:0:0:
192,192,164999,1,0,0:0:0:0:
448,0,165085,128,0,165257:0:0:0:0:
320,192,165170,1,0,0:0:0:0:
64,0,165256,128,0,165427:0:0:0:0:
192,192,165342,1,0,0:0:0:0:
448,0,165428,128,0,165599:0:0:0:0:
320,192,165513,1,0,0:0:0:0:
64,0,165599,128,0,165771:0:0:0:0:
192,192,165685,1,0,0:0:0:0:
448,0,165770,128,0,165941:0:0:0:0:
320,192,165856,1,0,0:0:0:0:
64,0,165942,128,0,166114:0:0:0:0:
448,192,166028,1,0,0:0:0:0:
192,0,166113,128,0,166284:0:0:0:0:
320,192,166199,1,0,0:0:0:0:
64,0,166285,128,0,166457:0:0:0:0:
448,192,166370,1,0,0:0:0:0:
192,0,166456,128,0,166627:0:0:0:0:
320,192,166542,1,0,0:0:0:0:
64,0,166628,128,0,166799:0:0:0:0:
448,192,166713,1,0,0:0:0:0:
192,0,166799,128,0,166971:0:0:0:0:
320,192,166885,1,0,0:0:0:0:
64,0,166970,128,0,167141:0:0:0:0:
448,192,167056,1,0,0:0:0:0:
192,0,167142,128,0,167314:0:0:0:0:
320,192,167228,1,0,0:0:0:0:
64,0,167313,128,0,167484:0:0:0:0:
192,192,167399,1,0,0:0:0:0:
448,0,167485,128,0,167657:0:0:0:0:
320,192,167570,1,0,0:0:0:0:
64,0,167656,128,0,167827:0:0:0:0:
192,192,167742,1,0,0:0:0:0:
448,0,167828,128,0,167999:0:0:0:0:
320,192,167913,1,0,0:0:0:0:
64,0,167999,128,0,168171:0:0:0:0:
192,192,168085,1,0,0:0:0:0:
448,0,168170,128,0,168341:0:0:0:0:
320,192,168256,1,0,0:0:0:0:
64,0,168342,128,0,168514:0:0:0:0:
192,192,168428,1,0,0:0:0:0:
448,0,168513,128,0,168684:0:0:0:0:
320,192,168599,1,0,0:0:0:0:
192,192,168685,1,0,0:0:0:0:
64,0,168685,128,0,168857:0:0:0:0:
320,192,168856,1,0,0:0:0:0:
448,0,168856,128,0,169027:0:0:0:0:
320,192,169028,1,0,0:0:0:0:
192,0,169028,128,0,169199:0:0:0:0:
64,192,169199,1,0,0:0:0:0:
320,0,169199,128,0,169371:0:0:0:0:
192,192,169370,1,0,0:0:0:0:
448,0,169370,128,0,169541:0:0:0:0:
320,192,169542,1,0,0:0:0:0:
64,0,169542,128,0,169714:0:0:0:0:
192,192,169713,1,0,0:0:0:0:
320,0,169713,128,0,169884:0:0:0:0:
448,192,169885,1,0,0:0:0:0:
192,0,169885,128,0,170057:0:0:0:0:
64,192,170056,1,0,0:0:0:0:
320,0,170056,128,0,171256:0:0:0:0:
448,192,171256,1,0,0:0:0:0:
192,192,171342,1,0,0:0:0:0:
64,0,171428,128,0,172114:0:0:0:0:
320,0,172285,128,0,172414:0:0:0:0:
448,0,172370,128,0,172541:0:0:0:0:
192,0,172456,128,0,172713:0:0:0:0:
448,0,172628,128,0,173314:0:0:0:0:
320,0,172799,128,0,173314:0:0:0:0:
64,0,173313,128,0,173484:0:0:0:0:
320,0,173485,128,0,173657:0:0:0:0:
64,0,173656,128,0,173827:0:0:0:0:
320,0,173828,128,0,174000:0:0:0:0:
192,0,173999,128,0,174170:0:0:0:0:
320,0,174170,128,0,174513:0:0:0:0:
192,0,174513,128,0,174856:0:0:0:0:
448,0,174685,128,0,174857:0:0:0:0:
64,0,174856,128,0,175027:0:0:0:0:
192,0,175028,128,0,175200:0:0:0:0:
320,0,175199,128,0,175370:0:0:0:0:
192,0,175370,128,0,175541:0:0:0:0:
320,0,175542,128,0,176057:0:0:0:0:
448,0,176056,128,0,176570:0:0:0:0:
192,0,176570,128,0,176913:0:0:0:0:
64,0,176913,128,0,177084:0:0:0:0:
320,0,177085,128,0,177257:0:0:0:0:
64,0,177256,128,0,177427:0:0:0:0:
192,0,177428,128,0,177600:0:0:0:0:
64,0,177599,128,0,177941:0:0:0:0:
320,0,177942,128,0,178114:0:0:0:0:
448,0,178113,128,0,178284:0:0:0:0:
192,0,178285,128,0,178971:0:0:0:0:
64,0,178970,128,0,179656:0:0:0:0:
320,192,179228,1,0,0:0:0:0:
192,192,179313,1,0,0:0:0:0:
448,192,179399,1,0,0:0:0:0:
320,192,179485,1,0,0:0:0:0:
192,192,179570,1,0,0:0:0:0:
320,0,179656,128,0,180341:0:0:0:0:
192,0,179828,128,0,180000:0:0:0:0:
64,0,179999,128,0,180170:0:0:0:0:
448,0,180170,128,0,180341:0:0:0:0:
192,0,180342,128,0,180514:0:0:0:0:
64,0,180513,128,0,180684:0:0:0:0:
320,0,180685,128,0,180857:0:0:0:0:
192,0,180856,128,0,181027:0:0:0:0:
448,192,181028,1,0,0:0:0:0:
64,0,181028,128,0,182228:0:0:0:0:
448,192,181370,1,0,0:0:0:0:
448,192,181713,1,0,0:0:0:0:
448,192,182056,1,0,0:0:0:0:
448,192,182228,1,0,0:0:0:0:
320,192,182313,1,0,0:0:0:0:
448,192,182399,1,0,0:0:0:0:
192,0,182399,128,0,183256:0:0:0:0:
448,192,182742,1,0,0:0:0:0:
448,192,183085,1,0,0:0:0:0:
320,0,183256,128,0,183427:0:0:0:0:
448,0,183428,128,0,183600:0:0:0:0:
320,0,183599,128,0,183770:0:0:0:0:
448,192,183770,1,0,0:0:0:0:
192,0,183770,128,0,185141:0:0:0:0:
448,192,184113,1,0,0:0:0:0:
448,192,184456,1,0,0:0:0:0:
64,0,184456,128,0,184541:0:0:0:0:
64,0,184628,128,0,184800:0:0:0:0:
448,192,184799,1,0,0:0:0:0:
320,0,184799,128,0,184970:0:0:0:0:
448,0,184971,128,0,185142:0:0:0:0:
320,0,185142,128,0,185485:0:0:0:0:
448,192,185485,1,0,0:0:0:0:
192,0,185485,128,0,186514:0:0:0:0:
448,0,185828,128,0,186000:0:0:0:0:
320,0,185999,128,0,186170:0:0:0:0:
448,192,186171,1,0,0:0:0:0:
64,0,186171,128,0,186342:0:0:0:0:
320,0,186342,128,0,186514:0:0:0:0:
448,192,186513,1,0,0:0:0:0:
64,0,186513,128,0,186856:0:0:0:0:
448,0,187028,128,0,187542:0:0:0:0:
192,0,187542,128,0,187885:0:0:0:0:
448,192,187885,1,0,0:0:0:0:
64,0,187885,128,0,188057:0:0:0:0:
320,0,188056,128,0,188227:0:0:0:0:
448,192,188228,1,0,0:0:0:0:
64,0,188228,128,0,188400:0:0:0:0:
192,0,188399,128,0,188570:0:0:0:0:
448,192,188571,1,0,0:0:0:0:
64,0,188571,128,0,188914:0:0:0:0:
448,192,188913,1,0,0:0:0:0:
320,0,188913,128,0,189084:0:0:0:0:
448,0,189085,128,0,189257:0:0:0:0:
192,0,189256,128,0,189941:0:0:0:0:
448,192,189599,1,0,0:0:0:0:
448,192,189942,1,0,0:0:0:0:
64,0,189942,128,0,190628:0:0:0:0:
448,192,190285,1,0,0:0:0:0:
448,192,190628,1,0,0:0:0:0:
320,0,190628,128,0,191314:0:0:0:0:
192,0,190799,128,0,190970:0:0:0:0:
448,192,190971,1,0,0:0:0:0:
64,0,190971,128,0,191142:0:0:0:0:
448,0,191142,128,0,191314:0:0:0:0:
192,0,191313,128,0,191484:0:0:0:0:
64,0,191485,128,0,191657:0:0:0:0:
448,192,191656,1,0,0:0:0:0:
320,0,191656,128,0,191827:0:0:0:0:
192,0,191828,128,0,192000:0:0:0:0:
448,192,191999,1,0,0:0:0:0:
64,0,191999,128,0,196642:0:0:0:0:
448,192,202300,5,0,0:0:0:0:
192,192,202386,1,0,0:0:0:0:
320,192,202472,1,0,0:0:0:0:
64,192,202557,1,0,0:0:0:0:
320,192,202643,1,0,0:0:0:0:
192,192,202729,1,0,0:0:0:0:
320,192,202814,1,0,0:0:0:0:
448,192,202900,1,0,0:0:0:0:
64,192,202986,1,0,0:0:0:0:
320,192,202986,1,0,0:0:0:0:
192,192,203157,1,0,0:0:0:0:
192,192,203329,1,0,0:0:0:0:
64,192,203500,1,0,0:0:0:0:
192,192,203672,1,0,0:0:0:0:
320,192,203843,1,0,0:0:0:0:
448,192,204014,1,0,0:0:0:0:
320,192,204186,1,0,0:0:0:0:
192,192,204357,1,0,0:0:0:0:
64,192,204529,1,0,0:0:0:0:
192,192,204700,1,0,0:0:0:0:
192,192,204872,1,0,0:0:0:0:
64,192,205043,1,0,0:0:0:0:
448,192,205214,1,0,0:0:0:0:
320,192,205386,1,0,0:0:0:0:
448,192,205557,1,0,0:0:0:0:
192,192,205729,1,0,0:0:0:0:
320,192,205900,1,0,0:0:0:0:
320,192,206072,1,0,0:0:0:0:
64,192,206243,1,0,0:0:0:0:
320,192,206414,1,0,0:0:0:0:
192,192,206586,1,0,0:0:0:0:
192,192,206757,1,0,0:0:0:0:
320,192,206929,1,0,0:0:0:0:
192,192,207100,1,0,0:0:0:0:
320,192,207272,1,0,0:0:0:0:
320,192,207443,1,0,0:0:0:0:
448,192,207614,1,0,0:0:0:0:
320,192,207786,1,0,0:0:0:0:
448,192,207957,1,0,0:0:0:0:
192,192,208129,1,0,0:0:0:0:
320,192,208300,1,0,0:0:0:0:
448,192,208472,1,0,0:0:0:0:
64,192,208814,1,0,0:0:0:0:
192,192,208814,1,0,0:0:0:0:
448,192,208986,1,0,0:0:0:0:
448,192,209329,1,0,0:0:0:0:
64,192,209500,1,0,0:0:0:0:
192,192,209500,1,0,0:0:0:0:
448,192,209672,1,0,0:0:0:0:
448,192,209843,1,0,0:0:0:0:
64,192,210186,1,0,0:0:0:0:
192,192,210186,1,0,0:0:0:0:
448,192,210357,1,0,0:0:0:0:
64,192,210443,1,0,0:0:0:0:
64,192,210614,1,0,0:0:0:0:
192,192,210700,1,0,0:0:0:0:
320,192,210872,1,0,0:0:0:0:
448,192,210957,1,0,0:0:0:0:
320,192,211043,1,0,0:0:0:0:
192,192,211129,1,0,0:0:0:0:
64,192,211214,1,0,0:0:0:0:
320,192,211557,1,0,0:0:0:0:
448,192,211557,1,0,0:0:0:0:
64,192,211729,1,0,0:0:0:0:
64,192,212072,1,0,0:0:0:0:
320,192,212243,1,0,0:0:0:0:
448,192,212243,1,0,0:0:0:0:
320,192,212414,1,0,0:0:0:0:
320,192,212586,1,0,0:0:0:0:
192,192,212929,1,0,0:0:0:0:
320,192,212929,1,0,0:0:0:0:
192,192,213100,1,0,0:0:0:0:
192,192,213443,1,0,0:0:0:0:
320,192,213614,1,0,0:0:0:0:
448,192,213700,1,0,0:0:0:0:
64,192,213786,1,0,0:0:0:0:
320,192,213872,1,0,0:0:0:0:
192,192,213957,1,0,0:0:0:0:
192,192,214300,1,0,0:0:0:0:
192,192,214643,1,0,0:0:0:0:
192,192,214986,1,0,0:0:0:0:
192,192,215329,1,0,0:0:0:0:
192,192,215500,1,0,0:0:0:0:
320,192,215672,1,0,0:0:0:0:
448,192,215672,1,0,0:0:0:0:
64,192,215843,1,0,0:0:0:0:
448,192,215929,1,0,0:0:0:0:
320,192,216100,1,0,0:0:0:0:
192,192,216186,1,0,0:0:0:0:
64,192,216357,1,0,0:0:0:0:
448,192,216443,1,0,0:0:0:0:
192,192,216529,1,0,0:0:0:0:
320,192,216614,1,0,0:0:0:0:
64,192,216700,1,0,0:0:0:0:
64,192,217043,1,0,0:0:0:0:
64,192,217386,1,0,0:0:0:0:
64,192,217729,1,0,0:0:0:0:
64,192,218072,1,0,0:0:0:0:
320,192,218414,1,0,0:0:0:0:
448,192,218414,1,0,0:0:0:0:
64,192,218586,1,0,0:0:0:0:
64,192,218929,1,0,0:0:0:0:
320,192,219100,1,0,0:0:0:0:
448,192,219100,1,0,0:0:0:0:
64,192,219272,1,0,0:0:0:0:
192,192,219443,1,0,0:0:0:0:
320,192,219529,1,0,0:0:0:0:
192,192,219615,1,0,0:0:0:0:
320,192,219786,1,0,0:0:0:0:
192,192,219872,1,0,0:0:0:0:
320,192,219957,1,0,0:0:0:0:
192,192,220129,1,0,0:0:0:0:
320,192,220215,1,0,0:0:0:0:
192,192,220300,1,0,0:0:0:0:
320,192,220472,1,0,0:0:0:0:
192,192,220557,1,0,0:0:0:0:
320,192,220643,1,0,0:0:0:0:
64,192,220815,1,0,0:0:0:0:
448,192,220900,1,0,0:0:0:0:
64,192,220986,1,0,0:0:0:0:
448,192,221157,1,0,0:0:0:0:
192,192,221243,1,0,0:0:0:0:
448,192,221329,1,0,0:0:0:0:
64,192,221500,1,0,0:0:0:0:
192,192,221586,1,0,0:0:0:0:
64,192,221672,1,0,0:0:0:0:
320,192,221843,1,0,0:0:0:0:
64,192,221929,1,0,0:0:0:0:
320,192,222015,1,0,0:0:0:0:
192,192,222186,1,0,0:0:0:0:
320,192,222272,1,0,0:0:0:0:
192,192,222357,1,0,0:0:0:0:
448,192,222529,1,0,0:0:0:0:
192,192,222615,1,0,0:0:0:0:
448,192,222700,1,0,0:0:0:0:
64,192,222872,1,0,0:0:0:0:
320,192,222957,1,0,0:0:0:0:
64,192,223043,1,0,0:0:0:0:
448,192,223215,1,0,0:0:0:0:
192,192,223300,1,0,0:0:0:0:
448,192,223386,1,0,0:0:0:0:
64,192,223557,1,0,0:0:0:0:
320,192,223643,1,0,0:0:0:0:
192,192,223729,1,0,0:0:0:0:
448,192,223815,1,0,0:0:0:0:
64,192,223900,1,0,0:0:0:0:
320,192,223986,1,0,0:0:0:0:
192,192,224072,1,0,0:0:0:0:
448,192,224157,1,0,0:0:0:0:
320,192,224243,1,0,0:0:0:0:
64,192,224328,1,0,0:0:0:0:
448,192,224414,1,0,0:0:0:0:
320,192,224500,1,0,0:0:0:0:
192,192,224586,1,0,0:0:0:0:
448,192,224671,1,0,0:0:0:0:
64,192,224757,1,0,0:0:0:0:
320,192,224843,1,0,0:0:0:0:
192,192,224928,1,0,0:0:0:0:
