osu file format v12

[General]
AudioFilename: Dimrain47 Infernoplex.mp3
AudioLeadIn: 0
PreviewTime: -1
Countdown: 1
SampleSet: Soft
StackLeniency: 0.7
Mode: 3
LetterboxInBreaks: 1
SpecialStyle: 1
WidescreenStoryboard: 0

[Editor]
DistanceSpacing: 0.83
BeatDivisor: 4
GridSize: 32

[Metadata]
Title:Infernoplex
TitleUnicode:Infernoplex
Artist:Dimrain47
ArtistUnicode:Dimrain47
Creator:--Hitsugaya--
Version:4K Challenge
Source:Dimrain47
Tags:
BeatmapID:327863
BeatmapSetID:129828

[Difficulty]
HPDrainRate:8
CircleSize:4
OverallDifficulty:8
ApproachRate:5
SliderMultiplier:1.4
SliderTickRate:1

[Events]
//Background and Video events
0,0,"Infernoplex_by_AC1colossus.png",0,0
//Break Periods
//Storyboard Layer 0 (Background)
//Storyboard Layer 1 (Fail)
//Storyboard Layer 2 (Pass)
//Storyboard Layer 3 (Foreground)
//Storyboard Sound Samples
//Background Colour Transformations
3,100,163,162,255

[TimingPoints]
1448,342.857142857143,4,2,0,0,1,0
39505,-100,4,2,0,0,0,1
45333,-100,4,2,0,0,0,0
93333,-100,4,2,0,0,0,1
104305,-100,4,2,0,0,0,0
146819,-100,4,2,0,0,0,1
170133,-100,4,2,0,0,0,0

[HitObjects]
448,192,1448,1,0,0:0:0:0:
192,192,1448,1,0,0:0:0:0:
64,192,1619,1,0,0:0:0:0:
320,192,1790,1,0,0:0:0:0:
448,192,1962,1,0,0:0:0:0:
320,192,2133,1,0,0:0:0:0:
192,192,2305,1,0,0:0:0:0:
64,192,2476,1,0,0:0:0:0:
448,192,2648,1,0,0:0:0:0:
192,192,2819,1,0,0:0:0:0:
448,192,2990,1,0,0:0:0:0:
64,192,3162,1,0,0:0:0:0:
192,192,3333,1,0,0:0:0:0:
64,192,3505,1,0,0:0:0:0:
320,192,3676,1,0,0:0:0:0:
64,192,3848,1,0,0:0:0:0:
448,192,4019,1,0,0:0:0:0:
192,192,4190,1,0,0:0:0:0:
448,192,4362,1,0,0:0:0:0:
320,192,4533,1,0,0:0:0:0:
64,192,4705,1,0,0:0:0:0:
448,192,4876,1,0,0:0:0:0:
64,192,5048,1,0,0:0:0:0:
192,192,5219,1,0,0:0:0:0:
448,192,5390,1,0,0:0:0:0:
192,192,5562,1,0,0:0:0:0:
320,192,5733,1,0,0:0:0:0:
64,192,5905,1,0,0:0:0:0:
448,192,6076,1,0,0:0:0:0:
192,192,6248,1,0,0:0:0:0:
64,192,6419,1,0,0:0:0:0:
448,192,6590,1,0,0:0:0:0:
320,192,6762,1,0,0:0:0:0:
448,192,6933,1,0,0:0:0:0:
192,192,6933,1,0,0:0:0:0:
320,192,7105,1,0,0:0:0:0:
192,192,7276,1,0,0:0:0:0:
64,192,7276,1,0,0:0:0:0:
448,192,7448,1,0,0:0:0:0:
320,192,7619,1,0,0:0:0:0:
448,192,7790,1,0,0:0:0:0:
192,192,7962,1,0,0:0:0:0:
64,192,7962,1,0,0:0:0:0:
320,192,8133,1,0,0:0:0:0:
320,192,8305,1,0,0:0:0:0:
448,192,8476,1,0,0:0:0:0:
64,192,8648,1,0,0:0:0:0:
320,192,8648,1,0,0:0:0:0:
192,192,8819,1,0,0:0:0:0:
448,192,8990,1,0,0:0:0:0:
192,192,9162,1,0,0:0:0:0:
64,192,9333,1,0,0:0:0:0:
192,192,9333,1,0,0:0:0:0:
192,192,9505,1,0,0:0:0:0:
320,192,9590,1,0,0:0:0:0:
448,192,9590,1,0,0:0:0:0:
64,192,9676,1,0,0:0:0:0:
192,192,9848,1,0,0:0:0:0:
320,192,10019,1,0,0:0:0:0:
64,192,10019,1,0,0:0:0:0:
192,192,10190,1,0,0:0:0:0:
448,192,10362,1,0,0:0:0:0:
64,192,10533,1,0,0:0:0:0:
192,192,10705,1,0,0:0:0:0:
320,192,10705,1,0,0:0:0:0:
448,192,10876,1,0,0:0:0:0:
64,192,11048,1,0,0:0:0:0:
192,192,11048,1,0,0:0:0:0:
320,192,11133,1,0,0:0:0:0:
448,192,11219,1,0,0:0:0:0:
64,192,11305,1,0,0:0:0:0:
192,192,11390,1,0,0:0:0:0:
320,192,11390,1,0,0:0:0:0:
448,192,11476,1,0,0:0:0:0:
320,192,11562,1,0,0:0:0:0:
192,192,11648,1,0,0:0:0:0:
448,192,11733,1,0,0:0:0:0:
64,192,11733,1,0,0:0:0:0:
192,192,11819,1,0,0:0:0:0:
320,192,11905,1,0,0:0:0:0:
448,192,11990,1,0,0:0:0:0:
192,192,12076,1,0,0:0:0:0:
64,192,12076,1,0,0:0:0:0:
448,192,12162,1,0,0:0:0:0:
320,192,12248,1,0,0:0:0:0:
448,192,12333,1,0,0:0:0:0:
64,192,12419,1,0,0:0:0:0:
192,192,12419,1,0,0:0:0:0:
320,192,12505,1,0,0:0:0:0:
320,192,12590,1,0,0:0:0:0:
64,192,12676,1,0,0:0:0:0:
448,192,12762,1,0,0:0:0:0:
192,192,12762,1,0,0:0:0:0:
320,192,12848,1,0,0:0:0:0:
64,192,12933,1,0,0:0:0:0:
192,192,13019,1,0,0:0:0:0:
320,192,13105,1,0,0:0:0:0:
448,192,13190,1,0,0:0:0:0:
64,192,13276,1,0,0:0:0:0:
320,192,13276,1,0,0:0:0:0:
192,192,13362,1,0,0:0:0:0:
64,192,13448,1,0,0:0:0:0:
320,192,13448,1,0,0:0:0:0:
448,192,13533,1,0,0:0:0:0:
192,192,13619,1,0,0:0:0:0:
64,192,13705,1,0,0:0:0:0:
320,192,13790,1,0,0:0:0:0:
448,192,13790,1,0,0:0:0:0:
192,192,13876,1,0,0:0:0:0:
64,192,13962,1,0,0:0:0:0:
320,192,13962,1,0,0:0:0:0:
448,192,14048,1,0,0:0:0:0:
192,192,14133,1,0,0:0:0:0:
64,192,14133,1,0,0:0:0:0:
320,192,14219,1,0,0:0:0:0:
64,192,14305,1,0,0:0:0:0:
448,192,14390,1,0,0:0:0:0:
192,192,14476,1,0,0:0:0:0:
64,192,14562,1,0,0:0:0:0:
192,192,14648,1,0,0:0:0:0:
320,192,14648,1,0,0:0:0:0:
448,192,14733,1,0,0:0:0:0:
64,192,14819,1,0,0:0:0:0:
192,192,14819,1,0,0:0:0:0:
320,192,14905,1,0,0:0:0:0:
448,192,14990,1,0,0:0:0:0:
192,192,14990,1,0,0:0:0:0:
64,192,15076,1,0,0:0:0:0:
320,192,15076,1,0,0:0:0:0:
192,192,15162,1,0,0:0:0:0:
448,192,15162,1,0,0:0:0:0:
320,192,15248,1,0,0:0:0:0:
192,192,15333,1,0,0:0:0:0:
64,192,15333,1,0,0:0:0:0:
448,192,15419,1,0,0:0:0:0:
320,192,15505,1,0,0:0:0:0:
192,192,15505,1,0,0:0:0:0:
64,192,15590,1,0,0:0:0:0:
448,192,15676,1,0,0:0:0:0:
320,192,15762,1,0,0:0:0:0:
64,192,15848,1,0,0:0:0:0:
192,192,15933,1,0,0:0:0:0:
320,192,16019,1,0,0:0:0:0:
192,192,16105,1,0,0:0:0:0:
448,192,16190,1,0,0:0:0:0:
64,192,16190,1,0,0:0:0:0:
320,192,16276,1,0,0:0:0:0:
192,192,16362,1,0,0:0:0:0:
320,192,16448,1,0,0:0:0:0:
64,192,16533,1,0,0:0:0:0:
448,192,16533,1,0,0:0:0:0:
192,192,16619,1,0,0:0:0:0:
64,192,16705,1,0,0:0:0:0:
320,192,16705,1,0,0:0:0:0:
192,192,16790,1,0,0:0:0:0:
320,192,16876,1,0,0:0:0:0:
448,192,16876,1,0,0:0:0:0:
192,192,16962,1,0,0:0:0:0:
64,192,17048,1,0,0:0:0:0:
192,192,17133,1,0,0:0:0:0:
320,192,17219,1,0,0:0:0:0:
64,192,17305,1,0,0:0:0:0:
448,192,17390,1,0,0:0:0:0:
192,192,17390,1,0,0:0:0:0:
64,192,17476,1,0,0:0:0:0:
320,192,17562,1,0,0:0:0:0:
448,192,17562,1,0,0:0:0:0:
64,192,17648,1,0,0:0:0:0:
192,192,17733,1,0,0:0:0:0:
320,192,17733,1,0,0:0:0:0:
64,192,17819,1,0,0:0:0:0:
448,192,17819,1,0,0:0:0:0:
192,192,17905,1,0,0:0:0:0:
320,192,17905,1,0,0:0:0:0:
448,192,17990,1,0,0:0:0:0:
320,192,18076,1,0,0:0:0:0:
64,192,18076,1,0,0:0:0:0:
192,192,18162,1,0,0:0:0:0:
448,192,18248,1,0,0:0:0:0:
320,192,18248,1,0,0:0:0:0:
64,192,18333,1,0,0:0:0:0:
192,192,18419,1,0,0:0:0:0:
448,192,18505,1,0,0:0:0:0:
320,192,18590,1,0,0:0:0:0:
448,192,18676,1,0,0:0:0:0:
64,192,18762,1,0,0:0:0:0:
320,192,18762,1,0,0:0:0:0:
192,192,18848,1,0,0:0:0:0:
320,192,18933,1,0,0:0:0:0:
448,192,18933,1,0,0:0:0:0:
64,192,19019,1,0,0:0:0:0:
192,192,19105,1,0,0:0:0:0:
448,192,19190,1,0,0:0:0:0:
320,192,19276,1,0,0:0:0:0:
64,192,19276,1,0,0:0:0:0:
192,192,19362,1,0,0:0:0:0:
64,192,19448,1,0,0:0:0:0:
448,192,19448,1,0,0:0:0:0:
192,192,19533,1,0,0:0:0:0:
320,192,19619,1,0,0:0:0:0:
448,192,19619,1,0,0:0:0:0:
64,192,19705,1,0,0:0:0:0:
192,192,19790,1,0,0:0:0:0:
448,192,19876,1,0,0:0:0:0:
320,192,19962,1,0,0:0:0:0:
64,192,20048,1,0,0:0:0:0:
192,192,20133,1,0,0:0:0:0:
448,192,20133,1,0,0:0:0:0:
320,192,20219,1,0,0:0:0:0:
320,192,20305,1,0,0:0:0:0:
64,192,20305,1,0,0:0:0:0:
192,192,20390,1,0,0:0:0:0:
448,192,20476,1,0,0:0:0:0:
320,192,20476,1,0,0:0:0:0:
64,192,20562,1,0,0:0:0:0:
192,192,20562,1,0,0:0:0:0:
320,192,20648,1,0,0:0:0:0:
448,192,20648,1,0,0:0:0:0:
192,192,20733,1,0,0:0:0:0:
192,192,20819,1,0,0:0:0:0:
64,192,20819,1,0,0:0:0:0:
448,192,20905,1,0,0:0:0:0:
320,192,20990,1,0,0:0:0:0:
64,192,20990,1,0,0:0:0:0:
448,192,21076,1,0,0:0:0:0:
192,192,21162,1,0,0:0:0:0:
64,192,21248,1,0,0:0:0:0:
448,192,21333,1,0,0:0:0:0:
320,192,21419,1,0,0:0:0:0:
320,192,21505,1,0,0:0:0:0:
64,192,21505,1,0,0:0:0:0:
192,192,21590,1,0,0:0:0:0:
64,192,21676,1,0,0:0:0:0:
448,192,21676,1,0,0:0:0:0:
320,192,21762,1,0,0:0:0:0:
64,192,21848,1,0,0:0:0:0:
192,192,21933,1,0,0:0:0:0:
448,192,22019,1,0,0:0:0:0:
320,192,22019,1,0,0:0:0:0:
192,192,22105,1,0,0:0:0:0:
192,192,22190,1,0,0:0:0:0:
64,192,22190,1,0,0:0:0:0:
448,192,22276,1,0,0:0:0:0:
320,192,22362,1,0,0:0:0:0:
192,192,22362,1,0,0:0:0:0:
448,192,22448,1,0,0:0:0:0:
64,192,22533,1,0,0:0:0:0:
192,192,22619,1,0,0:0:0:0:
320,192,22705,1,0,0:0:0:0:
448,192,22790,1,0,0:0:0:0:
320,192,22876,1,0,0:0:0:0:
192,192,22876,1,0,0:0:0:0:
64,192,22962,1,0,0:0:0:0:
448,192,23048,1,0,0:0:0:0:
192,192,23048,1,0,0:0:0:0:
320,192,23133,1,0,0:0:0:0:
64,192,23133,1,0,0:0:0:0:
192,192,23219,1,0,0:0:0:0:
448,192,23219,1,0,0:0:0:0:
320,192,23305,1,0,0:0:0:0:
64,192,23305,1,0,0:0:0:0:
192,192,23390,1,0,0:0:0:0:
448,192,23390,1,0,0:0:0:0:
64,192,23390,128,0,23648:0:0:0:0:
64,192,23733,128,0,23990:0:0:0:0:
64,192,24076,128,0,24333:0:0:0:0:
64,192,24419,128,0,24676:0:0:0:0:
320,192,24762,1,0,0:0:0:0:
320,192,24933,1,0,0:0:0:0:
448,192,25105,1,0,0:0:0:0:
320,192,25276,1,0,0:0:0:0:
192,192,25448,1,0,0:0:0:0:
64,192,25619,1,0,0:0:0:0:
192,192,25790,1,0,0:0:0:0:
320,192,25962,1,0,0:0:0:0:
448,192,26133,128,0,26390:0:0:0:0:
448,192,26476,128,0,26733:0:0:0:0:
448,192,26819,128,0,27076:0:0:0:0:
448,192,27162,128,0,27419:0:0:0:0:
64,192,27505,1,0,0:0:0:0:
320,192,27676,1,0,0:0:0:0:
64,192,27848,1,0,0:0:0:0:
448,192,28019,1,0,0:0:0:0:
192,192,28190,1,0,0:0:0:0:
320,192,28362,1,0,0:0:0:0:
320,192,28533,1,0,0:0:0:0:
192,192,28619,1,0,0:0:0:0:
448,192,28619,1,0,0:0:0:0:
320,192,28705,1,0,0:0:0:0:
64,192,28705,1,0,0:0:0:0:
448,192,28790,1,0,0:0:0:0:
64,192,28876,128,0,29133:0:0:0:0:
192,192,28876,128,0,29133:0:0:0:0:
320,192,29048,1,0,0:0:0:0:
448,192,29048,1,0,0:0:0:0:
64,192,29219,128,0,29476:0:0:0:0:
192,192,29219,128,0,29476:0:0:0:0:
320,192,29219,1,0,0:0:0:0:
448,192,29219,1,0,0:0:0:0:
64,192,29562,128,0,29819:0:0:0:0:
192,192,29562,128,0,29819:0:0:0:0:
320,192,29733,1,0,0:0:0:0:
448,192,29733,1,0,0:0:0:0:
64,192,29905,128,0,30162:0:0:0:0:
192,192,29905,128,0,30162:0:0:0:0:
320,192,29905,1,0,0:0:0:0:
448,192,29905,1,0,0:0:0:0:
448,192,30248,1,0,0:0:0:0:
320,192,30248,1,0,0:0:0:0:
64,192,30419,1,0,0:0:0:0:
320,192,30419,1,0,0:0:0:0:
192,192,30590,1,0,0:0:0:0:
448,192,30590,1,0,0:0:0:0:
320,192,30676,1,0,0:0:0:0:
192,192,30762,1,0,0:0:0:0:
64,192,30848,1,0,0:0:0:0:
448,192,30848,1,0,0:0:0:0:
320,192,30933,1,0,0:0:0:0:
192,192,31019,1,0,0:0:0:0:
64,192,31019,1,0,0:0:0:0:
448,192,31105,1,0,0:0:0:0:
320,192,31190,1,0,0:0:0:0:
192,192,31190,1,0,0:0:0:0:
64,192,31276,1,0,0:0:0:0:
448,192,31276,1,0,0:0:0:0:
192,192,31362,1,0,0:0:0:0:
320,192,31362,1,0,0:0:0:0:
448,192,31448,1,0,0:0:0:0:
64,192,31448,1,0,0:0:0:0:
192,192,31533,1,0,0:0:0:0:
320,192,31533,1,0,0:0:0:0:
448,192,31619,128,0,31876:0:0:0:0:
320,192,31619,128,0,31876:0:0:0:0:
64,192,31790,1,0,0:0:0:0:
192,192,31790,1,0,0:0:0:0:
448,192,31962,128,0,32219:0:0:0:0:
320,192,31962,128,0,32219:0:0:0:0:
64,192,31962,1,0,0:0:0:0:
192,192,31962,1,0,0:0:0:0:
448,192,32305,128,0,32562:0:0:0:0:
320,192,32305,128,0,32562:0:0:0:0:
64,192,32476,1,0,0:0:0:0:
192,192,32476,1,0,0:0:0:0:
448,192,32648,128,0,32905:0:0:0:0:
320,192,32648,128,0,32905:0:0:0:0:
64,192,32648,1,0,0:0:0:0:
192,192,32648,1,0,0:0:0:0:
64,192,32990,1,0,0:0:0:0:
192,192,32990,1,0,0:0:0:0:
448,192,33076,1,0,0:0:0:0:
320,192,33162,1,0,0:0:0:0:
64,192,33162,1,0,0:0:0:0:
192,192,33248,1,0,0:0:0:0:
64,192,33333,1,0,0:0:0:0:
320,192,33333,1,0,0:0:0:0:
192,192,33419,1,0,0:0:0:0:
320,192,33505,1,0,0:0:0:0:
448,192,33590,1,0,0:0:0:0:
320,192,33676,1,0,0:0:0:0:
192,192,33676,1,0,0:0:0:0:
64,192,33762,1,0,0:0:0:0:
192,192,33848,1,0,0:0:0:0:
448,192,33848,1,0,0:0:0:0:
320,192,33933,1,0,0:0:0:0:
192,192,34019,1,0,0:0:0:0:
448,192,34019,1,0,0:0:0:0:
320,192,34105,1,0,0:0:0:0:
64,192,34105,1,0,0:0:0:0:
192,192,34190,1,0,0:0:0:0:
448,192,34190,1,0,0:0:0:0:
320,192,34276,1,0,0:0:0:0:
64,192,34276,1,0,0:0:0:0:
192,192,34362,1,0,0:0:0:0:
448,192,34362,1,0,0:0:0:0:
64,192,34533,1,0,0:0:0:0:
448,192,34705,1,0,0:0:0:0:
320,192,34705,1,0,0:0:0:0:
64,192,34876,1,0,0:0:0:0:
192,192,35048,1,0,0:0:0:0:
320,192,35219,1,0,0:0:0:0:
192,192,35390,1,0,0:0:0:0:
448,192,35390,1,0,0:0:0:0:
320,192,35562,1,0,0:0:0:0:
64,192,35733,1,0,0:0:0:0:
192,192,35905,1,0,0:0:0:0:
64,192,36076,1,0,0:0:0:0:
448,192,36076,1,0,0:0:0:0:
320,192,36248,1,0,0:0:0:0:
192,192,36419,1,0,0:0:0:0:
64,192,36590,1,0,0:0:0:0:
448,192,36762,1,0,0:0:0:0:
320,192,36762,1,0,0:0:0:0:
448,192,36933,1,0,0:0:0:0:
320,192,36933,1,0,0:0:0:0:
192,192,37019,1,0,0:0:0:0:
64,192,37019,1,0,0:0:0:0:
320,192,37105,1,0,0:0:0:0:
448,192,37105,1,0,0:0:0:0:
448,192,37276,1,0,0:0:0:0:
320,192,37448,1,0,0:0:0:0:
448,192,37448,1,0,0:0:0:0:
64,192,37619,1,0,0:0:0:0:
192,192,37790,1,0,0:0:0:0:
320,192,37962,1,0,0:0:0:0:
448,192,38133,1,0,0:0:0:0:
192,192,38133,1,0,0:0:0:0:
320,192,38305,1,0,0:0:0:0:
64,192,38476,1,0,0:0:0:0:
448,192,38648,1,0,0:0:0:0:
320,192,38819,1,0,0:0:0:0:
192,192,38819,1,0,0:0:0:0:
64,192,38990,1,0,0:0:0:0:
192,192,39162,1,0,0:0:0:0:
64,192,39333,1,0,0:0:0:0:
448,192,39505,1,0,0:0:0:0:
320,192,39505,1,0,0:0:0:0:
192,192,39505,1,0,0:0:0:0:
448,192,39676,1,0,0:0:0:0:
192,192,39676,1,0,0:0:0:0:
320,192,39762,1,0,0:0:0:0:
64,192,39762,1,0,0:0:0:0:
64,192,39848,1,0,0:0:0:0:
320,192,39848,1,0,0:0:0:0:
448,192,40019,1,0,0:0:0:0:
192,192,40190,1,0,0:0:0:0:
320,192,40190,1,0,0:0:0:0:
64,192,40362,1,0,0:0:0:0:
448,192,40533,1,0,0:0:0:0:
320,192,40705,1,0,0:0:0:0:
64,192,40876,1,0,0:0:0:0:
192,192,40876,1,0,0:0:0:0:
320,192,41048,1,0,0:0:0:0:
64,192,41048,1,0,0:0:0:0:
192,192,41133,1,0,0:0:0:0:
448,192,41133,1,0,0:0:0:0:
320,192,41219,1,0,0:0:0:0:
64,192,41219,1,0,0:0:0:0:
448,192,41390,1,0,0:0:0:0:
192,192,41562,1,0,0:0:0:0:
320,192,41562,1,0,0:0:0:0:
64,192,41733,1,0,0:0:0:0:
320,192,41733,1,0,0:0:0:0:
192,192,41819,1,0,0:0:0:0:
448,192,41819,1,0,0:0:0:0:
64,192,41905,1,0,0:0:0:0:
320,192,41905,1,0,0:0:0:0:
192,192,42076,1,0,0:0:0:0:
448,192,42248,1,0,0:0:0:0:
320,192,42248,1,0,0:0:0:0:
64,192,42419,1,0,0:0:0:0:
192,192,42505,1,0,0:0:0:0:
448,192,42590,1,0,0:0:0:0:
64,192,42590,1,0,0:0:0:0:
320,192,42676,1,0,0:0:0:0:
192,192,42762,1,0,0:0:0:0:
320,192,42848,1,0,0:0:0:0:
64,192,42933,1,0,0:0:0:0:
192,192,42933,1,0,0:0:0:0:
192,192,43019,1,0,0:0:0:0:
448,192,43105,1,0,0:0:0:0:
320,192,43190,1,0,0:0:0:0:
64,192,43276,1,0,0:0:0:0:
192,192,43362,1,0,0:0:0:0:
320,192,43448,1,0,0:0:0:0:
192,192,43619,1,0,0:0:0:0:
64,192,43619,1,0,0:0:0:0:
320,192,43705,1,0,0:0:0:0:
448,192,43790,1,0,0:0:0:0:
192,192,43876,1,0,0:0:0:0:
64,192,43962,1,0,0:0:0:0:
320,192,43962,1,0,0:0:0:0:
448,192,44048,1,0,0:0:0:0:
320,192,44133,1,0,0:0:0:0:
64,192,44219,1,0,0:0:0:0:
192,192,44305,1,0,0:0:0:0:
448,192,44390,1,0,0:0:0:0:
320,192,44476,1,0,0:0:0:0:
448,192,44562,1,0,0:0:0:0:
64,192,44648,1,0,0:0:0:0:
192,192,44733,1,0,0:0:0:0:
320,192,44733,128,0,44990:0:0:0:0:
64,192,44990,1,0,0:0:0:0:
192,192,44990,1,0,0:0:0:0:
448,192,45076,1,0,0:0:0:0:
320,192,45076,1,0,0:0:0:0:
192,192,45162,1,0,0:0:0:0:
64,192,45162,1,0,0:0:0:0:
320,192,45248,1,0,0:0:0:0:
448,192,45248,1,0,0:0:0:0:
192,192,45333,1,0,0:0:0:0:
64,192,45333,1,0,0:0:0:0:
448,192,45419,1,0,0:0:0:0:
320,192,45505,1,0,0:0:0:0:
64,192,45505,1,0,0:0:0:0:
192,192,45590,1,0,0:0:0:0:
64,192,45676,1,0,0:0:0:0:
192,192,45762,1,0,0:0:0:0:
320,192,45848,1,0,0:0:0:0:
448,192,45933,1,0,0:0:0:0:
64,192,46019,1,0,0:0:0:0:
192,192,46105,1,0,0:0:0:0:
448,192,46190,1,0,0:0:0:0:
64,192,46276,1,0,0:0:0:0:
192,192,46362,1,0,0:0:0:0:
320,192,46362,1,0,0:0:0:0:
64,192,46448,1,0,0:0:0:0:
448,192,46533,1,0,0:0:0:0:
192,192,46619,1,0,0:0:0:0:
320,192,46705,1,0,0:0:0:0:
192,192,46790,1,0,0:0:0:0:
448,192,46876,1,0,0:0:0:0:
64,192,46876,1,0,0:0:0:0:
192,192,46962,1,0,0:0:0:0:
64,192,47048,1,0,0:0:0:0:
320,192,47048,1,0,0:0:0:0:
448,192,47133,1,0,0:0:0:0:
192,192,47219,1,0,0:0:0:0:
320,192,47305,1,0,0:0:0:0:
64,192,47390,1,0,0:0:0:0:
192,192,47476,1,0,0:0:0:0:
320,192,47562,1,0,0:0:0:0:
64,192,47648,1,0,0:0:0:0:
64,192,47733,1,0,0:0:0:0:
192,192,47733,1,0,0:0:0:0:
448,192,47819,1,0,0:0:0:0:
448,192,47905,1,0,0:0:0:0:
192,192,47905,1,0,0:0:0:0:
64,192,47990,1,0,0:0:0:0:
320,192,47990,1,0,0:0:0:0:
192,192,48076,1,0,0:0:0:0:
448,192,48076,1,0,0:0:0:0:
64,192,48162,1,0,0:0:0:0:
192,192,48248,1,0,0:0:0:0:
320,192,48248,1,0,0:0:0:0:
448,192,48333,1,0,0:0:0:0:
320,192,48419,1,0,0:0:0:0:
192,192,48419,1,0,0:0:0:0:
64,192,48505,1,0,0:0:0:0:
448,192,48590,1,0,0:0:0:0:
320,192,48676,1,0,0:0:0:0:
448,192,48762,1,0,0:0:0:0:
64,192,48848,1,0,0:0:0:0:
192,192,48933,1,0,0:0:0:0:
448,192,49019,1,0,0:0:0:0:
320,192,49105,1,0,0:0:0:0:
64,192,49105,1,0,0:0:0:0:
448,192,49190,1,0,0:0:0:0:
64,192,49276,1,0,0:0:0:0:
192,192,49362,1,0,0:0:0:0:
320,192,49448,1,0,0:0:0:0:
64,192,49448,1,0,0:0:0:0:
192,192,49533,1,0,0:0:0:0:
448,192,49619,1,0,0:0:0:0:
320,192,49705,1,0,0:0:0:0:
192,192,49790,1,0,0:0:0:0:
64,192,49790,1,0,0:0:0:0:
448,192,49876,1,0,0:0:0:0:
320,192,49962,1,0,0:0:0:0:
448,192,50048,1,0,0:0:0:0:
64,192,50133,1,0,0:0:0:0:
192,192,50219,1,0,0:0:0:0:
320,192,50305,1,0,0:0:0:0:
64,192,50305,1,0,0:0:0:0:
192,192,50390,1,0,0:0:0:0:
448,192,50476,1,0,0:0:0:0:
320,192,50476,1,0,0:0:0:0:
64,192,50562,1,0,0:0:0:0:
192,192,50648,1,0,0:0:0:0:
448,192,50648,1,0,0:0:0:0:
320,192,50733,1,0,0:0:0:0:
64,192,50733,1,0,0:0:0:0:
192,192,50819,1,0,0:0:0:0:
448,192,50819,1,0,0:0:0:0:
320,192,50905,1,0,0:0:0:0:
192,192,50990,1,0,0:0:0:0:
64,192,50990,1,0,0:0:0:0:
448,192,51076,1,0,0:0:0:0:
320,192,51162,1,0,0:0:0:0:
64,192,51162,1,0,0:0:0:0:
192,192,51248,1,0,0:0:0:0:
64,192,51333,1,0,0:0:0:0:
448,192,51419,1,0,0:0:0:0:
192,192,51505,1,0,0:0:0:0:
448,192,51590,1,0,0:0:0:0:
64,192,51676,1,0,0:0:0:0:
448,192,51762,1,0,0:0:0:0:
320,192,51848,1,0,0:0:0:0:
64,192,51848,1,0,0:0:0:0:
192,192,51933,1,0,0:0:0:0:
64,192,52019,1,0,0:0:0:0:
320,192,52105,1,0,0:0:0:0:
64,192,52190,1,0,0:0:0:0:
448,192,52276,1,0,0:0:0:0:
320,192,52362,1,0,0:0:0:0:
64,192,52448,1,0,0:0:0:0:
192,192,52533,1,0,0:0:0:0:
448,192,52533,1,0,0:0:0:0:
320,192,52619,1,0,0:0:0:0:
448,192,52705,1,0,0:0:0:0:
64,192,52790,1,0,0:0:0:0:
192,192,52876,1,0,0:0:0:0:
448,192,52962,1,0,0:0:0:0:
64,192,53048,1,0,0:0:0:0:
448,192,53133,1,0,0:0:0:0:
192,192,53219,1,0,0:0:0:0:
320,192,53219,1,0,0:0:0:0:
64,192,53305,1,0,0:0:0:0:
320,192,53390,1,0,0:0:0:0:
192,192,53390,1,0,0:0:0:0:
448,192,53476,1,0,0:0:0:0:
64,192,53476,1,0,0:0:0:0:
192,192,53562,1,0,0:0:0:0:
320,192,53562,1,0,0:0:0:0:
64,192,53648,1,0,0:0:0:0:
192,192,53733,1,0,0:0:0:0:
64,192,53819,1,0,0:0:0:0:
448,192,53905,1,0,0:0:0:0:
320,192,53905,1,0,0:0:0:0:
192,192,53990,1,0,0:0:0:0:
64,192,54076,1,0,0:0:0:0:
448,192,54162,1,0,0:0:0:0:
320,192,54248,1,0,0:0:0:0:
64,192,54333,1,0,0:0:0:0:
192,192,54419,1,0,0:0:0:0:
448,192,54419,1,0,0:0:0:0:
320,192,54505,1,0,0:0:0:0:
64,192,54590,1,0,0:0:0:0:
192,192,54590,1,0,0:0:0:0:
320,192,54676,1,0,0:0:0:0:
448,192,54762,1,0,0:0:0:0:
192,192,54848,1,0,0:0:0:0:
320,192,54933,1,0,0:0:0:0:
64,192,54933,1,0,0:0:0:0:
448,192,55019,1,0,0:0:0:0:
320,192,55105,1,0,0:0:0:0:
192,192,55105,1,0,0:0:0:0:
64,192,55190,1,0,0:0:0:0:
320,192,55276,1,0,0:0:0:0:
192,192,55276,1,0,0:0:0:0:
64,192,55362,1,0,0:0:0:0:
192,192,55448,1,0,0:0:0:0:
448,192,55448,1,0,0:0:0:0:
320,192,55533,1,0,0:0:0:0:
64,192,55619,1,0,0:0:0:0:
192,192,55619,1,0,0:0:0:0:
448,192,55705,1,0,0:0:0:0:
320,192,55790,1,0,0:0:0:0:
192,192,55790,1,0,0:0:0:0:
64,192,55876,1,0,0:0:0:0:
320,192,55962,1,0,0:0:0:0:
448,192,55962,1,0,0:0:0:0:
192,192,56048,1,0,0:0:0:0:
64,192,56048,1,0,0:0:0:0:
320,192,56133,1,0,0:0:0:0:
448,192,56133,1,0,0:0:0:0:
192,192,56219,1,0,0:0:0:0:
64,192,56219,1,0,0:0:0:0:
320,192,56305,1,0,0:0:0:0:
448,192,56305,1,0,0:0:0:0:
64,192,56305,128,0,56562:0:0:0:0:
64,192,56648,128,0,56905:0:0:0:0:
448,192,56819,1,0,0:0:0:0:
320,192,56819,1,0,0:0:0:0:
64,192,56990,128,0,57248:0:0:0:0:
192,192,56990,1,0,0:0:0:0:
320,192,56990,1,0,0:0:0:0:
448,192,57162,1,0,0:0:0:0:
64,192,57333,128,0,57590:0:0:0:0:
320,192,57505,1,0,0:0:0:0:
448,192,57676,128,0,57933:0:0:0:0:
320,192,57676,1,0,0:0:0:0:
448,192,58019,128,0,58276:0:0:0:0:
64,192,58190,1,0,0:0:0:0:
320,192,58190,1,0,0:0:0:0:
448,192,58362,128,0,58533:0:0:0:0:
192,192,58362,1,0,0:0:0:0:
64,192,58362,1,0,0:0:0:0:
320,192,58533,128,0,58705:0:0:0:0:
192,192,58705,128,0,58876:0:0:0:0:
64,192,58876,128,0,59048:0:0:0:0:
320,192,58876,1,0,0:0:0:0:
448,192,58876,1,0,0:0:0:0:
448,192,59048,128,0,60419:0:0:0:0:
320,192,59048,1,0,0:0:0:0:
192,192,59133,1,0,0:0:0:0:
64,192,59219,1,0,0:0:0:0:
320,192,59305,1,0,0:0:0:0:
192,192,59390,1,0,0:0:0:0:
64,192,59476,1,0,0:0:0:0:
320,192,59562,1,0,0:0:0:0:
192,192,59648,1,0,0:0:0:0:
64,192,59733,1,0,0:0:0:0:
192,192,59819,1,0,0:0:0:0:
320,192,59905,1,0,0:0:0:0:
64,192,59990,1,0,0:0:0:0:
192,192,60076,1,0,0:0:0:0:
320,192,60162,1,0,0:0:0:0:
64,192,60248,1,0,0:0:0:0:
192,192,60333,1,0,0:0:0:0:
320,192,60419,1,0,0:0:0:0:
64,192,60419,128,0,61790:0:0:0:0:
448,192,60762,1,0,0:0:0:0:
320,192,60762,1,0,0:0:0:0:
192,192,61105,1,0,0:0:0:0:
448,192,61105,1,0,0:0:0:0:
320,192,61276,1,0,0:0:0:0:
320,192,61448,1,0,0:0:0:0:
448,192,61448,1,0,0:0:0:0:
320,192,61619,1,0,0:0:0:0:
448,192,61790,128,0,63162:0:0:0:0:
192,192,61790,1,0,0:0:0:0:
320,192,61790,1,0,0:0:0:0:
64,192,62133,1,0,0:0:0:0:
192,192,62133,1,0,0:0:0:0:
320,192,62305,1,0,0:0:0:0:
192,192,62476,1,0,0:0:0:0:
64,192,62476,1,0,0:0:0:0:
320,192,62648,1,0,0:0:0:0:
64,192,62819,1,0,0:0:0:0:
320,192,62819,1,0,0:0:0:0:
320,192,62990,1,0,0:0:0:0:
64,192,63162,128,0,64533:0:0:0:0:
192,192,63162,1,0,0:0:0:0:
448,192,63505,1,0,0:0:0:0:
320,192,63505,1,0,0:0:0:0:
192,192,63848,1,0,0:0:0:0:
320,192,63848,1,0,0:0:0:0:
448,192,64190,1,0,0:0:0:0:
320,192,64190,1,0,0:0:0:0:
448,192,64533,128,0,65219:0:0:0:0:
320,192,64533,1,0,0:0:0:0:
192,192,64533,1,0,0:0:0:0:
320,192,64876,1,0,0:0:0:0:
192,192,64876,1,0,0:0:0:0:
64,192,65048,1,0,0:0:0:0:
320,192,65219,1,0,0:0:0:0:
64,192,65219,1,0,0:0:0:0:
448,192,65562,1,0,0:0:0:0:
192,192,65562,1,0,0:0:0:0:
320,192,65733,1,0,0:0:0:0:
192,192,65905,1,0,0:0:0:0:
64,192,65905,1,0,0:0:0:0:
448,192,65905,128,0,67276:0:0:0:0:
320,192,66248,1,0,0:0:0:0:
64,192,66248,1,0,0:0:0:0:
192,192,66419,1,0,0:0:0:0:
320,192,66590,1,0,0:0:0:0:
64,192,66590,1,0,0:0:0:0:
192,192,66762,1,0,0:0:0:0:
320,192,66933,1,0,0:0:0:0:
64,192,66933,1,0,0:0:0:0:
192,192,67105,1,0,0:0:0:0:
192,192,67276,128,0,68648:0:0:0:0:
320,192,67619,1,0,0:0:0:0:
448,192,67619,1,0,0:0:0:0:
64,192,67790,1,0,0:0:0:0:
320,192,67962,1,0,0:0:0:0:
448,192,67962,1,0,0:0:0:0:
64,192,68133,1,0,0:0:0:0:
320,192,68305,1,0,0:0:0:0:
448,192,68305,1,0,0:0:0:0:
64,192,68476,1,0,0:0:0:0:
320,192,68648,128,0,70019:0:0:0:0:
448,192,68648,1,0,0:0:0:0:
192,192,68990,1,0,0:0:0:0:
448,192,68990,1,0,0:0:0:0:
192,192,69333,1,0,0:0:0:0:
448,192,69333,1,0,0:0:0:0:
64,192,69505,1,0,0:0:0:0:
64,192,69676,1,0,0:0:0:0:
448,192,69676,1,0,0:0:0:0:
64,192,69848,1,0,0:0:0:0:
64,192,70019,1,0,0:0:0:0:
448,192,70019,1,0,0:0:0:0:
192,192,70190,1,0,0:0:0:0:
320,192,70362,1,0,0:0:0:0:
64,192,70533,1,0,0:0:0:0:
192,192,70705,1,0,0:0:0:0:
448,192,70876,1,0,0:0:0:0:
320,192,71048,1,0,0:0:0:0:
448,192,71048,1,0,0:0:0:0:
192,192,71105,1,0,0:0:0:0:
64,192,71162,1,0,0:0:0:0:
192,192,71219,1,0,0:0:0:0:
320,192,71276,1,0,0:0:0:0:
64,192,71333,1,0,0:0:0:0:
448,192,71390,1,0,0:0:0:0:
192,192,71390,1,0,0:0:0:0:
320,192,71390,1,0,0:0:0:0:
64,192,71562,1,0,0:0:0:0:
192,192,71733,1,0,0:0:0:0:
448,192,71733,1,0,0:0:0:0:
320,192,71905,1,0,0:0:0:0:
192,192,72076,1,0,0:0:0:0:
448,192,72248,1,0,0:0:0:0:
320,192,72419,1,0,0:0:0:0:
64,192,72419,1,0,0:0:0:0:
192,192,72590,1,0,0:0:0:0:
64,192,72762,1,0,0:0:0:0:
192,192,72933,1,0,0:0:0:0:
320,192,73105,1,0,0:0:0:0:
448,192,73105,1,0,0:0:0:0:
192,192,73276,1,0,0:0:0:0:
320,192,73448,1,0,0:0:0:0:
64,192,73619,1,0,0:0:0:0:
192,192,73790,1,0,0:0:0:0:
448,192,73790,1,0,0:0:0:0:
320,192,73962,1,0,0:0:0:0:
448,192,74133,1,0,0:0:0:0:
320,192,74305,1,0,0:0:0:0:
192,192,74476,1,0,0:0:0:0:
64,192,74476,1,0,0:0:0:0:
320,192,74648,1,0,0:0:0:0:
448,192,74819,1,0,0:0:0:0:
64,192,74990,1,0,0:0:0:0:
192,192,75162,1,0,0:0:0:0:
320,192,75162,1,0,0:0:0:0:
448,192,75333,1,0,0:0:0:0:
320,192,75505,1,0,0:0:0:0:
192,192,75676,1,0,0:0:0:0:
192,192,75848,1,0,0:0:0:0:
448,192,75848,1,0,0:0:0:0:
320,192,76019,1,0,0:0:0:0:
448,192,76190,1,0,0:0:0:0:
64,192,76362,1,0,0:0:0:0:
192,192,76362,1,0,0:0:0:0:
192,192,76533,1,0,0:0:0:0:
320,192,76533,1,0,0:0:0:0:
448,192,76705,1,0,0:0:0:0:
64,192,76876,1,0,0:0:0:0:
192,192,76876,1,0,0:0:0:0:
320,192,77048,1,0,0:0:0:0:
448,192,77219,1,0,0:0:0:0:
192,192,77219,1,0,0:0:0:0:
320,192,77390,1,0,0:0:0:0:
64,192,77562,1,0,0:0:0:0:
320,192,77733,1,0,0:0:0:0:
448,192,77905,1,0,0:0:0:0:
64,192,77905,1,0,0:0:0:0:
192,192,78076,1,0,0:0:0:0:
320,192,78248,1,0,0:0:0:0:
64,192,78419,1,0,0:0:0:0:
192,192,78590,1,0,0:0:0:0:
320,192,78590,1,0,0:0:0:0:
448,192,78762,1,0,0:0:0:0:
320,192,78933,1,0,0:0:0:0:
64,192,79105,1,0,0:0:0:0:
448,192,79276,1,0,0:0:0:0:
192,192,79276,1,0,0:0:0:0:
320,192,79448,1,0,0:0:0:0:
64,192,79619,1,0,0:0:0:0:
192,192,79790,1,0,0:0:0:0:
320,192,79962,1,0,0:0:0:0:
448,192,79962,1,0,0:0:0:0:
64,192,80133,1,0,0:0:0:0:
192,192,80305,1,0,0:0:0:0:
64,192,80476,1,0,0:0:0:0:
192,192,80648,1,0,0:0:0:0:
448,192,80648,1,0,0:0:0:0:
320,192,80819,1,0,0:0:0:0:
64,192,80819,1,0,0:0:0:0:
448,192,80990,1,0,0:0:0:0:
192,192,80990,1,0,0:0:0:0:
320,192,81162,1,0,0:0:0:0:
320,192,81333,1,0,0:0:0:0:
64,192,81333,1,0,0:0:0:0:
320,192,81505,1,0,0:0:0:0:
320,192,81676,1,0,0:0:0:0:
64,192,81676,1,0,0:0:0:0:
192,192,81762,1,0,0:0:0:0:
320,192,81848,1,0,0:0:0:0:
64,192,81933,1,0,0:0:0:0:
448,192,82019,1,0,0:0:0:0:
320,192,82105,1,0,0:0:0:0:
192,192,82190,1,0,0:0:0:0:
64,192,82276,1,0,0:0:0:0:
192,192,82362,1,0,0:0:0:0:
448,192,82362,1,0,0:0:0:0:
320,192,82362,128,0,83733:0:0:0:0:
64,192,82533,1,0,0:0:0:0:
192,192,82705,1,0,0:0:0:0:
448,192,82705,1,0,0:0:0:0:
64,192,82876,1,0,0:0:0:0:
192,192,83048,1,0,0:0:0:0:
64,192,83219,1,0,0:0:0:0:
64,192,83390,1,0,0:0:0:0:
448,192,83390,1,0,0:0:0:0:
64,192,83562,1,0,0:0:0:0:
448,192,83733,128,0,85105:0:0:0:0:
64,192,83733,1,0,0:0:0:0:
192,192,83905,1,0,0:0:0:0:
320,192,84076,1,0,0:0:0:0:
64,192,84076,1,0,0:0:0:0:
192,192,84248,1,0,0:0:0:0:
64,192,84419,1,0,0:0:0:0:
320,192,84590,1,0,0:0:0:0:
320,192,84762,1,0,0:0:0:0:
64,192,84762,1,0,0:0:0:0:
320,192,84933,1,0,0:0:0:0:
64,192,85105,128,0,85790:0:0:0:0:
320,192,85105,1,0,0:0:0:0:
192,192,85276,1,0,0:0:0:0:
448,192,85448,1,0,0:0:0:0:
320,192,85448,1,0,0:0:0:0:
192,192,85619,1,0,0:0:0:0:
448,192,85790,1,0,0:0:0:0:
320,192,85876,1,0,0:0:0:0:
192,192,85962,1,0,0:0:0:0:
448,192,86048,1,0,0:0:0:0:
320,192,86133,1,0,0:0:0:0:
192,192,86133,1,0,0:0:0:0:
64,192,86219,1,0,0:0:0:0:
192,192,86305,1,0,0:0:0:0:
320,192,86390,1,0,0:0:0:0:
448,192,86476,1,0,0:0:0:0:
320,192,86562,1,0,0:0:0:0:
64,192,86648,1,0,0:0:0:0:
192,192,86733,1,0,0:0:0:0:
64,192,86819,1,0,0:0:0:0:
448,192,86819,1,0,0:0:0:0:
320,192,86905,1,0,0:0:0:0:
448,192,86990,1,0,0:0:0:0:
192,192,87076,1,0,0:0:0:0:
320,192,87162,1,0,0:0:0:0:
64,192,87162,128,0,87505:0:0:0:0:
192,192,87333,1,0,0:0:0:0:
448,192,87333,1,0,0:0:0:0:
192,192,87505,1,0,0:0:0:0:
320,192,87505,128,0,87848:0:0:0:0:
448,192,87676,1,0,0:0:0:0:
192,192,87848,1,0,0:0:0:0:
64,192,87848,1,0,0:0:0:0:
448,192,88019,1,0,0:0:0:0:
320,192,88190,1,0,0:0:0:0:
64,192,88190,1,0,0:0:0:0:
192,192,88362,128,0,88705:0:0:0:0:
448,192,88705,1,0,0:0:0:0:
320,192,88876,1,0,0:0:0:0:
64,192,88876,1,0,0:0:0:0:
192,192,89048,1,0,0:0:0:0:
64,192,89219,1,0,0:0:0:0:
448,192,89219,128,0,89733:0:0:0:0:
320,192,89390,1,0,0:0:0:0:
192,192,89562,1,0,0:0:0:0:
64,192,89562,1,0,0:0:0:0:
320,192,89733,1,0,0:0:0:0:
64,192,89905,1,0,0:0:0:0:
192,192,90076,1,0,0:0:0:0:
320,192,90248,1,0,0:0:0:0:
448,192,90248,1,0,0:0:0:0:
192,192,90419,1,0,0:0:0:0:
64,192,90590,1,0,0:0:0:0:
320,192,90676,1,0,0:0:0:0:
448,192,90762,1,0,0:0:0:0:
192,192,90848,1,0,0:0:0:0:
320,192,90933,1,0,0:0:0:0:
448,192,90933,1,0,0:0:0:0:
64,192,91019,1,0,0:0:0:0:
192,192,91105,1,0,0:0:0:0:
448,192,91190,1,0,0:0:0:0:
320,192,91276,1,0,0:0:0:0:
192,192,91362,1,0,0:0:0:0:
64,192,91448,1,0,0:0:0:0:
320,192,91533,1,0,0:0:0:0:
192,192,91619,1,0,0:0:0:0:
448,192,91619,1,0,0:0:0:0:
64,192,91705,1,0,0:0:0:0:
320,192,91790,1,0,0:0:0:0:
448,192,91876,1,0,0:0:0:0:
64,192,91962,128,0,92648:0:0:0:0:
192,192,91962,1,0,0:0:0:0:
448,192,92133,1,0,0:0:0:0:
320,192,92305,1,0,0:0:0:0:
192,192,92305,1,0,0:0:0:0:
448,192,92476,1,0,0:0:0:0:
192,192,92648,1,0,0:0:0:0:
320,192,92819,1,0,0:0:0:0:
448,192,92990,1,0,0:0:0:0:
64,192,93162,1,0,0:0:0:0:
192,192,93162,1,0,0:0:0:0:
320,192,93333,1,0,0:0:0:0:
448,192,93333,1,0,0:0:0:0:
64,192,93333,128,0,94705:0:0:0:0:
192,192,93848,128,0,94705:0:0:0:0:
320,192,94190,128,0,94705:0:0:0:0:
448,192,94533,1,0,0:0:0:0:
448,192,94705,128,0,96076:0:0:0:0:
320,192,95219,128,0,96076:0:0:0:0:
192,192,95562,128,0,96076:0:0:0:0:
64,192,95905,1,0,0:0:0:0:
64,192,96076,128,0,96762:0:0:0:0:
192,192,96419,128,0,96762:0:0:0:0:
448,192,96762,128,0,97448:0:0:0:0:
320,192,97105,128,0,97448:0:0:0:0:
64,192,97448,128,0,98819:0:0:0:0:
192,192,97790,128,0,98476:0:0:0:0:
320,192,98133,128,0,98476:0:0:0:0:
448,192,98476,128,0,98819:0:0:0:0:
192,192,98819,128,0,100190:0:0:0:0:
64,192,99333,128,0,100190:0:0:0:0:
320,192,99676,128,0,100190:0:0:0:0:
448,192,100019,1,0,0:0:0:0:
448,192,100190,128,0,101562:0:0:0:0:
64,192,100705,128,0,101562:0:0:0:0:
320,192,101048,128,0,101562:0:0:0:0:
192,192,101390,1,0,0:0:0:0:
192,192,101562,128,0,102933:0:0:0:0:
320,192,101905,128,0,102248:0:0:0:0:
448,192,102248,128,0,102590:0:0:0:0:
320,192,102590,128,0,102933:0:0:0:0:
64,192,102933,1,0,0:0:0:0:
448,192,103105,1,0,0:0:0:0:
320,192,103190,1,0,0:0:0:0:
192,192,103276,1,0,0:0:0:0:
64,192,103276,1,0,0:0:0:0:
448,192,103362,1,0,0:0:0:0:
320,192,103448,1,0,0:0:0:0:
64,192,103533,1,0,0:0:0:0:
192,192,103619,1,0,0:0:0:0:
448,192,103619,1,0,0:0:0:0:
320,192,103790,1,0,0:0:0:0:
64,192,103962,1,0,0:0:0:0:
192,192,103962,1,0,0:0:0:0:
448,192,104048,1,0,0:0:0:0:
320,192,104133,1,0,0:0:0:0:
192,192,104219,1,0,0:0:0:0:
64,192,104305,1,0,0:0:0:0:
448,192,104305,1,0,0:0:0:0:
320,192,104476,1,0,0:0:0:0:
192,192,104648,1,0,0:0:0:0:
448,192,104819,1,0,0:0:0:0:
64,192,104819,1,0,0:0:0:0:
320,192,104990,1,0,0:0:0:0:
64,192,105162,1,0,0:0:0:0:
448,192,105162,1,0,0:0:0:0:
320,192,105333,1,0,0:0:0:0:
448,192,105505,1,0,0:0:0:0:
192,192,105505,1,0,0:0:0:0:
320,192,105676,1,0,0:0:0:0:
64,192,105676,1,0,0:0:0:0:
64,192,105848,1,0,0:0:0:0:
320,192,106019,1,0,0:0:0:0:
448,192,106190,1,0,0:0:0:0:
192,192,106190,1,0,0:0:0:0:
320,192,106276,1,0,0:0:0:0:
64,192,106362,1,0,0:0:0:0:
192,192,106533,1,0,0:0:0:0:
320,192,106533,1,0,0:0:0:0:
448,192,106705,1,0,0:0:0:0:
64,192,106876,1,0,0:0:0:0:
192,192,106876,1,0,0:0:0:0:
320,192,107048,1,0,0:0:0:0:
448,192,107048,1,0,0:0:0:0:
64,192,107219,1,0,0:0:0:0:
448,192,107390,1,0,0:0:0:0:
320,192,107562,1,0,0:0:0:0:
64,192,107562,1,0,0:0:0:0:
192,192,107733,1,0,0:0:0:0:
448,192,107905,1,0,0:0:0:0:
64,192,107905,1,0,0:0:0:0:
192,192,108076,1,0,0:0:0:0:
320,192,108248,1,0,0:0:0:0:
64,192,108248,1,0,0:0:0:0:
448,192,108419,1,0,0:0:0:0:
192,192,108419,1,0,0:0:0:0:
320,192,108590,1,0,0:0:0:0:
64,192,108762,1,0,0:0:0:0:
192,192,108933,1,0,0:0:0:0:
448,192,108933,1,0,0:0:0:0:
320,192,109105,1,0,0:0:0:0:
448,192,109276,1,0,0:0:0:0:
64,192,109276,1,0,0:0:0:0:
64,192,109448,1,0,0:0:0:0:
192,192,109533,1,0,0:0:0:0:
64,192,109619,1,0,0:0:0:0:
320,192,109619,1,0,0:0:0:0:
192,192,109705,1,0,0:0:0:0:
320,192,109790,1,0,0:0:0:0:
448,192,109790,1,0,0:0:0:0:
192,192,109962,1,0,0:0:0:0:
64,192,110133,1,0,0:0:0:0:
448,192,110133,1,0,0:0:0:0:
192,192,110305,1,0,0:0:0:0:
320,192,110476,1,0,0:0:0:0:
64,192,110648,1,0,0:0:0:0:
192,192,110819,1,0,0:0:0:0:
320,192,110819,1,0,0:0:0:0:
448,192,110990,1,0,0:0:0:0:
192,192,111162,1,0,0:0:0:0:
320,192,111333,1,0,0:0:0:0:
64,192,111505,1,0,0:0:0:0:
192,192,111505,1,0,0:0:0:0:
448,192,111676,1,0,0:0:0:0:
64,192,111762,1,0,0:0:0:0:
192,192,111762,1,0,0:0:0:0:
320,192,111848,1,0,0:0:0:0:
448,192,111933,1,0,0:0:0:0:
192,192,111933,1,0,0:0:0:0:
64,192,112019,1,0,0:0:0:0:
192,192,112190,1,0,0:0:0:0:
320,192,112190,1,0,0:0:0:0:
64,192,112362,1,0,0:0:0:0:
448,192,112448,1,0,0:0:0:0:
192,192,112448,1,0,0:0:0:0:
320,192,112533,1,0,0:0:0:0:
64,192,112705,1,0,0:0:0:0:
192,192,112790,1,0,0:0:0:0:
448,192,112876,1,0,0:0:0:0:
64,192,112876,1,0,0:0:0:0:
192,192,113048,1,0,0:0:0:0:
448,192,113219,1,0,0:0:0:0:
64,192,113390,1,0,0:0:0:0:
448,192,113562,1,0,0:0:0:0:
320,192,113562,1,0,0:0:0:0:
64,192,113733,1,0,0:0:0:0:
192,192,113905,1,0,0:0:0:0:
320,192,113905,1,0,0:0:0:0:
448,192,113990,1,0,0:0:0:0:
320,192,114076,1,0,0:0:0:0:
64,192,114162,1,0,0:0:0:0:
192,192,114248,1,0,0:0:0:0:
448,192,114333,1,0,0:0:0:0:
320,192,114419,1,0,0:0:0:0:
192,192,114505,1,0,0:0:0:0:
64,192,114590,1,0,0:0:0:0:
448,192,114676,1,0,0:0:0:0:
448,192,114762,1,0,0:0:0:0:
192,192,114848,1,0,0:0:0:0:
320,192,114933,1,0,0:0:0:0:
64,192,115019,1,0,0:0:0:0:
192,192,115105,1,0,0:0:0:0:
320,192,115190,1,0,0:0:0:0:
448,192,115276,1,0,0:0:0:0:
64,192,115276,1,0,0:0:0:0:
192,192,115362,1,0,0:0:0:0:
448,192,115448,1,0,0:0:0:0:
320,192,115533,1,0,0:0:0:0:
448,192,115619,1,0,0:0:0:0:
64,192,115619,1,0,0:0:0:0:
192,192,115705,1,0,0:0:0:0:
320,192,115790,1,0,0:0:0:0:
192,192,115876,1,0,0:0:0:0:
64,192,115962,1,0,0:0:0:0:
448,192,116048,1,0,0:0:0:0:
192,192,116133,1,0,0:0:0:0:
320,192,116219,1,0,0:0:0:0:
64,192,116305,1,0,0:0:0:0:
192,192,116305,1,0,0:0:0:0:
448,192,116390,1,0,0:0:0:0:
448,192,116476,1,0,0:0:0:0:
448,192,116562,1,0,0:0:0:0:
320,192,116648,1,0,0:0:0:0:
192,192,116733,1,0,0:0:0:0:
64,192,116819,1,0,0:0:0:0:
320,192,116905,1,0,0:0:0:0:
448,192,116990,1,0,0:0:0:0:
192,192,116990,1,0,0:0:0:0:
320,192,117076,1,0,0:0:0:0:
64,192,117162,1,0,0:0:0:0:
448,192,117248,1,0,0:0:0:0:
192,192,117333,1,0,0:0:0:0:
320,192,117419,1,0,0:0:0:0:
64,192,117505,1,0,0:0:0:0:
192,192,117590,1,0,0:0:0:0:
448,192,117676,1,0,0:0:0:0:
320,192,117676,1,0,0:0:0:0:
192,192,117762,1,0,0:0:0:0:
64,192,117848,1,0,0:0:0:0:
448,192,117933,1,0,0:0:0:0:
320,192,117933,1,0,0:0:0:0:
192,192,118019,1,0,0:0:0:0:
64,192,118019,1,0,0:0:0:0:
320,192,118105,1,0,0:0:0:0:
448,192,118190,1,0,0:0:0:0:
192,192,118276,1,0,0:0:0:0:
64,192,118362,1,0,0:0:0:0:
448,192,118362,1,0,0:0:0:0:
320,192,118448,1,0,0:0:0:0:
320,192,118533,1,0,0:0:0:0:
64,192,118619,1,0,0:0:0:0:
64,192,118705,1,0,0:0:0:0:
448,192,118790,1,0,0:0:0:0:
320,192,118876,1,0,0:0:0:0:
448,192,118962,1,0,0:0:0:0:
192,192,119048,1,0,0:0:0:0:
64,192,119048,1,0,0:0:0:0:
320,192,119133,1,0,0:0:0:0:
448,192,119219,1,0,0:0:0:0:
192,192,119305,1,0,0:0:0:0:
320,192,119390,1,0,0:0:0:0:
64,192,119476,1,0,0:0:0:0:
192,192,119562,1,0,0:0:0:0:
448,192,119648,1,0,0:0:0:0:
320,192,119733,1,0,0:0:0:0:
64,192,119733,1,0,0:0:0:0:
192,192,119819,1,0,0:0:0:0:
448,192,119905,1,0,0:0:0:0:
192,192,119990,1,0,0:0:0:0:
448,192,120076,1,0,0:0:0:0:
64,192,120162,1,0,0:0:0:0:
192,192,120248,1,0,0:0:0:0:
320,192,120248,1,0,0:0:0:0:
448,192,120333,1,0,0:0:0:0:
64,192,120419,1,0,0:0:0:0:
192,192,120419,1,0,0:0:0:0:
320,192,120505,1,0,0:0:0:0:
192,192,120590,1,0,0:0:0:0:
448,192,120676,1,0,0:0:0:0:
320,192,120762,1,0,0:0:0:0:
192,192,120762,1,0,0:0:0:0:
64,192,120762,1,0,0:0:0:0:
448,192,120848,1,0,0:0:0:0:
448,192,120933,1,0,0:0:0:0:
64,192,121019,1,0,0:0:0:0:
192,192,121105,1,0,0:0:0:0:
320,192,121105,1,0,0:0:0:0:
448,192,121190,1,0,0:0:0:0:
320,192,121276,1,0,0:0:0:0:
448,192,121362,1,0,0:0:0:0:
64,192,121448,1,0,0:0:0:0:
192,192,121533,1,0,0:0:0:0:
320,192,121619,1,0,0:0:0:0:
192,192,121705,1,0,0:0:0:0:
64,192,121790,1,0,0:0:0:0:
448,192,121790,1,0,0:0:0:0:
192,192,121876,1,0,0:0:0:0:
448,192,121962,1,0,0:0:0:0:
320,192,122048,1,0,0:0:0:0:
64,192,122133,1,0,0:0:0:0:
192,192,122219,1,0,0:0:0:0:
320,192,122305,1,0,0:0:0:0:
64,192,122390,1,0,0:0:0:0:
448,192,122476,1,0,0:0:0:0:
192,192,122476,1,0,0:0:0:0:
64,192,122562,1,0,0:0:0:0:
64,192,122648,1,0,0:0:0:0:
320,192,122733,1,0,0:0:0:0:
192,192,122819,1,0,0:0:0:0:
448,192,122905,1,0,0:0:0:0:
320,192,122990,1,0,0:0:0:0:
64,192,123076,1,0,0:0:0:0:
192,192,123162,1,0,0:0:0:0:
320,192,123162,1,0,0:0:0:0:
448,192,123248,1,0,0:0:0:0:
64,192,123333,1,0,0:0:0:0:
192,192,123419,1,0,0:0:0:0:
64,192,123505,1,0,0:0:0:0:
448,192,123505,1,0,0:0:0:0:
320,192,123590,1,0,0:0:0:0:
64,192,123676,1,0,0:0:0:0:
448,192,123762,1,0,0:0:0:0:
192,192,123848,1,0,0:0:0:0:
64,192,123848,1,0,0:0:0:0:
320,192,123933,1,0,0:0:0:0:
448,192,124019,1,0,0:0:0:0:
192,192,124105,1,0,0:0:0:0:
320,192,124190,1,0,0:0:0:0:
64,192,124276,1,0,0:0:0:0:
192,192,124362,1,0,0:0:0:0:
448,192,124448,1,0,0:0:0:0:
320,192,124533,1,0,0:0:0:0:
64,192,124533,1,0,0:0:0:0:
192,192,124619,1,0,0:0:0:0:
320,192,124705,1,0,0:0:0:0:
320,192,124790,1,0,0:0:0:0:
320,192,124876,1,0,0:0:0:0:
64,192,124876,1,0,0:0:0:0:
192,192,124962,1,0,0:0:0:0:
320,192,125048,1,0,0:0:0:0:
448,192,125133,1,0,0:0:0:0:
320,192,125219,1,0,0:0:0:0:
192,192,125305,1,0,0:0:0:0:
64,192,125390,1,0,0:0:0:0:
448,192,125476,1,0,0:0:0:0:
320,192,125562,1,0,0:0:0:0:
192,192,125648,1,0,0:0:0:0:
448,192,125733,1,0,0:0:0:0:
320,192,125819,1,0,0:0:0:0:
64,192,125905,1,0,0:0:0:0:
192,192,125990,1,0,0:0:0:0:
320,192,126076,1,0,0:0:0:0:
448,192,126162,1,0,0:0:0:0:
64,192,126248,1,0,0:0:0:0:
192,192,126248,1,0,0:0:0:0:
320,192,126419,1,0,0:0:0:0:
192,192,126590,1,0,0:0:0:0:
448,192,126762,1,0,0:0:0:0:
320,192,126933,1,0,0:0:0:0:
64,192,127105,1,0,0:0:0:0:
192,192,127276,1,0,0:0:0:0:
320,192,127448,1,0,0:0:0:0:
192,192,127619,1,0,0:0:0:0:
64,192,127790,1,0,0:0:0:0:
448,192,127962,1,0,0:0:0:0:
320,192,128133,1,0,0:0:0:0:
192,192,128305,1,0,0:0:0:0:
320,192,128476,1,0,0:0:0:0:
448,192,128648,1,0,0:0:0:0:
64,192,128819,1,0,0:0:0:0:
192,192,128990,1,0,0:0:0:0:
320,192,129162,1,0,0:0:0:0:
192,192,129333,1,0,0:0:0:0:
448,192,129505,1,0,0:0:0:0:
320,192,129676,1,0,0:0:0:0:
192,192,129848,1,0,0:0:0:0:
192,192,130019,1,0,0:0:0:0:
192,192,130190,1,0,0:0:0:0:
64,192,130362,1,0,0:0:0:0:
448,192,130533,1,0,0:0:0:0:
320,192,130705,1,0,0:0:0:0:
448,192,130876,1,0,0:0:0:0:
64,192,131048,1,0,0:0:0:0:
320,192,131219,1,0,0:0:0:0:
320,192,131390,1,0,0:0:0:0:
320,192,131562,1,0,0:0:0:0:
192,192,131733,1,0,0:0:0:0:
448,192,131905,1,0,0:0:0:0:
64,192,132076,1,0,0:0:0:0:
448,192,132248,1,0,0:0:0:0:
192,192,132419,1,0,0:0:0:0:
448,192,132590,1,0,0:0:0:0:
64,192,132762,1,0,0:0:0:0:
192,192,132933,1,0,0:0:0:0:
320,192,133105,1,0,0:0:0:0:
448,192,133276,1,0,0:0:0:0:
448,192,133448,1,0,0:0:0:0:
320,192,133619,1,0,0:0:0:0:
192,192,133790,1,0,0:0:0:0:
64,192,133962,1,0,0:0:0:0:
448,192,134133,1,0,0:0:0:0:
192,192,134305,1,0,0:0:0:0:
320,192,134476,1,0,0:0:0:0:
64,192,134648,1,0,0:0:0:0:
448,192,134819,1,0,0:0:0:0:
192,192,134990,1,0,0:0:0:0:
448,192,135162,1,0,0:0:0:0:
320,192,135333,1,0,0:0:0:0:
320,192,135505,1,0,0:0:0:0:
320,192,135676,1,0,0:0:0:0:
64,192,135848,1,0,0:0:0:0:
448,192,136019,1,0,0:0:0:0:
192,192,136190,1,0,0:0:0:0:
320,192,136362,1,0,0:0:0:0:
64,192,136533,1,0,0:0:0:0:
448,192,136705,1,0,0:0:0:0:
448,192,136876,1,0,0:0:0:0:
448,192,137048,1,0,0:0:0:0:
64,192,137219,1,0,0:0:0:0:
320,192,137219,1,0,0:0:0:0:
448,192,137390,1,0,0:0:0:0:
320,192,137476,1,0,0:0:0:0:
64,192,137562,1,0,0:0:0:0:
448,192,137733,1,0,0:0:0:0:
64,192,137819,1,0,0:0:0:0:
192,192,137905,1,0,0:0:0:0:
320,192,137905,1,0,0:0:0:0:
448,192,138076,1,0,0:0:0:0:
64,192,138162,1,0,0:0:0:0:
192,192,138248,1,0,0:0:0:0:
320,192,138333,1,0,0:0:0:0:
448,192,138419,1,0,0:0:0:0:
64,192,138505,1,0,0:0:0:0:
192,192,138590,1,0,0:0:0:0:
448,192,138762,1,0,0:0:0:0:
320,192,138848,1,0,0:0:0:0:
64,192,138933,1,0,0:0:0:0:
192,192,139105,1,0,0:0:0:0:
64,192,139190,1,0,0:0:0:0:
320,192,139276,1,0,0:0:0:0:
448,192,139276,1,0,0:0:0:0:
64,192,139448,1,0,0:0:0:0:
192,192,139533,1,0,0:0:0:0:
320,192,139619,1,0,0:0:0:0:
448,192,139705,1,0,0:0:0:0:
192,192,139790,1,0,0:0:0:0:
64,192,139790,1,0,0:0:0:0:
320,192,139876,1,0,0:0:0:0:
448,192,139962,1,0,0:0:0:0:
448,192,140133,1,0,0:0:0:0:
64,192,140219,1,0,0:0:0:0:
192,192,140305,1,0,0:0:0:0:
448,192,140476,1,0,0:0:0:0:
192,192,140562,1,0,0:0:0:0:
320,192,140648,1,0,0:0:0:0:
448,192,140648,1,0,0:0:0:0:
64,192,140819,1,0,0:0:0:0:
192,192,140905,1,0,0:0:0:0:
320,192,140990,1,0,0:0:0:0:
64,192,141076,1,0,0:0:0:0:
192,192,141162,1,0,0:0:0:0:
320,192,141248,1,0,0:0:0:0:
192,192,141333,1,0,0:0:0:0:
64,192,141505,1,0,0:0:0:0:
192,192,141590,1,0,0:0:0:0:
320,192,141676,1,0,0:0:0:0:
448,192,141848,1,0,0:0:0:0:
320,192,141933,1,0,0:0:0:0:
192,192,142019,1,0,0:0:0:0:
64,192,142019,1,0,0:0:0:0:
448,192,142190,1,0,0:0:0:0:
192,192,142276,1,0,0:0:0:0:
64,192,142362,1,0,0:0:0:0:
448,192,142448,1,0,0:0:0:0:
64,192,142533,1,0,0:0:0:0:
448,192,142619,1,0,0:0:0:0:
192,192,142705,1,0,0:0:0:0:
320,192,142705,1,0,0:0:0:0:
64,192,142876,1,0,0:0:0:0:
448,192,142962,1,0,0:0:0:0:
320,192,143048,1,0,0:0:0:0:
192,192,143219,1,0,0:0:0:0:
448,192,143305,1,0,0:0:0:0:
320,192,143390,1,0,0:0:0:0:
64,192,143390,1,0,0:0:0:0:
192,192,143562,1,0,0:0:0:0:
448,192,143648,1,0,0:0:0:0:
64,192,143733,1,0,0:0:0:0:
192,192,143819,1,0,0:0:0:0:
320,192,143905,1,0,0:0:0:0:
448,192,143990,1,0,0:0:0:0:
64,192,144076,1,0,0:0:0:0:
320,192,144248,1,0,0:0:0:0:
192,192,144333,1,0,0:0:0:0:
64,192,144419,1,0,0:0:0:0:
192,192,144590,1,0,0:0:0:0:
320,192,144676,1,0,0:0:0:0:
448,192,144762,1,0,0:0:0:0:
64,192,144762,1,0,0:0:0:0:
320,192,144933,1,0,0:0:0:0:
192,192,145019,1,0,0:0:0:0:
320,192,145105,1,0,0:0:0:0:
64,192,145190,1,0,0:0:0:0:
192,192,145276,1,0,0:0:0:0:
320,192,145276,1,0,0:0:0:0:
448,192,145362,1,0,0:0:0:0:
64,192,145448,1,0,0:0:0:0:
320,192,145619,1,0,0:0:0:0:
64,192,145705,1,0,0:0:0:0:
192,192,145790,1,0,0:0:0:0:
320,192,145962,1,0,0:0:0:0:
192,192,146048,1,0,0:0:0:0:
64,192,146133,1,0,0:0:0:0:
448,192,146133,1,0,0:0:0:0:
320,192,146305,1,0,0:0:0:0:
64,192,146390,1,0,0:0:0:0:
448,192,146476,1,0,0:0:0:0:
320,192,146562,1,0,0:0:0:0:
192,192,146648,1,0,0:0:0:0:
320,192,146733,1,0,0:0:0:0:
64,192,146819,128,0,148190:0:0:0:0:
448,192,146819,1,0,0:0:0:0:
192,192,146990,1,0,0:0:0:0:
448,192,147076,1,0,0:0:0:0:
320,192,147162,1,0,0:0:0:0:
448,192,147333,1,0,0:0:0:0:
320,192,147419,1,0,0:0:0:0:
192,192,147505,1,0,0:0:0:0:
448,192,147505,1,0,0:0:0:0:
320,192,147676,1,0,0:0:0:0:
192,192,147762,1,0,0:0:0:0:
448,192,147848,1,0,0:0:0:0:
192,192,147933,1,0,0:0:0:0:
448,192,148019,1,0,0:0:0:0:
320,192,148105,1,0,0:0:0:0:
448,192,148190,128,0,149048:0:0:0:0:
192,192,148190,1,0,0:0:0:0:
320,192,148362,1,0,0:0:0:0:
64,192,148362,1,0,0:0:0:0:
192,192,148533,1,0,0:0:0:0:
320,192,148533,1,0,0:0:0:0:
64,192,148705,1,0,0:0:0:0:
192,192,148790,1,0,0:0:0:0:
320,192,148876,1,0,0:0:0:0:
320,192,149048,1,0,0:0:0:0:
64,192,149133,1,0,0:0:0:0:
192,192,149219,1,0,0:0:0:0:
320,192,149219,1,0,0:0:0:0:
448,192,149305,1,0,0:0:0:0:
320,192,149390,1,0,0:0:0:0:
192,192,149476,1,0,0:0:0:0:
64,192,149562,1,0,0:0:0:0:
320,192,149733,1,0,0:0:0:0:
64,192,149819,1,0,0:0:0:0:
448,192,149905,1,0,0:0:0:0:
192,192,149905,1,0,0:0:0:0:
320,192,150076,1,0,0:0:0:0:
192,192,150162,1,0,0:0:0:0:
320,192,150248,1,0,0:0:0:0:
64,192,150419,1,0,0:0:0:0:
192,192,150505,1,0,0:0:0:0:
320,192,150590,1,0,0:0:0:0:
448,192,150590,1,0,0:0:0:0:
192,192,150676,1,0,0:0:0:0:
64,192,150762,1,0,0:0:0:0:
448,192,150848,1,0,0:0:0:0:
192,192,150933,1,0,0:0:0:0:
64,192,151105,1,0,0:0:0:0:
320,192,151190,1,0,0:0:0:0:
64,192,151276,1,0,0:0:0:0:
448,192,151276,1,0,0:0:0:0:
192,192,151448,1,0,0:0:0:0:
320,192,151533,1,0,0:0:0:0:
192,192,151619,1,0,0:0:0:0:
448,192,151790,1,0,0:0:0:0:
320,192,151876,1,0,0:0:0:0:
448,192,151962,1,0,0:0:0:0:
64,192,151962,1,0,0:0:0:0:
192,192,152048,1,0,0:0:0:0:
192,192,152133,1,0,0:0:0:0:
320,192,152219,1,0,0:0:0:0:
448,192,152305,1,0,0:0:0:0:
320,192,152476,1,0,0:0:0:0:
192,192,152562,1,0,0:0:0:0:
448,192,152648,1,0,0:0:0:0:
64,192,152648,1,0,0:0:0:0:
192,192,152819,1,0,0:0:0:0:
320,192,152905,1,0,0:0:0:0:
448,192,152990,1,0,0:0:0:0:
320,192,153162,1,0,0:0:0:0:
64,192,153162,1,0,0:0:0:0:
192,192,153248,1,0,0:0:0:0:
448,192,153333,1,0,0:0:0:0:
192,192,153333,1,0,0:0:0:0:
320,192,153419,1,0,0:0:0:0:
448,192,153505,1,0,0:0:0:0:
64,192,153505,1,0,0:0:0:0:
192,192,153590,1,0,0:0:0:0:
320,192,153676,1,0,0:0:0:0:
448,192,153676,1,0,0:0:0:0:
192,192,153848,1,0,0:0:0:0:
448,192,153933,1,0,0:0:0:0:
320,192,154019,1,0,0:0:0:0:
64,192,154019,1,0,0:0:0:0:
320,192,154190,1,0,0:0:0:0:
64,192,154276,1,0,0:0:0:0:
192,192,154362,1,0,0:0:0:0:
320,192,154533,1,0,0:0:0:0:
64,192,154619,1,0,0:0:0:0:
448,192,154705,1,0,0:0:0:0:
320,192,154705,1,0,0:0:0:0:
64,192,154790,1,0,0:0:0:0:
192,192,154876,1,0,0:0:0:0:
448,192,154962,1,0,0:0:0:0:
320,192,155048,1,0,0:0:0:0:
192,192,155219,1,0,0:0:0:0:
64,192,155305,1,0,0:0:0:0:
192,192,155390,1,0,0:0:0:0:
448,192,155390,1,0,0:0:0:0:
320,192,155562,1,0,0:0:0:0:
448,192,155648,1,0,0:0:0:0:
320,192,155733,1,0,0:0:0:0:
192,192,155905,1,0,0:0:0:0:
320,192,155990,1,0,0:0:0:0:
448,192,156076,1,0,0:0:0:0:
64,192,156076,1,0,0:0:0:0:
192,192,156162,1,0,0:0:0:0:
320,192,156248,1,0,0:0:0:0:
192,192,156333,1,0,0:0:0:0:
64,192,156419,1,0,0:0:0:0:
448,192,156590,1,0,0:0:0:0:
320,192,156676,1,0,0:0:0:0:
448,192,156762,1,0,0:0:0:0:
64,192,156762,1,0,0:0:0:0:
320,192,156933,1,0,0:0:0:0:
192,192,157019,1,0,0:0:0:0:
448,192,157105,1,0,0:0:0:0:
64,192,157276,1,0,0:0:0:0:
320,192,157362,1,0,0:0:0:0:
192,192,157448,1,0,0:0:0:0:
64,192,157448,1,0,0:0:0:0:
448,192,157533,1,0,0:0:0:0:
64,192,157619,1,0,0:0:0:0:
320,192,157705,1,0,0:0:0:0:
192,192,157790,1,0,0:0:0:0:
448,192,157790,1,0,0:0:0:0:
320,192,157962,1,0,0:0:0:0:
64,192,158048,1,0,0:0:0:0:
192,192,158133,1,0,0:0:0:0:
448,192,158133,1,0,0:0:0:0:
320,192,158305,1,0,0:0:0:0:
192,192,158390,1,0,0:0:0:0:
448,192,158476,1,0,0:0:0:0:
64,192,158476,1,0,0:0:0:0:
448,192,158648,1,0,0:0:0:0:
320,192,158733,1,0,0:0:0:0:
64,192,158819,1,0,0:0:0:0:
192,192,158819,1,0,0:0:0:0:
448,192,158905,1,0,0:0:0:0:
320,192,158990,1,0,0:0:0:0:
192,192,159076,1,0,0:0:0:0:
320,192,159162,1,0,0:0:0:0:
64,192,159162,1,0,0:0:0:0:
192,192,159333,1,0,0:0:0:0:
320,192,159419,1,0,0:0:0:0:
64,192,159505,1,0,0:0:0:0:
448,192,159505,1,0,0:0:0:0:
192,192,159676,1,0,0:0:0:0:
320,192,159762,1,0,0:0:0:0:
192,192,159848,1,0,0:0:0:0:
448,192,160019,1,0,0:0:0:0:
64,192,160105,1,0,0:0:0:0:
192,192,160190,1,0,0:0:0:0:
320,192,160190,1,0,0:0:0:0:
448,192,160276,1,0,0:0:0:0:
64,192,160362,1,0,0:0:0:0:
320,192,160448,1,0,0:0:0:0:
192,192,160533,1,0,0:0:0:0:
448,192,160705,1,0,0:0:0:0:
192,192,160790,1,0,0:0:0:0:
320,192,160876,1,0,0:0:0:0:
448,192,160876,1,0,0:0:0:0:
64,192,161048,1,0,0:0:0:0:
192,192,161133,1,0,0:0:0:0:
448,192,161219,1,0,0:0:0:0:
320,192,161390,1,0,0:0:0:0:
192,192,161476,1,0,0:0:0:0:
448,192,161562,1,0,0:0:0:0:
320,192,161562,1,0,0:0:0:0:
64,192,161648,1,0,0:0:0:0:
192,192,161733,1,0,0:0:0:0:
320,192,161819,1,0,0:0:0:0:
448,192,161905,1,0,0:0:0:0:
64,192,162076,1,0,0:0:0:0:
192,192,162162,1,0,0:0:0:0:
64,192,162248,1,0,0:0:0:0:
448,192,162248,1,0,0:0:0:0:
320,192,162419,1,0,0:0:0:0:
192,192,162505,1,0,0:0:0:0:
320,192,162590,1,0,0:0:0:0:
448,192,162762,1,0,0:0:0:0:
64,192,162848,1,0,0:0:0:0:
192,192,162933,1,0,0:0:0:0:
320,192,162933,1,0,0:0:0:0:
448,192,163019,1,0,0:0:0:0:
192,192,163105,1,0,0:0:0:0:
320,192,163190,1,0,0:0:0:0:
64,192,163276,1,0,0:0:0:0:
448,192,163448,1,0,0:0:0:0:
320,192,163533,1,0,0:0:0:0:
192,192,163619,1,0,0:0:0:0:
64,192,163619,1,0,0:0:0:0:
320,192,163790,1,0,0:0:0:0:
448,192,163876,1,0,0:0:0:0:
192,192,163962,1,0,0:0:0:0:
320,192,164133,1,0,0:0:0:0:
192,192,164133,1,0,0:0:0:0:
64,192,164219,1,0,0:0:0:0:
192,192,164305,1,0,0:0:0:0:
448,192,164305,1,0,0:0:0:0:
320,192,164390,1,0,0:0:0:0:
192,192,164476,1,0,0:0:0:0:
64,192,164562,1,0,0:0:0:0:
448,192,164648,1,0,0:0:0:0:
320,192,164648,128,0,164990:0:0:0:0:
192,192,164990,1,0,0:0:0:0:
64,192,164990,1,0,0:0:0:0:
448,192,165162,1,0,0:0:0:0:
64,192,165248,1,0,0:0:0:0:
320,192,165333,1,0,0:0:0:0:
448,192,165419,1,0,0:0:0:0:
192,192,165505,1,0,0:0:0:0:
320,192,165590,1,0,0:0:0:0:
64,192,165676,1,0,0:0:0:0:
448,192,165676,1,0,0:0:0:0:
192,192,165762,1,0,0:0:0:0:
320,192,165848,1,0,0:0:0:0:
64,192,165933,1,0,0:0:0:0:
192,192,166019,1,0,0:0:0:0:
448,192,166105,1,0,0:0:0:0:
64,192,166190,1,0,0:0:0:0:
320,192,166276,1,0,0:0:0:0:
192,192,166362,1,0,0:0:0:0:
64,192,166362,1,0,0:0:0:0:
448,192,166448,1,0,0:0:0:0:
320,192,166533,1,0,0:0:0:0:
64,192,166619,1,0,0:0:0:0:
192,192,166705,1,0,0:0:0:0:
448,192,166790,1,0,0:0:0:0:
64,192,166876,1,0,0:0:0:0:
320,192,166962,1,0,0:0:0:0:
192,192,167048,1,0,0:0:0:0:
64,192,167048,1,0,0:0:0:0:
320,192,167133,1,0,0:0:0:0:
448,192,167219,1,0,0:0:0:0:
192,192,167305,1,0,0:0:0:0:
320,192,167390,1,0,0:0:0:0:
64,192,167476,1,0,0:0:0:0:
192,192,167562,1,0,0:0:0:0:
320,192,167648,1,0,0:0:0:0:
448,192,167733,1,0,0:0:0:0:
64,192,167733,1,0,0:0:0:0:
320,192,167819,1,0,0:0:0:0:
192,192,167905,1,0,0:0:0:0:
448,192,167990,1,0,0:0:0:0:
320,192,168076,1,0,0:0:0:0:
64,192,168162,1,0,0:0:0:0:
448,192,168248,1,0,0:0:0:0:
192,192,168333,1,0,0:0:0:0:
448,192,168419,1,0,0:0:0:0:
64,192,168419,1,0,0:0:0:0:
320,192,168505,1,0,0:0:0:0:
448,192,168590,1,0,0:0:0:0:
64,192,168676,1,0,0:0:0:0:
192,192,168762,1,0,0:0:0:0:
320,192,168762,1,0,0:0:0:0:
448,192,168933,1,0,0:0:0:0:
320,192,169105,1,0,0:0:0:0:
64,192,169105,1,0,0:0:0:0:
192,192,169276,1,0,0:0:0:0:
320,192,169448,1,0,0:0:0:0:
64,192,169448,1,0,0:0:0:0:
448,192,169619,1,0,0:0:0:0:
192,192,169790,1,0,0:0:0:0:
320,192,169790,1,0,0:0:0:0:
64,192,169962,1,0,0:0:0:0:
320,192,170133,1,0,0:0:0:0:
448,192,170133,128,0,171505:0:0:0:0:
64,192,171333,1,0,0:0:0:0:
192,192,171419,1,0,0:0:0:0:
320,192,171505,128,0,172876:0:0:0:0:
64,192,172362,1,0,0:0:0:0:
192,192,172533,1,0,0:0:0:0:
448,192,172705,1,0,0:0:0:0:
64,192,172876,128,0,174248:0:0:0:0:
192,192,173390,1,0,0:0:0:0:
448,192,173562,1,0,0:0:0:0:
320,192,173733,1,0,0:0:0:0:
192,192,173905,128,0,174076:0:0:0:0:
320,192,174076,128,0,174248:0:0:0:0:
448,192,174248,128,0,175619:0:0:0:0:
192,192,174590,1,0,0:0:0:0:
320,192,174762,1,0,0:0:0:0:
64,192,174933,1,0,0:0:0:0:
192,192,175105,1,0,0:0:0:0:
64,192,175276,1,0,0:0:0:0:
320,192,175448,1,0,0:0:0:0:
192,192,175619,128,0,176990:0:0:0:0:
64,192,175619,1,0,0:0:0:0:
320,192,176133,128,0,176648:0:0:0:0:
448,192,176648,128,0,176990:0:0:0:0:
64,192,176990,128,0,178362:0:0:0:0:
320,192,177162,1,0,0:0:0:0:
192,192,177333,1,0,0:0:0:0:
448,192,177676,128,0,178019:0:0:0:0:
192,192,178019,128,0,178362:0:0:0:0:
320,192,178362,128,0,179733:0:0:0:0:
192,192,178962,128,0,179390:0:0:0:0:
448,192,179390,128,0,179562:0:0:0:0:
64,192,179562,1,0,0:0:0:0:
192,192,179648,1,0,0:0:0:0:
448,192,179733,128,0,181105:0:0:0:0:
64,192,179905,1,0,0:0:0:0:
320,192,180076,1,0,0:0:0:0:
192,192,180076,1,0,0:0:0:0:
64,192,180248,1,0,0:0:0:0:
320,192,180419,1,0,0:0:0:0:
192,192,180419,1,0,0:0:0:0:
64,192,180590,1,0,0:0:0:0:
320,192,180762,1,0,0:0:0:0:
192,192,180762,1,0,0:0:0:0:
64,192,180933,1,0,0:0:0:0:
320,192,181105,1,0,0:0:0:0:
192,192,181105,1,0,0:0:0:0:
64,192,181105,128,0,182476:0:0:0:0:
192,192,182305,1,0,0:0:0:0:
320,192,182390,1,0,0:0:0:0:
448,192,182476,128,0,183848:0:0:0:0:
192,192,183333,128,0,183505:0:0:0:0:
320,192,183505,128,0,183848:0:0:0:0:
192,192,183848,128,0,185219:0:0:0:0:
320,192,184362,128,0,184533:0:0:0:0:
64,192,184533,128,0,184705:0:0:0:0:
448,192,184705,128,0,184876:0:0:0:0:
64,192,184876,128,0,185048:0:0:0:0:
320,192,185048,128,0,185219:0:0:0:0:
64,192,185219,128,0,186590:0:0:0:0:
192,192,185562,128,0,185905:0:0:0:0:
448,192,185905,128,0,186076:0:0:0:0:
192,192,186076,128,0,186248:0:0:0:0:
448,192,186248,128,0,186590:0:0:0:0:
192,192,186419,128,0,186590:0:0:0:0:
320,192,186590,128,0,187962:0:0:0:0:
64,192,187105,128,0,187619:0:0:0:0:
448,192,187619,128,0,187962:0:0:0:0:
64,192,187962,128,0,189333:0:0:0:0:
192,192,188133,128,0,188305:0:0:0:0:
320,192,188305,128,0,188648:0:0:0:0:
448,192,188648,128,0,188990:0:0:0:0:
320,192,188990,128,0,189333:0:0:0:0:
192,192,189333,128,0,190705:0:0:0:0:
320,192,190019,128,0,190705:0:0:0:0:
64,192,190533,128,0,190705:0:0:0:0:
448,192,190705,128,0,192076:0:0:0:0:
320,192,191048,1,0,0:0:0:0:
64,192,191048,1,0,0:0:0:0:
64,192,191390,1,0,0:0:0:0:
320,192,191390,1,0,0:0:0:0:
192,192,191562,1,0,0:0:0:0:
320,192,191733,1,0,0:0:0:0:
64,192,191733,1,0,0:0:0:0:
192,192,191905,1,0,0:0:0:0:
64,192,192076,1,0,0:0:0:0:
320,192,192076,1,0,0:0:0:0:
192,192,192076,128,0,197048:0:0:0:0:
448,192,196362,1,0,0:0:0:0:
448,192,196533,1,0,0:0:0:0:
320,192,196705,1,0,0:0:0:0:
64,192,196876,1,0,0:0:0:0:
448,192,197048,1,0,0:0:0:0:
320,192,197219,1,0,0:0:0:0:
192,192,197390,1,0,0:0:0:0:
64,192,197562,1,0,0:0:0:0:
320,192,197733,1,0,0:0:0:0:
320,192,197905,1,0,0:0:0:0:
64,192,198076,1,0,0:0:0:0:
448,192,198248,1,0,0:0:0:0:
192,192,198419,1,0,0:0:0:0:
320,192,198590,1,0,0:0:0:0:
448,192,198762,1,0,0:0:0:0:
64,192,198933,1,0,0:0:0:0:
448,192,199105,1,0,0:0:0:0:
448,192,199276,1,0,0:0:0:0:
192,192,199448,1,0,0:0:0:0:
64,192,199619,1,0,0:0:0:0:
320,192,199790,1,0,0:0:0:0:
192,192,199962,1,0,0:0:0:0:
448,192,200133,1,0,0:0:0:0:
320,192,200305,1,0,0:0:0:0:
64,192,200476,1,0,0:0:0:0:
320,192,200648,1,0,0:0:0:0:
64,192,200819,1,0,0:0:0:0:
448,192,200990,1,0,0:0:0:0:
192,192,201162,1,0,0:0:0:0:
448,192,201333,1,0,0:0:0:0:
192,192,201505,1,0,0:0:0:0:
64,192,201676,1,0,0:0:0:0:
320,192,201848,1,0,0:0:0:0:
320,192,202019,1,0,0:0:0:0:
64,192,202190,1,0,0:0:0:0:
192,192,202362,1,0,0:0:0:0:
320,192,202362,1,0,0:0:0:0:
64,192,202448,1,0,0:0:0:0:
448,192,202448,1,0,0:0:0:0:
192,192,202533,1,0,0:0:0:0:
320,192,202533,1,0,0:0:0:0:
64,192,202619,1,0,0:0:0:0:
448,192,202619,1,0,0:0:0:0:
192,192,202705,1,0,0:0:0:0:
320,192,202705,1,0,0:0:0:0:
64,192,202790,1,0,0:0:0:0:
320,192,202790,1,0,0:0:0:0:
192,192,202876,1,0,0:0:0:0:
448,192,202876,1,0,0:0:0:0:
320,192,202962,1,0,0:0:0:0:
64,192,202962,1,0,0:0:0:0:
448,192,203048,1,0,0:0:0:0:
64,192,203219,1,0,0:0:0:0:
320,192,203390,1,0,0:0:0:0:
192,192,203562,1,0,0:0:0:0:
448,192,203733,1,0,0:0:0:0:
64,192,203905,1,0,0:0:0:0:
320,192,204076,1,0,0:0:0:0:
64,192,204248,1,0,0:0:0:0:
448,192,204419,1,0,0:0:0:0:
448,192,204590,1,0,0:0:0:0:
64,192,204762,1,0,0:0:0:0:
448,192,204933,1,0,0:0:0:0:
192,192,205105,1,0,0:0:0:0:
320,192,205276,1,0,0:0:0:0:
448,192,205448,1,0,0:0:0:0:
192,192,205619,1,0,0:0:0:0:
64,192,205790,1,0,0:0:0:0:
448,192,205962,1,0,0:0:0:0:
448,192,206133,1,0,0:0:0:0:
192,192,206305,1,0,0:0:0:0:
320,192,206476,1,0,0:0:0:0:
64,192,206648,1,0,0:0:0:0:
192,192,206819,1,0,0:0:0:0:
448,192,206990,1,0,0:0:0:0:
320,192,207162,1,0,0:0:0:0:
64,192,207333,1,0,0:0:0:0:
64,192,207505,1,0,0:0:0:0:
320,192,207676,1,0,0:0:0:0:
64,192,207848,1,0,0:0:0:0:
320,192,208019,1,0,0:0:0:0:
64,192,208190,1,0,0:0:0:0:
448,192,208362,1,0,0:0:0:0:
64,192,208533,1,0,0:0:0:0:
320,192,208533,1,0,0:0:0:0:
192,192,208705,1,0,0:0:0:0:
320,192,208876,1,0,0:0:0:0:
448,192,208876,1,0,0:0:0:0:
64,192,209048,1,0,0:0:0:0:
192,192,209219,1,0,0:0:0:0:
448,192,209390,1,0,0:0:0:0:
320,192,209562,1,0,0:0:0:0:
64,192,209562,1,0,0:0:0:0:
192,192,209733,1,0,0:0:0:0:
448,192,209905,1,0,0:0:0:0:
64,192,210076,1,0,0:0:0:0:
320,192,210248,1,0,0:0:0:0:
192,192,210248,1,0,0:0:0:0:
448,192,210419,1,0,0:0:0:0:
320,192,210505,1,0,0:0:0:0:
64,192,210505,1,0,0:0:0:0:
448,192,210590,1,0,0:0:0:0:
192,192,210590,1,0,0:0:0:0:
320,192,210676,1,0,0:0:0:0:
64,192,210676,1,0,0:0:0:0:
192,192,210762,1,0,0:0:0:0:
448,192,210933,1,0,0:0:0:0:
320,192,210933,1,0,0:0:0:0:
64,192,211105,1,0,0:0:0:0:
192,192,211190,1,0,0:0:0:0:
448,192,211276,1,0,0:0:0:0:
320,192,211276,1,0,0:0:0:0:
64,192,211448,1,0,0:0:0:0:
64,192,211619,1,0,0:0:0:0:
320,192,211619,1,0,0:0:0:0:
192,192,211790,1,0,0:0:0:0:
448,192,211962,1,0,0:0:0:0:
64,192,212133,1,0,0:0:0:0:
192,192,212305,1,0,0:0:0:0:
448,192,212305,1,0,0:0:0:0:
320,192,212476,1,0,0:0:0:0:
64,192,212648,1,0,0:0:0:0:
448,192,212819,1,0,0:0:0:0:
448,192,212990,1,0,0:0:0:0:
192,192,212990,1,0,0:0:0:0:
320,192,213162,1,0,0:0:0:0:
64,192,213333,1,0,0:0:0:0:
448,192,213505,1,0,0:0:0:0:
64,192,213676,1,0,0:0:0:0:
320,192,213676,1,0,0:0:0:0:
192,192,213762,1,0,0:0:0:0:
320,192,213848,1,0,0:0:0:0:
448,192,213848,1,0,0:0:0:0:
192,192,213933,1,0,0:0:0:0:
64,192,214019,1,0,0:0:0:0:
448,192,214019,1,0,0:0:0:0:
448,192,214190,1,0,0:0:0:0:
320,192,214362,1,0,0:0:0:0:
64,192,214362,1,0,0:0:0:0:
192,192,214533,1,0,0:0:0:0:
448,192,214705,1,0,0:0:0:0:
64,192,214705,1,0,0:0:0:0:
192,192,214876,1,0,0:0:0:0:
448,192,215048,1,0,0:0:0:0:
320,192,215048,1,0,0:0:0:0:
64,192,215219,1,0,0:0:0:0:
192,192,215390,1,0,0:0:0:0:
448,192,215562,1,0,0:0:0:0:
64,192,215733,1,0,0:0:0:0:
192,192,215733,1,0,0:0:0:0:
448,192,215905,1,0,0:0:0:0:
320,192,215990,1,0,0:0:0:0:
64,192,215990,1,0,0:0:0:0:
192,192,216076,1,0,0:0:0:0:
448,192,216162,1,0,0:0:0:0:
320,192,216162,1,0,0:0:0:0:
64,192,216333,1,0,0:0:0:0:
192,192,216333,1,0,0:0:0:0:
448,192,216419,1,0,0:0:0:0:
320,192,216419,1,0,0:0:0:0:
64,192,216505,1,0,0:0:0:0:
192,192,216590,1,0,0:0:0:0:
320,192,216676,1,0,0:0:0:0:
64,192,216676,1,0,0:0:0:0:
448,192,216762,1,0,0:0:0:0:
192,192,216762,1,0,0:0:0:0:
320,192,216933,1,0,0:0:0:0:
448,192,217105,1,0,0:0:0:0:
64,192,217105,1,0,0:0:0:0:
192,192,217276,1,0,0:0:0:0:
320,192,217448,1,0,0:0:0:0:
64,192,217448,1,0,0:0:0:0:
448,192,217619,1,0,0:0:0:0:
192,192,217790,1,0,0:0:0:0:
448,192,217790,1,0,0:0:0:0:
64,192,217962,1,0,0:0:0:0:
192,192,218133,1,0,0:0:0:0:
64,192,218305,1,0,0:0:0:0:
448,192,218476,1,0,0:0:0:0:
320,192,218476,1,0,0:0:0:0:
192,192,218648,1,0,0:0:0:0:
448,192,218819,1,0,0:0:0:0:
64,192,218990,1,0,0:0:0:0:
192,192,219162,1,0,0:0:0:0:
320,192,219162,1,0,0:0:0:0:
448,192,219333,1,0,0:0:0:0:
64,192,219333,1,0,0:0:0:0:
192,192,219505,1,0,0:0:0:0:
320,192,219505,1,0,0:0:0:0:
448,192,219676,1,0,0:0:0:0:
64,192,219848,1,0,0:0:0:0:
320,192,219848,1,0,0:0:0:0:
192,192,220019,1,0,0:0:0:0:
320,192,220190,1,0,0:0:0:0:
448,192,220190,1,0,0:0:0:0:
64,192,220362,1,0,0:0:0:0:
448,192,220533,1,0,0:0:0:0:
192,192,220533,1,0,0:0:0:0:
64,192,220705,1,0,0:0:0:0:
320,192,220876,1,0,0:0:0:0:
192,192,220876,1,0,0:0:0:0:
448,192,221048,1,0,0:0:0:0:
192,192,221219,1,0,0:0:0:0:
64,192,221219,1,0,0:0:0:0:
448,192,221390,1,0,0:0:0:0:
64,192,221476,1,0,0:0:0:0:
320,192,221476,1,0,0:0:0:0:
192,192,221562,1,0,0:0:0:0:
448,192,221648,1,0,0:0:0:0:
320,192,221648,1,0,0:0:0:0:
64,192,221733,1,0,0:0:0:0:
192,192,221905,1,0,0:0:0:0:
320,192,221905,1,0,0:0:0:0:
64,192,222076,1,0,0:0:0:0:
448,192,222162,1,0,0:0:0:0:
320,192,222162,1,0,0:0:0:0:
192,192,222248,1,0,0:0:0:0:
64,192,222248,1,0,0:0:0:0:
448,192,222419,1,0,0:0:0:0:
320,192,222590,1,0,0:0:0:0:
64,192,222590,1,0,0:0:0:0:
192,192,222762,1,0,0:0:0:0:
448,192,222933,1,0,0:0:0:0:
64,192,222933,1,0,0:0:0:0:
320,192,223105,1,0,0:0:0:0:
448,192,223276,1,0,0:0:0:0:
192,192,223276,1,0,0:0:0:0:
320,192,223448,1,0,0:0:0:0:
448,192,223619,1,0,0:0:0:0:
64,192,223619,1,0,0:0:0:0:
192,192,223705,1,0,0:0:0:0:
320,192,223790,1,0,0:0:0:0:
192,192,223876,1,0,0:0:0:0:
64,192,223962,1,0,0:0:0:0:
448,192,224048,1,0,0:0:0:0:
320,192,224133,1,0,0:0:0:0:
192,192,224219,1,0,0:0:0:0:
320,192,224305,1,0,0:0:0:0:
448,192,224390,1,0,0:0:0:0:
64,192,224476,1,0,0:0:0:0:
192,192,224562,1,0,0:0:0:0:
320,192,224648,1,0,0:0:0:0:
448,192,224733,1,0,0:0:0:0:
64,192,224733,1,0,0:0:0:0:
192,192,224819,1,0,0:0:0:0:
320,192,224819,1,0,0:0:0:0:
64,192,224905,1,0,0:0:0:0:
448,192,224905,1,0,0:0:0:0:
192,192,224990,1,0,0:0:0:0:
320,192,224990,1,0,0:0:0:0:
