osu file format v12

[General]
AudioFilename: Dimrain47 - Forsaken Neon.mp3
AudioLeadIn: 0
PreviewTime: 89342
Countdown: 0
SampleSet: Normal
StackLeniency: 0.7
Mode: 0
LetterboxInBreaks: 1
WidescreenStoryboard: 0

[Editor]
DistanceSpacing: 1
BeatDivisor: 4
GridSize: 8

[Metadata]
Title:Forsaken Neon
TitleUnicode:Forsaken Neon
Artist:Dimrain47
ArtistUnicode:Dimrain47
Creator:Tshemmp
Version:Normal
Source:
Tags:Techno Trance bomber34 BCI black_cherry_ita phaZ SkyDevil Katty Pie
BeatmapID:171754
BeatmapSetID:54215

[Difficulty]
HPDrainRate:3
CircleSize:3
OverallDifficulty:4
ApproachRate:5
SliderMultiplier:0.799999999999999
SliderTickRate:1

[Events]
//Background and Video events
0,0,"BG.jpg",0,0
//Break Periods
2,48204,48890
2,114985,121934
2,123334,130021
//Storyboard Layer 0 (Background)
//Storyboard Layer 1 (Fail)
//Storyboard Layer 2 (Pass)
//Storyboard Layer 3 (Foreground)
//Storyboard Sound Samples
//Background Colour Transformations
3,100,0,0,0

[TimingPoints]
4177.92514483393,260.869565217391,4,2,1,50,1,0
12525,-100,4,2,1,70,0,1
29221,-100,4,2,1,70,0,0
41743,-100,4,2,1,75,0,0
42786,-100,4,2,1,80,0,0
43830,-100,4,2,1,85,0,0
44873,-100,4,2,1,90,0,0
45917,-100,4,2,1,90,0,1
45982,-100,4,2,1,50,0,0
48004,-100,4,2,1,20,0,0
50090,-100,4,2,1,50,0,0
58438,-100,4,2,1,70,0,0
83482,-100,4,2,1,70,0,1
83547,-100,4,2,1,70,0,0
85569,-100,4,2,1,50,0,0
89743,-100,4,2,1,70,0,1
106438,-100,4,2,1,70,0,0
114786,-100,4,2,1,60,0,0
131482,-100,4,2,1,70,0,0
133047,-100,4,2,2,40,0,0
133308,-100,4,2,1,70,0,0
137221,-100,4,2,2,40,0,0
137482,-100,4,2,1,70,0,0
139830,-100,4,2,1,60,0,0
146090,-100,4,2,1,70,0,0
146612,-100,4,2,1,80,0,0
147134,-100,4,2,1,90,0,0
147656,-100,4,1,0,70,0,0
148177,-100,4,1,0,70,0,1
149221,-100,4,1,0,70,0,0

[Colours]
Combo1 : 41,79,226
Combo2 : 46,196,207
Combo3 : 71,6,206
Combo4 : 121,199,236

[HitObjects]
240,288,4177,2,0,B|208:264|192:224,1,79.9999999999999,2|0,0:0|0:0,0:0:0:0:
176,144,4699,2,0,B|170:104|187:64,1,79.9999999999999
264,40,5221,2,0,B|312:64|384:64,2,120,2|2|2,0:0|0:0|0:0,0:0:0:0:
104,40,6525,5,0,0:0:0:0:
64,112,6786,1,0,0:0:0:0:
48,192,7047,1,0,0:0:0:0:
64,272,7308,2,0,B|88:312|104:312|120:312|152:352,2,120,2|2|2,0:0|0:0|0:0,0:0:0:0:
120,216,8351,6,0,B|160:200|200:200,1,79.9999999999999
280,200,8873,2,0,B|317:199|357:215,1,79.9999999999999
440,200,9395,2,0,B|464:136|464:80,2,120,2|2|2,0:0|0:0|0:0,0:0:0:0:
400,272,10438,6,0,B|384:312|344:328,1,79.9999999999999
265,303,10960,2,0,B|281:263|321:247,1,79.9999999999999
378,191,11482,2,0,B|346:163|302:167,1,79.9999999999999,2|0,0:0|0:0,0:0:0:0:
224,144,12004,2,2,B|200:128|200:128|168:144|168:144|136:128|136:128|112:144,1,120
104,176,12525,6,0,B|24:176,1,79.9999999999999,6|0,0:0|0:0,0:0:0:0:
48,256,13047,2,0,B|128:256,1,79.9999999999999,0|2,0:0|0:0,0:0:0:0:
152,336,13569,2,0,B|32:336,2,120,2|0|2,0:0|0:0|0:0,0:0:0:0:
232,320,14612,5,2,0:0:0:0:
368,240,15134,1,0,0:0:0:0:
460,104,15656,2,0,B|462:63|439:24|395:3,2,120,2|0|2,0:0|0:0|0:0,0:0:0:0:
384,128,16699,6,0,B|304:144|224:128,1,160,2|0,0:0|0:0,0:0:0:0:
80,56,17743,2,0,B|59:113|63:174,1,120,2|0,0:0|0:0,0:0:0:0:
80,296,18525,1,0,0:0:0:0:
128,360,18786,6,0,B|168:368|208:368,1,79.9999999999999,2|0,0:0|0:0,0:0:0:0:
288,368,19308,2,0,B|328:368|368:360,1,79.9999999999999,2|0,0:0|0:0,0:0:0:0:
432,312,19830,2,0,B|464:280|464:240,1,79.9999999999999,2|0,0:0|0:0,0:0:0:0:
414,173,20351,2,0,B|382:205|382:245,1,79.9999999999999,2|2,0:0|0:0,0:0:0:0:
320,296,20873,6,0,B|80:256,1,240,6|2,0:0|0:0,0:0:0:0:
34,192,21917,1,2,0:0:0:0:
36,112,22177,1,0,0:0:0:0:
84,48,22438,1,0,0:0:0:0:
161,26,22699,1,0,0:0:0:0:
240,40,22960,6,0,B|376:240,1,240,2|2,0:0|0:0,0:0:0:0:
344,312,24004,2,0,B|324:331|305:321|286:312|267:331,1,79.9999999999999,2|0,0:0|0:0,0:0:0:0:
192,344,24525,2,0,B|172:363|153:353|134:344|115:363,1,79.9999999999999,0|2,0:0|0:0,0:0:0:0:
48,320,25047,6,0,B|16:264|16:200,2,120,2|0|2,0:0|0:0|0:0,0:0:0:0:
128,296,26090,2,0,B|144:256|144:216,1,79.9999999999999,2|0,0:0|0:0,0:0:0:0:
152,136,26612,2,0,B|151:98|167:58,1,79.9999999999999
244,32,27134,6,0,B|270:26|302:32|323:47,1,79.9999999999999,2|0,0:0|0:0,0:0:0:0:
356,68,27525,2,0,B|324:108|312:180,1,120,2|0,0:0|0:0,0:0:0:0:
328,256,28177,2,0,B|416:272,1,79.9999999999999,2|0,0:0|0:0,0:0:0:0:
368,344,28699,2,0,B|456:360,2,79.9999999999999,2|0|6,0:0|0:0|0:0,0:0:0:0:
208,336,29743,5,0,0:0:0:0:
88,224,30264,1,0,0:0:0:0:
192,104,30786,1,0,0:0:0:0:
312,216,31308,5,2,0:0:0:0:
400,80,31830,1,0,0:0:0:0:
480,224,32351,1,0,0:0:0:0:
392,360,32873,1,0,0:0:0:0:
232,360,33395,6,0,B|152:360|72:376,1,160,2|0,0:0|0:0,0:0:0:0:
136,224,34438,2,0,B|216:224|296:208,1,160
200,80,35482,6,0,B|160:80|120:88,1,79.9999999999999,2|0,0:0|0:0,0:0:0:0:
54,133,36004,2,0,B|22:157|14:205,1,79.9999999999999,2|0,0:0|0:0,0:0:0:0:
24,280,36525,2,0,B|48:320|88:336,1,79.9999999999999,2|0,0:0|0:0,0:0:0:0:
160,352,37047,1,2,0:0:0:0:
240,344,37308,1,2,0:0:0:0:
320,328,37569,6,0,P|361:331|400:344,1,79.9999999999999,0|0,0:0|0:0,0:0:0:0:
411,264,38090,2,0,P|371:252|332:249,1,79.9999999999999,0|0,0:0|0:0,0:0:0:0:
345,171,38612,6,0,P|232:64|72:80,3,320,0|0|0|2,0:0|0:0|0:0|0:0,0:0:0:0:
32,232,42264,5,2,0:0:0:0:
136,352,42786,1,2,0:0:0:0:
192,200,43308,1,2,0:0:0:0:
240,48,43830,6,0,B|280:32|280:32|320:32,1,79.9999999999999,2|0,0:0|0:0,0:0:0:0:
336,112,44351,2,0,B|299:112|299:112|259:128,1,79.9999999999999,2|0,0:0|0:0,0:0:0:0:
280,208,44873,1,2,0:0:0:0:
360,192,45134,1,2,0:0:0:0:
376,272,45395,1,2,0:0:0:0:
392,352,45656,1,2,0:0:0:0:
472,336,45917,1,6,0:0:0:0:
256,192,46177,12,0,48004,0:0:0:0:
256,32,50090,6,0,B|256:112,1,79.9999999999999
256,192,50612,1,2,0:0:0:0:
256,272,50873,2,0,B|256:352,3,79.9999999999999,0|0|0|2,0:0|0:0|0:0|0:0,0:0:0:0:
328,384,51917,1,0,0:0:0:0:
400,344,52177,6,0,B|448:312|464:256|456:200,1,160,0|2,0:0|0:0,0:0:0:0:
432,128,52960,1,0,0:0:0:0:
360,88,53221,2,0,B|280:64|207:111,1,160,0|2,0:0|0:0,0:0:0:0:
312,232,54264,5,0,0:0:0:0:
184,328,54786,1,2,0:0:0:0:
56,232,55308,1,0,0:0:0:0:
96,80,55830,1,2,0:0:0:0:
256,80,56351,6,0,B|336:64|376:72|416:80|496:64,1,240,0|2,0:0|0:0,0:0:0:0:
504,144,57395,2,0,B|424:160|384:152|344:144|264:160,1,240,0|2,0:0|0:0,0:0:0:0:
192,192,58438,6,0,B|152:216|160:264,2,79.9999999999999,2|0|0,0:0|0:0|0:0,0:0:0:0:
312,296,59482,2,0,B|319:339|279:363,2,79.9999999999999
432,192,60525,5,2,0:0:0:0:
320,80,61047,1,0,0:0:0:0:
288,232,61569,1,0,0:0:0:0:
176,120,62090,1,0,0:0:0:0:
112,168,62351,1,0,0:0:0:0:
96,248,62612,6,0,B|120:336|224:344,1,160,2|0,0:0|0:0,0:0:0:0:
292,344,63395,2,0,B|332:344,2,40
440,296,64177,1,0,0:0:0:0:
480,144,64699,6,0,B|424:96|336:64,1,160
176,48,65743,1,0,0:0:0:0:
136,200,66264,1,0,0:0:0:0:
112,280,66525,1,0,0:0:0:0:
88,360,66786,6,0,B|248:360,1,160,2|0,0:0|0:0,0:0:0:0:
384,280,67830,2,0,B|224:280,1,160
88,200,68873,6,0,B|248:200,1,160,2|2,0:0|0:0,0:0:0:0:
384,120,69917,2,0,B|224:120,1,160,2|2,0:0|0:0,0:0:0:0:
144,120,70699,1,2,0:0:0:0:
64,120,70960,6,0,B|32:96|16:48,2,79.9999999999999,2|0|0,0:0|0:0|0:0,0:0:0:0:
104,192,71743,1,0,0:0:0:0:
64,264,72004,2,0,B|32:288|16:336,2,79.9999999999999,2|0|0,0:0|0:0|0:0,0:0:0:0:
144,264,72786,1,0,0:0:0:0:
224,264,73047,6,0,B|384:264,3,160,2|2|2|2,0:0|0:0|0:0|0:0,0:0:0:0:
432,200,74873,1,0,0:0:0:0:
448,120,75134,6,0,B|440:80|408:48,2,79.9999999999999,6|0|0,0:0|0:0|0:0,0:0:0:0:
296,168,76177,2,0,B|262:145|216:145,2,79.9999999999999
224,312,77221,6,0,B|184:320|152:352,2,79.9999999999999,2|0|2,0:0|0:0|0:0,0:0:0:0:
384,304,78264,1,2,0:0:0:0:
472,168,78786,1,2,0:0:0:0:
464,88,79047,1,2,0:0:0:0:
424,16,79308,6,0,B|352:56|264:56,1,160,2|0,0:0|0:0,0:0:0:0:
272,216,80351,2,0,B|214:156|191:71,1,160
40,120,81395,6,0,B|82:49|158:5,1,160,2|2,0:0|0:0,0:0:0:0:
192,168,82438,2,0,B|149:238|73:282,1,160,2|2,0:0|0:0,0:0:0:0:
8,320,83221,1,2,0:0:0:0:
8,240,83482,1,6,0:0:0:0:
464,192,85569,6,0,B|384:192,1,79.9999999999999
312,232,86090,2,0,B|232:232,1,79.9999999999999
232,152,86612,2,0,B|312:152,1,79.9999999999999
384,112,87134,2,0,B|464:112,1,79.9999999999999
464,32,87656,6,0,B|440:24|424:32|408:40|384:32,1,79.9999999999999
304,32,88177,2,0,B|278:33|266:46|255:60|229:61,1,79.9999999999999
160,96,88699,2,0,B|137:107|131:124|126:141|103:152,1,79.9999999999999
48,208,89221,2,0,B|31:226|32:244|33:262|16:281,1,79.9999999999999,0|0,0:0|0:0,0:0:0:0:
88,320,89743,6,0,B|152:368|248:352,1,160,6|0,0:0|0:0,0:0:0:0:
312,320,90525,1,2,0:0:0:0:
384,280,90786,2,0,B|440:256|504:280,2,120,2|0|2,0:0|0:0|0:0,0:0:0:0:
312,240,91830,5,2,0:0:0:0:
240,200,92090,2,0,B|168:160,2,79.9999999999999,0|0|2,0:0|0:0|0:0,0:0:0:0:
312,160,92873,2,0,B|312:40,2,120,2|0|2,0:0|0:0|0:0,0:0:0:0:
384,200,93917,6,0,B|424:208|464:200,1,79.9999999999999,2|0,0:0|0:0,0:0:0:0:
504,120,94438,2,0,B|464:112|424:120,1,79.9999999999999,0|2,0:0|0:0,0:0:0:0:
344,128,94960,2,0,B|280:120|232:72,2,120,2|0|2,0:0|0:0|0:0,0:0:0:0:
320,208,96004,6,0,B|304:248|272:272,1,79.9999999999999,2|0,0:0|0:0,0:0:0:0:
200,312,96525,2,0,B|160:328|120:328,1,79.9999999999999,2|0,0:0|0:0,0:0:0:0:
76,262,97047,1,2,0:0:0:0:
124,198,97308,1,0,0:0:0:0:
194,160,97569,1,2,0:0:0:0:
269,132,97830,1,2,0:0:0:0:
312,64,98090,6,0,B|272:40|200:32|128:48|80:88,1,240,2|2,0:0|0:0,0:0:0:0:
32,144,99134,2,0,B|54:184|112:227|183:249|244:239,1,240,2|2,0:0|0:0,0:0:0:0:
240,160,100177,6,0,B|296:150|366:172|424:215|447:256,1,240,2|2,0:0|0:0,0:0:0:0:
376,296,101221,2,0,B|339:252|323:180|331:108|355:68,1,240,2|2,0:0|0:0,0:0:0:0:
280,40,102264,6,0,B|200:40,1,79.9999999999999,2|0,0:0|0:0,0:0:0:0:
240,120,102786,2,0,B|160:120,1,79.9999999999999,2|0,0:0|0:0,0:0:0:0:
200,200,103308,2,0,B|120:200,1,79.9999999999999,2|0,0:0|0:0,0:0:0:0:
80,280,103830,2,0,B|160:280,1,79.9999999999999,2|0,0:0|0:0,0:0:0:0:
196,352,104351,6,0,B|273:389|353:378,1,160,2|0,0:0|0:0,0:0:0:0:
424,344,105134,1,2,0:0:0:0:
472,280,105395,2,0,B|488:240|488:200,1,79.9999999999999,2|0,0:0|0:0,0:0:0:0:
472,120,105917,1,0,0:0:0:0:
424,56,106177,1,2,0:0:0:0:
344,40,106438,6,0,B|288:96|200:112,1,160,6|0,0:0|0:0,0:0:0:0:
120,120,107221,1,0,0:0:0:0:
136,200,107482,2,0,B|144:256|128:320,2,120
56,176,108525,5,2,0:0:0:0:
208,216,109047,1,0,0:0:0:0:
360,176,109569,2,0,B|392:152|432:144,1,79.9999999999999
496,192,110090,1,0,0:0:0:0:
496,272,110351,1,0,0:0:0:0:
432,320,110612,6,0,B|272:320,1,160,2|0,0:0|0:0,0:0:0:0:
176,192,111656,2,0,B|336:192,1,160
256,56,112699,6,0,B|216:48|176:48,1,79.9999999999999,2|0,0:0|0:0,0:0:0:0:
96,64,113221,2,0,B|56:80|40:120,1,79.9999999999999,2|0,0:0|0:0,0:0:0:0:
24,200,113743,2,0,B|24:240|48:280,1,79.9999999999999,2|0,0:0|0:0,0:0:0:0:
112,320,114264,1,2,0:0:0:0:
192,336,114525,2,0,B|232:328|272:304,1,79.9999999999999,0|6,0:0|0:0,0:0:0:0:
256,192,123134,5,4,0:0:0:0:
304,352,131221,5,0,0:0:0:0:
320,272,131482,2,0,B|352:232|368:200,1,79.9999999999999,2|0,0:0|0:0,0:0:0:0:
384,128,132004,1,8,0:0:0:0:
352,56,132264,1,0,0:0:0:0:
272,40,132525,2,0,B|209:54|174:106|174:106|129:63|65:61,1,240
24,128,133569,6,0,B|24:208|56:288,1,160,2|8,0:0|0:0,0:0:0:0:
208,328,134612,2,0,B|208:248|176:168,1,160,0|8,0:0|0:0,0:0:0:0:
304,72,135656,6,0,B|304:152|336:232,1,160,2|8,0:0|0:0,0:0:0:0:
488,256,136699,2,0,B|488:196|464:136,2,120,2|0|0,0:0|0:0|0:0,0:0:0:0:
432,320,137743,6,0,B|400:344|360:352,1,79.9999999999999,2|0,0:0|0:0,0:0:0:0:
280,360,138264,2,0,B|200:360,1,79.9999999999999,10|0,0:0|0:0,0:0:0:0:
120,352,138786,2,0,B|79:343|47:319,1,79.9999999999999,2|0,0:0|0:0,0:0:0:0:
8,248,139308,1,10,0:0:0:0:
4,168,139569,1,2,0:0:0:0:
40,96,139830,5,6,0:0:0:0:
360,96,140873,1,0,0:0:0:0:
200,368,141917,5,2,0:0:0:0:
200,48,142960,1,0,0:0:0:0:
488,192,144004,5,2,0:0:0:0:
416,336,144525,1,0,0:0:0:0:
256,352,145047,1,2,0:0:0:0:
96,336,145569,1,0,0:0:0:0:
24,192,146090,6,0,B|16:152|40:112,1,79.9999999999999,2|0,0:0|0:0,0:0:0:0:
120,128,146612,2,0,B|128:168|104:208,1,79.9999999999999,2|0,0:0|0:0,0:0:0:0:
200,216,147134,2,0,B|192:176|216:136,1,79.9999999999999,2|0,0:0|0:0,0:0:0:0:
276,88,147656,1,0,0:0:0:0:
355,76,147917,1,0,0:0:0:0:
425,115,148177,1,4,0:0:0:0:
