osu file format v13

[General]
AudioFilename: Dimrain47 - Forsaken Neon.mp3
AudioLeadIn: 0
PreviewTime: 89342
Countdown: 0
SampleSet: Soft
StackLeniency: 0.7
Mode: 0
LetterboxInBreaks: 1
WidescreenStoryboard: 0

[Editor]
DistanceSpacing: 1.1
BeatDivisor: 4
GridSize: 8
TimelineZoom: 1

[Metadata]
Title:Forsaken Neon
TitleUnicode:Forsaken Neon
Artist:Dimrain47
ArtistUnicode:Dimrain47
Creator:Tshemmp
Version:Extra
Source:
Tags:Techno Trance bomber34 BCI black_cherry_ita phaZ SkyDevil Katty Pie
BeatmapID:177001
BeatmapSetID:54215

[Difficulty]
HPDrainRate:7
CircleSize:4
OverallDifficulty:8
ApproachRate:9.6
SliderMultiplier:1.9
SliderTickRate:1

[Events]
//Background and Video events
0,0,"BG.jpg",0,0
//Break Periods
2,83682,85060
//Storyboard Layer 0 (Background)
//Storyboard Layer 1 (Fail)
//Storyboard Layer 2 (Pass)
//Storyboard Layer 3 (Foreground)
//Storyboard Sound Samples

[TimingPoints]
4177.92514483393,260.869565217391,4,2,1,50,1,0
6264,-100,4,2,1,30,0,0
6525,-100,4,2,1,50,0,0
12004,-100,4,2,1,55,0,0
12134,-100,4,2,1,60,0,0
12330,-100,4,2,1,65,0,0
12525,-100,4,1,1,70,0,1
12590,-100,4,2,1,70,0,1
20873,-100,4,2,1,70,0,1
28699,-100,4,2,1,80,0,1
28960,-100,4,2,1,90,0,1
29221,-100,4,2,1,100,0,0
29286,-100,4,2,1,70,0,0
33395,-100,4,1,1,70,0,0
33460,-100,4,2,1,70,0,0
41743,-100,4,2,1,75,0,0
42786,-100,4,2,1,80,0,0
43830,-100,4,2,1,85,0,0
44873,-100,4,2,1,90,0,0
45917,-100,4,2,1,90,0,1
45982,-100,4,2,1,90,0,0
46438,-100,4,2,1,80,0,0
46960,-100,4,2,1,70,0,0
47482,-100,4,2,1,60,0,0
48004,-100,4,2,1,50,0,0
48525,-100,4,2,1,40,0,0
49047,-100,4,2,1,30,0,0
49438,-100,4,2,1,23,0,0
49830,-100,4,2,1,15,0,0
50090,-100,4,2,1,60,0,0
58177,-100,4,3,1,30,0,0
58438,-100,4,1,1,70,0,0
58504,-100,4,2,1,70,0,0
66786,-100,4,1,1,70,0,0
66851,-100,4,2,1,70,0,0
83482,-100,4,1,1,70,0,1
83547,-100,4,2,1,70,0,0
85569,-100,4,2,1,50,0,0
89743,-100,4,2,1,70,0,1
106438,-100,4,2,1,70,0,0
114786,-100,4,1,1,60,0,0
114851,-100,4,2,1,60,0,0
123134,-100,4,1,1,60,0,0
123199,-100,4,2,1,60,0,0
127308,-100,4,1,1,60,0,0
127373,-100,4,2,1,60,0,0
131221,-100,4,3,1,40,0,0
131482,-100,4,2,1,70,0,0
139830,-100,4,2,1,60,0,0
146090,-100,4,2,1,70,0,0
146612,-100,4,2,1,80,0,0
147134,-100,4,2,1,90,0,0
147656,-100,4,1,0,70,0,0
148177,-100,4,1,0,70,0,1
148243,-100,4,2,1,95,0,1
148438,-100,4,2,1,80,0,1
148699,-100,4,2,1,60,0,1
148960,-100,4,2,1,40,0,1
149221,-100,4,2,1,20,0,0

[Colours]
Combo1 : 41,79,226
Combo2 : 46,196,207
Combo3 : 71,6,206
Combo4 : 121,199,236

[HitObjects]
392,64,4177,6,0,B|352:96|360:152,1,95
400,256,4438,2,0,B|368:298|317:292,1,95
195,292,4699,2,0,B|144:298|112:256,1,95,2|0,0:0|0:0,0:0:0:0:
152,148,4960,2,0,B|160:96|120:64,1,95
256,40,5221,6,0,B|256:136,1,95
296,240,5482,1,0,0:0:0:0:
408,240,5612,2,0,B|408:144,1,95,0|2,0:0|0:0,0:0:0:0:
368,40,5873,1,0,0:0:0:0:
256,40,6004,2,0,B|208:40|208:40|152:48|144:104|144:104|144:152,1,190
256,344,6525,5,0,0:0:0:0:
440,128,6786,1,2,0:0:0:0:
72,128,7047,1,0,0:0:0:0:
72,128,7308,6,0,B|160:176,1,95
239,222,7569,1,0,0:0:0:0:
320,272,7699,2,0,B|288:312|232:320,1,95,0|2,0:0|0:0,0:0:0:0:
152,360,7960,1,0,0:0:0:0:
64,320,8090,1,0,0:0:0:0:
152,24,8351,5,0,0:0:0:0:
448,64,8612,1,0,0:0:0:0:
400,320,8873,1,2,0:0:0:0:
155,173,9134,1,0,0:0:0:0:
336,104,9395,6,0,B|344:136|368:160|400:168,1,95
496,192,9656,1,0,0:0:0:0:
400,320,9786,2,0,B|392:288|368:264|336:256,1,95,0|2,0:0|0:0,0:0:0:0:
240,232,10047,1,0,0:0:0:0:
144,272,10177,2,0,B|120:288|96:288|72:288|48:304,2,95
343,175,10699,5,0,0:0:0:0:
200,48,10960,2,0,B|128:112,1,95,2|0,0:0|0:0,0:0:0:0:
272,112,11221,2,0,B|344:176,1,95
343,175,11482,5,0,0:0:0:0:
152,304,11743,1,0,0:0:0:0:
152,304,11873,1,0,0:0:0:0:
152,304,12004,1,2,0:0:0:0:
180,324,12069,1,0,0:0:0:0:
212,332,12134,1,0,0:0:0:0:
244,332,12199,1,0,0:0:0:0:
276,328,12264,1,0,0:0:0:0:
304,312,12330,1,0,0:0:0:0:
332,292,12395,1,0,0:0:0:0:
364,280,12460,1,0,0:0:0:0:
396,276,12525,6,0,B|448:264|488:296,1,95,4|0,0:0|0:0,0:0:0:0:
392,176,12786,2,0,B|340:188|300:156,1,95,2|0,0:0|0:0,0:0:0:0:
116,276,13047,2,0,B|64:264|24:296,1,95
120,176,13308,2,0,B|172:188|212:156,1,95,2|0,0:0|0:0,0:0:0:0:
256,56,13569,6,0,B|160:56,1,95
256,160,13830,1,2,0:0:0:0:
256,160,13960,2,0,B|352:160,1,95
448,160,14221,1,0,0:0:0:0:
448,160,14351,2,0,B|448:224|424:288|368:328,1,190,2|4,0:0|0:0,0:0:0:0:
256,352,14743,5,0,0:0:0:0:
141,325,14873,2,0,B|96:304|64:272,1,95,2|0,0:0|0:0,0:0:0:0:
141,58,15134,2,0,B|96:80|64:112,1,95
144,192,15395,2,0,B|240:192,1,95,2|0,0:0|0:0,0:0:0:0:
351,160,15656,6,0,B|352:112|336:64,2,95,0|0|2,0:0|0:0|0:0,0:0:0:0:
448,224,16047,2,0,B|448:272|464:320,2,95
312,328,16438,1,4,0:0:0:0:
144,280,16569,1,2,0:0:0:0:
184,112,16699,6,0,B|0:48,1,190,4|2,0:0|0:0,0:0:0:0:
192,200,17090,1,0,0:0:0:0:
328,272,17221,2,0,B|512:336,1,190,0|2,0:0|0:0,0:0:0:0:
320,184,17612,1,0,0:0:0:0:
368,96,17743,6,0,B|320:88|272:96,1,95
168,120,18004,1,2,0:0:0:0:
144,288,18134,2,0,B|192:296|240:288,1,95
344,264,18395,1,0,0:0:0:0:
256,192,18525,1,2,0:0:0:0:
448,40,18786,6,0,B|464:64|472:96|464:136,1,95
432,304,19047,2,0,B|419:329|395:352|356:365,1,95,2|0,0:0|0:0,0:0:0:0:
336,264,19308,2,0,B|359:237|368:205|366:176,1,95
288,40,19569,2,0,B|272:64|264:96|271:131,1,95,2|0,0:0|0:0,0:0:0:0:
128,160,19830,5,4,0:0:0:0:
216,192,19960,1,0,0:0:0:0:
304,224,20090,1,2,0:0:0:0:
392,256,20221,1,0,0:0:0:0:
480,144,20351,5,4,0:0:0:0:
392,112,20481,1,0,0:0:0:0:
304,80,20612,1,4,0:0:0:0:
216,48,20742,1,2,0:0:0:0:
104,48,20873,6,0,B|56:64|32:112,1,95,4|0,0:0|0:0,0:0:0:0:
16,200,21134,2,0,B|88:272,1,95,2|0,0:0|0:0,0:0:0:0:
168,312,21395,1,2,0:0:0:0:
201,310,21460,1,0,0:0:0:0:
233,304,21525,1,2,0:0:0:0:
265,292,21590,1,0,0:0:0:0:
293,275,21655,1,2,0:0:0:0:
317,252,21721,1,0,0:0:0:0:
341,229,21786,1,2,0:0:0:0:
368,209,21851,1,0,0:0:0:0:
398,192,21917,6,0,B|480:144,1,95
344,128,22177,2,0,B|262:176,1,95,2|0,0:0|0:0,0:0:0:0:
152,184,22438,2,0,B|144:151|154:119|179:97,1,95
200,272,22699,2,0,B|224:294|264:297|289:283,1,95,2|2,0:0|0:0,0:0:0:0:
296,64,22960,6,0,B|256:32|210:24,1,95
423,146,23221,2,0,B|416:192|384:232,1,95,2|0,0:0|0:0,0:0:0:0:
216,320,23482,1,2,0:0:0:0:
176,312,23547,1,0,0:0:0:0:
152,280,23612,1,0,0:0:0:0:
160,240,23677,1,0,0:0:0:0:
192,216,23743,1,2,0:0:0:0:
200,176,23808,1,0,0:0:0:0:
184,144,23873,1,0,0:0:0:0:
88,88,24004,6,0,B|64:128|80:184,1,95
256,312,24264,2,0,B|280:272|264:216,1,95,0|0,0:0|0:0,0:0:0:0:
256,184,24460,1,0,0:0:0:0:
264,144,24525,1,2,0:0:0:0:
288,112,24590,1,0,0:0:0:0:
320,96,24656,2,0,B|368:80|416:112,2,95,0|4|0,0:0|0:0|0:0,0:0:0:0:
424,192,25047,6,0,B|472:208,2,47.5,4|0|0,0:0|0:0|0:0,0:0:0:0:
416,320,25308,2,0,B|426:369,2,47.5,2|0|0,0:0|0:0|0:0,0:0:0:0:
256,312,25569,1,2,0:0:0:0:
224,328,25634,1,0,0:0:0:0:
184,336,25699,1,2,0:0:0:0:
144,336,25764,1,0,0:0:0:0:
104,320,25830,1,2,0:0:0:0:
80,296,25895,1,0,0:0:0:0:
64,264,25960,1,2,0:0:0:0:
176,232,26090,5,0,0:0:0:0:
176,232,26221,1,0,0:0:0:0:
264,176,26351,2,0,B|344:128,1,95,2|0,0:0|0:0,0:0:0:0:
345,127,26612,1,0,0:0:0:0:
264,48,26743,2,0,B|344:0,1,95,0|2,0:0|0:0,0:0:0:0:
345,0,27004,1,2,0:0:0:0:
504,48,27134,5,4,0:0:0:0:
483,92,27199,1,0,0:0:0:0:
460,131,27264,1,2,0:0:0:0:
427,164,27330,1,0,0:0:0:0:
388,192,27395,1,0,0:0:0:0:
256,184,27525,5,2,0:0:0:0:
281,224,27590,1,0,0:0:0:0:
310,260,27655,1,2,0:0:0:0:
347,288,27721,1,0,0:0:0:0:
392,304,27786,1,0,0:0:0:0:
239,344,27917,5,2,0:0:0:0:
200,317,27982,1,0,0:0:0:0:
160,296,28047,1,2,0:0:0:0:
115,284,28112,1,0,0:0:0:0:
68,280,28177,6,0,B|58:231,3,47.5,4|0|0|0,0:0|0:0|0:0|0:0,0:0:0:0:
48,200,28438,2,0,B|38:151,3,47.5,2|0|0|0,0:0|0:0|0:0|0:0,0:0:0:0:
56,140,28699,5,4,0:0:0:0:
72,128,28764,1,0,0:0:0:0:
88,116,28830,1,0,0:0:0:0:
104,104,28895,1,0,0:0:0:0:
120,92,28960,1,4,0:0:0:0:
136,80,29025,1,0,0:0:0:0:
152,68,29090,1,0,0:0:0:0:
168,56,29156,1,0,0:0:0:0:
184,44,29221,5,6,0:0:0:0:
328,332,29482,1,0,0:0:0:0:
448,72,29743,1,2,0:0:0:0:
64,312,30004,1,0,0:0:0:0:
384,208,30264,6,0,B|472:256,2,95,0|0|0,0:0|0:0|0:0,0:0:0:0:
256,136,30656,2,0,B|208:144|176:184,1,95,0|2,0:0|0:0,0:0:0:0:
184,328,30917,2,0,B|232:320|264:280,1,95,0|0,0:0|0:0,0:0:0:0:
256,96,31177,1,0,0:0:0:0:
448,72,31308,5,4,0:0:0:0:
320,312,31569,1,0,0:0:0:0:
192,72,31830,1,2,0:0:0:0:
64,312,32090,1,0,0:0:0:0:
352,192,32351,6,0,B|447:192,2,95
256,184,32743,1,0,0:0:0:0:
160,160,32873,2,0,B|115:140|104:88,1,95,2|0,0:0|0:0,0:0:0:0:
232,48,33134,1,4,0:0:0:0:
368,48,33264,1,0,0:0:0:0:
472,144,33395,5,4,0:0:0:0:
40,240,33656,1,0,0:0:0:0:
472,240,33917,1,2,0:0:0:0:
40,144,34177,1,0,0:0:0:0:
328,128,34438,6,0,B|352:240|256:288,1,190,2|0,0:0|0:0,0:0:0:0:
384,272,34830,2,0,B|336:176|224:200,1,190,2|2,0:0|0:0,0:0:0:0:
112,216,35221,2,0,B|112:272|168:296,1,95,0|0,0:0|0:0,0:0:0:0:
328,128,35482,6,0,B|376:48,1,95,2|0,0:0|0:0,0:0:0:0:
184,128,35743,2,0,B|136:48,1,95
328,256,36004,2,0,B|376:248|416:216,1,95,2|0,0:0|0:0,0:0:0:0:
184,256,36264,2,0,B|136:248|96:216,1,95
112,344,36525,5,2,0:0:0:0:
256,368,36656,1,0,0:0:0:0:
256,368,36721,1,0,0:0:0:0:
256,368,36786,1,2,0:0:0:0:
400,344,36917,1,0,0:0:0:0:
400,344,37047,2,0,B|448:320|464:272,1,95,2|0,0:0|0:0,0:0:0:0:
400,40,37308,2,0,B|448:64|462:108,1,95,4|0,0:0|0:0,0:0:0:0:
400,192,37569,6,0,B|464:192,2,63.3333333333333,4|0|2,0:0|0:0|0:0,0:0:0:0:
272,192,37830,2,0,B|336:192,2,63.3333333333333,0|0|0,0:0|0:0|0:0,0:0:0:0:
208,192,38090,1,2,0:0:0:0:
156,192,38177,1,0,0:0:0:0:
108,200,38264,1,0,0:0:0:0:
64,224,38351,1,0,0:0:0:0:
32,264,38438,1,0,0:0:0:0:
12,312,38525,1,0,0:0:0:0:
8,364,38612,6,0,B|56:380|104:372,1,95
192,344,38873,2,0,B|240:328|288:336,1,95,2|0,0:0|0:0,0:0:0:0:
376,360,39134,1,0,0:0:0:0:
464,328,39264,1,0,0:0:0:0:
512,248,39395,1,2,0:0:0:0:
504,152,39525,1,0,0:0:0:0:
448,80,39656,6,0,B|408:56|352:56,1,95
264,56,39917,2,0,B|214:56|174:80,1,95,2|0,0:0|0:0,0:0:0:0:
144,168,40177,2,0,B|144:263,1,95,0|0,0:0|0:0,0:0:0:0:
288,288,40438,2,0,B|288:193,1,95,2|0,0:0|0:0,0:0:0:0:
464,192,40699,6,0,B|480:240|464:287,1,95
376,336,40960,1,2,0:0:0:0:
376,240,41090,1,0,0:0:0:0:
376,144,41221,2,0,B|365:94|328:61,1,95,0|0,0:0|0:0,0:0:0:0:
227,63,41482,1,2,0:0:0:0:
176,144,41612,1,0,0:0:0:0:
128,224,41743,6,0,B|224:224,1,95,2|0,0:0|0:0,0:0:0:0:
384,256,42004,2,0,B|288:256,1,95,2|0,0:0|0:0,0:0:0:0:
224,360,42264,2,0,B|129:360,1,95,2|0,0:0|0:0,0:0:0:0:
288,328,42525,2,0,B|383:328,1,95,2|0,0:0|0:0,0:0:0:0:
472,256,42786,6,0,B|464:208|440:168,1,95,2|0,0:0|0:0,0:0:0:0:
439,167,43047,2,0,B|408:128|368:104,1,95,2|0,0:0|0:0,0:0:0:0:
368,104,43308,2,0,B|320:80|272:72,1,95,2|0,0:0|0:0,0:0:0:0:
279,73,43569,2,0,B|232:64|192:40,1,95,2|0,0:0|0:0,0:0:0:0:
144,144,43830,6,0,B|120:192|144:240,1,95,2|0,0:0|0:0,0:0:0:0:
368,240,44090,2,0,B|392:192|368:144,1,95,2|0,0:0|0:0,0:0:0:0:
256,24,44351,2,0,B|256:120,1,95,2|0,0:0|0:0,0:0:0:0:
256,360,44612,2,0,B|256:265,1,95,2|0,0:0|0:0,0:0:0:0:
256,192,44873,5,2,0:0:0:0:
256,192,45004,1,2,0:0:0:0:
256,192,45134,1,2,0:0:0:0:
256,192,45264,1,2,0:0:0:0:
256,192,45395,1,2,0:0:0:0:
256,192,45525,1,2,0:0:0:0:
176,192,45656,1,2,0:0:0:0:
200,136,45721,1,2,0:0:0:0:
256,112,45786,1,2,0:0:0:0:
312,136,45851,1,2,0:0:0:0:
336,192,45917,1,6,0:0:0:0:
256,192,45982,12,0,49830,0:0:0:0:
408,320,50090,6,0,B|376:216|448:144,1,190
360,104,50482,1,0,0:0:0:0:
288,40,50612,2,0,B|237:136|135:136,1,190,2|0,0:0|0:0,0:0:0:0:
40,136,51004,1,0,0:0:0:0:
88,216,51134,5,0,0:0:0:0:
176,256,51264,1,0,0:0:0:0:
272,264,51395,1,0,0:0:0:0:
368,280,51525,1,0,0:0:0:0:
448,328,51656,1,2,0:0:0:0:
448,56,51917,2,0,B|360:104,1,95
264,160,52177,6,0,B|176:128|128:32,1,190
128,33,52699,1,2,0:0:0:0:
56,96,52829,1,0,0:0:0:0:
128,160,52959,1,0,0:0:0:0:
56,224,53090,1,0,0:0:0:0:
128,288,53221,6,0,B|168:320|168:320|216:328,1,95,0|0,0:0|0:0,0:0:0:0:
304,232,53482,2,0,B|208:232,1,95,2|0,0:0|0:0,0:0:0:0:
300,327,53743,2,0,B|344:320|344:320|384:288,1,95,2|0,0:0|0:0,0:0:0:0:
392,192,54004,1,2,0:0:0:0:
392,192,54134,1,0,0:0:0:0:
425,63,54264,6,0,B|344:112,1,95
168,112,54525,2,0,B|88:64,2,95,0|0|2,0:0|0:0|0:0,0:0:0:0:
86,320,55047,1,0,0:0:0:0:
40,240,55177,1,0,0:0:0:0:
40,144,55308,5,0,0:0:0:0:
256,328,55569,1,0,0:0:0:0:
472,144,55830,2,0,B|440:96|384:112,1,95,2|0,0:0|0:0,0:0:0:0:
296,136,56090,2,0,B|246:150|214:102,1,95
296,40,56351,6,0,B|392:16,1,95
400,208,56612,2,0,B|304:232,1,95,0|0,0:0|0:0,0:0:0:0:
204,231,56873,2,0,B|112:208,1,95,2|0,0:0|0:0,0:0:0:0:
208,88,57133,1,0,0:0:0:0:
380,359,57395,6,0,B|432:360|472:336,2,95,2|0|2,0:0|0:0|0:0,0:0:0:0:
256,368,57786,1,0,0:0:0:0:
131,359,57917,2,0,B|80:360|40:336,1,95,2|0,0:0|0:0,0:0:0:0:
24,216,58177,2,4,B|75:215|115:239,1,95,4|2,0:0|0:0,0:0:0:0:
256,192,58438,5,4,0:0:0:0:
448,64,58699,1,0,0:0:0:0:
448,64,58830,1,0,0:0:0:0:
448,64,58960,2,0,B|256:64,1,190,8|0,0:0|0:0,0:0:0:0:
144,64,59351,1,0,0:0:0:0:
136,176,59482,6,0,B|128:232|104:272,1,95
200,246,59743,2,0,B|147:267|100:266,1,95
171,336,60004,2,0,B|126:301|103:260,1,95,8|0,0:0|0:0,0:0:0:0:
107,266,60264,1,0,0:0:0:0:
404,266,60525,6,0,B|472:80,1,190,0|0,0:0|0:0,0:0:0:0:
336,32,60917,1,0,0:0:0:0:
120,64,61047,2,0,B|298:128,1,190,8|0,0:0|0:0,0:0:0:0:
298,128,61438,1,0,0:0:0:0:
213,255,61569,6,0,B|168:264|120:240,1,95,2|0,0:0|0:0,0:0:0:0:
336,184,61830,2,0,B|381:175|429:199,1,95,2|0,0:0|0:0,0:0:0:0:
408,296,62090,2,0,B|362:304|314:280,1,95,2|0,0:0|0:0,0:0:0:0:
138,144,62351,2,0,B|184:136|232:160,1,95,4|2,0:0|0:0,0:0:0:0:
408,88,62612,6,0,B|384:48|336:24|280:24|240:48,2,190,4|0|8,0:0|0:0|0:0,0:0:0:0:
312,344,63395,1,0,0:0:0:0:
208,320,63525,1,0,0:0:0:0:
104,296,63656,5,0,0:0:0:0:
104,88,63917,1,0,0:0:0:0:
408,88,64177,1,8,0:0:0:0:
408,296,64438,1,0,0:0:0:0:
320,240,64569,1,0,0:0:0:0:
216,216,64699,5,0,0:0:0:0:
216,216,64830,2,0,B|216:136|304:144|304:56,1,190
216,56,65221,1,8,0:0:0:0:
216,56,65351,2,0,B|216:136|304:128|304:216,1,190
304,312,65743,6,0,B|352:312|395:290,1,95,2|0,0:0|0:0,0:0:0:0:
208,312,66004,2,0,B|160:312|116:290,1,95,2|0,0:0|0:0,0:0:0:0:
384,191,66264,2,0,B|430:179|466:145,1,95,2|0,0:0|0:0,0:0:0:0:
128,191,66525,2,0,B|81:179|45:146,1,95,4|2,0:0|0:0,0:0:0:0:
256,71,66786,6,0,B|356:69|431:136,1,190,4|2,0:0|0:0,0:0:0:0:
472,240,67177,1,0,0:0:0:0:
464,352,67308,2,0,B|371:328|275:352,1,190,2|2,0:0|0:0,0:0:0:0:
168,376,67699,1,0,0:0:0:0:
32,336,67830,5,2,0:0:0:0:
32,336,67960,1,0,0:0:0:0:
32,240,68090,2,0,B|32:144,1,95,2|0,0:0|0:0,0:0:0:0:
112,192,68351,2,0,B|112:96,1,95,2|0,0:0|0:0,0:0:0:0:
192,144,68612,2,0,B|192:48,1,95,2|0,0:0|0:0,0:0:0:0:
320,240,68873,6,0,B|320:335,1,95,4|0,0:0|0:0,0:0:0:0:
400,192,69134,2,0,B|400:287,1,95,2|0,0:0|0:0,0:0:0:0:
480,144,69395,2,0,B|480:239,1,95,4|0,0:0|0:0,0:0:0:0:
480,48,69656,1,2,0:0:0:0:
480,48,69786,1,0,0:0:0:0:
400,96,69917,6,0,B|304:120|208:72,1,190,4|2,0:0|0:0,0:0:0:0:
256,192,70308,1,0,0:0:0:0:
112,288,70438,2,0,B|208:264|304:312,1,190,4|4,0:0|0:0,0:0:0:0:
136,64,70960,6,0,B|125:162|47:236,1,190,4|2,0:0|0:0,0:0:0:0:
53,230,71351,1,0,0:0:0:0:
24,120,71482,2,0,B|122:130|196:208,1,190,2|2,0:0|0:0,0:0:0:0:
190,202,71873,1,0,0:0:0:0:
136,320,72004,5,2,0:0:0:0:
371,274,72264,1,2,0:0:0:0:
322,22,72525,1,2,0:0:0:0:
87,68,72786,1,2,0:0:0:0:
144,144,72917,1,0,0:0:0:0:
232,176,73047,6,0,B|328:160,1,95,4|0,0:0|0:0,0:0:0:0:
248,296,73308,2,0,B|152:312,1,95,2|0,0:0|0:0,0:0:0:0:
128,200,73569,2,0,B|32:216,2,95,4|0|2,0:0|0:0|0:0,0:0:0:0:
128,200,73960,1,0,0:0:0:0:
154,72,74090,5,4,0:0:0:0:
256,64,74221,1,0,0:0:0:0:
357,72,74351,2,0,B|416:80|448:104,1,95,2|0,0:0|0:0,0:0:0:0:
488,188,74612,1,4,0:0:0:0:
458,279,74743,1,0,0:0:0:0:
364,276,74873,1,4,0:0:0:0:
334,367,75004,1,2,0:0:0:0:
152,240,75134,6,0,B|55:230|-10:320,1,190,4|8,0:0|0:0,0:0:0:0:
16,24,75656,2,0,B|56:128|152:144,1,190,0|8,0:0|0:0,0:0:0:0:
232,192,76047,1,0,0:0:0:0:
320,120,76177,6,0,B|360:96|416:112,1,95
299,273,76438,2,0,B|248:288|208:264,1,95,8|0,0:0|0:0,0:0:0:0:
152,168,76699,1,0,0:0:0:0:
264,192,76829,1,0,0:0:0:0:
376,192,76959,1,8,0:0:0:0:
488,216,77090,1,0,0:0:0:0:
432,320,77221,5,4,0:0:0:0:
256,64,77482,1,2,0:0:0:0:
80,320,77743,1,4,0:0:0:0:
432,64,78004,1,2,0:0:0:0:
256,359,78264,6,0,B|256:264,1,95,4|0,0:0|0:0,0:0:0:0:
89,192,78525,2,0,B|184:192,1,95,2|0,0:0|0:0,0:0:0:0:
256,120,78786,2,0,B|256:24,1,95,4|0,0:0|0:0,0:0:0:0:
328,192,79047,2,0,B|424:192,1,95,4|0,0:0|0:0,0:0:0:0:
256,192,79308,5,4,0:0:0:0:
72,56,79569,1,8,0:0:0:0:
40,144,79699,1,0,0:0:0:0:
40,240,79830,2,0,B|48:288|104:296|104:296|160:304|168:360,1,190,0|8,0:0|0:0,0:0:0:0:
256,288,80221,1,0,0:0:0:0:
343,360,80351,6,0,B|392:352|392:352|432:328,1,95
360,252,80612,2,0,B|402:228|402:228|432:192,1,95,8|0,0:0|0:0,0:0:0:0:
336,152,80873,2,0,B|367:114|367:114|382:70,1,95,0|0,0:0|0:0,0:0:0:0:
176,152,81134,2,0,B|144:114|144:114|129:70,1,95,8|0,0:0|0:0,0:0:0:0:
256,40,81395,6,0,B|256:232,1,190,4|0,0:0|0:0,0:0:0:0:
256,344,81786,1,0,0:0:0:0:
96,344,81917,6,0,B|96:152,1,190,4|0,0:0|0:0,0:0:0:0:
96,40,82308,1,0,0:0:0:0:
416,40,82438,6,0,B|416:232,1,190,4|0,0:0|0:0,0:0:0:0:
416,344,82829,1,0,0:0:0:0:
244,297,82960,5,4,0:0:0:0:
203,100,83090,1,0,0:0:0:0:
352,234,83221,1,4,0:0:0:0:
152,213,83351,1,0,0:0:0:0:
326,113,83482,1,4,0:0:0:0:
120,96,85569,5,0,0:0:0:0:
72,176,85699,1,0,0:0:0:0:
56,272,85830,2,0,B|48:328|80:360,2,95,2|0|0,0:0|0:0|0:0,0:0:0:0:
144,240,86221,1,0,0:0:0:0:
240,232,86351,2,0,B|272:264|264:320,1,95,2|0,0:0|0:0,0:0:0:0:
376,320,86612,6,0,B|424:312|464:288,1,95,0|0,0:0|0:0,0:0:0:0:
464,96,86873,1,2,0:0:0:0:
375,63,87004,2,0,B|328:56|280:72,1,95,0|0,0:0|0:0,0:0:0:0:
216,136,87264,1,0,0:0:0:0:
240,232,87395,2,0,B|194:247|146:239,1,95,2|0,0:0|0:0,0:0:0:0:
88,160,87656,5,0,0:0:0:0:
144,80,87786,2,0,B|168:48|200:40|232:48,2,95,0|2|0,0:0|0:0|0:0,0:0:0:0:
296,191,88177,2,0,B|296:96,1,95,0|0,0:0|0:0,0:0:0:0:
216,193,88438,2,0,B|216:288,1,95,2|0,0:0|0:0,0:0:0:0:
376,96,88699,6,0,B|376:0,1,95
376,288,88960,1,2,0:0:0:0:
376,288,89090,2,0,B|336:320|288:328,1,95
290,327,89351,1,0,0:0:0:0:
160,280,89482,1,2,0:0:0:0:
160,104,89612,1,0,0:0:0:0:
376,192,89743,6,0,B|472:192,1,95,4|0,0:0|0:0,0:0:0:0:
160,192,90004,2,0,B|64:192,1,95,2|0,0:0|0:0,0:0:0:0:
304,248,90264,2,0,B|392:296,1,95,2|0,0:0|0:0,0:0:0:0:
232,136,90525,2,0,B|144:88,1,95,2|0,0:0|0:0,0:0:0:0:
399,100,90786,6,0,B|375:196,1,95,2|0,0:0|0:0,0:0:0:0:
304,328,91047,1,2,0:0:0:0:
304,328,91177,2,0,B|208:355,1,95,0|2,0:0|0:0,0:0:0:0:
80,272,91438,1,0,0:0:0:0:
80,272,91569,2,0,B|32:240|24:192|32:144|80:112,1,190,2|4,0:0|0:0,0:0:0:0:
432,272,92090,5,2,0:0:0:0:
160,64,92351,1,2,0:0:0:0:
352,64,92612,1,2,0:0:0:0:
80,272,92873,6,0,B|104:320|152:336,1,95,2|0,0:0|0:0,0:0:0:0:
240,344,93134,1,2,0:0:0:0:
208,224,93264,2,0,B|261:227|299:193,1,95,0|2,0:0|0:0,0:0:0:0:
350,120,93525,1,0,0:0:0:0:
208,80,93656,1,4,0:0:0:0:
80,144,93786,1,2,0:0:0:0:
24,272,93917,6,0,B|32:336|96:376|168:376,1,190,4|2,0:0|0:0,0:0:0:0:
260,376,94308,1,0,0:0:0:0:
352,360,94438,2,0,B|400:344|432:304,1,95,2|0,0:0|0:0,0:0:0:0:
336,248,94699,2,0,B|240:248,1,95,2|0,0:0|0:0,0:0:0:0:
352,24,94960,6,0,B|400:40|432:80,1,95,2|0,0:0|0:0,0:0:0:0:
504,136,95221,1,2,0:0:0:0:
336,136,95351,2,0,B|240:136,1,95,0|2,0:0|0:0,0:0:0:0:
136,136,95612,1,0,0:0:0:0:
136,136,95743,1,2,0:0:0:0:
336,248,96004,6,0,B|384:256|384:256|424:280,1,95,4|0,0:0|0:0,0:0:0:0:
176,248,96264,2,0,B|128:256|128:256|88:280,1,95,2|0,0:0|0:0,0:0:0:0:
256,240,96525,2,0,B|272:208|240:176|256:144,1,95,2|0,0:0|0:0,0:0:0:0:
208,64,96786,2,0,B|240:52|272:52|304:64,1,95,2|0,0:0|0:0,0:0:0:0:
392,80,97047,5,4,0:0:0:0:
376,176,97177,1,0,0:0:0:0:
328,256,97308,1,2,0:0:0:0:
256,320,97438,1,0,0:0:0:0:
120,304,97569,5,4,0:0:0:0:
136,208,97699,1,0,0:0:0:0:
184,128,97830,1,4,0:0:0:0:
256,64,97960,1,2,0:0:0:0:
376,176,98090,6,0,B|424:192|472:184,1,95,4|0,0:0|0:0,0:0:0:0:
472,280,98351,1,8,0:0:0:0:
384,320,98482,1,0,0:0:0:0:
288,304,98612,1,0,0:0:0:0:
208,248,98743,1,0,0:0:0:0:
160,168,98873,1,8,0:0:0:0:
160,168,99004,1,0,0:0:0:0:
154,30,99134,6,0,B|224:96,1,95,0|0,0:0|0:0,0:0:0:0:
446,184,99395,2,0,B|355:212,1,95,8|0,0:0|0:0,0:0:0:0:
167,360,99656,2,0,B|188:267,1,95,0|0,0:0|0:0,0:0:0:0:
256,192,99917,1,8,0:0:0:0:
256,192,100047,1,2,0:0:0:0:
324,116,100177,5,4,0:0:0:0:
424,80,100308,1,0,0:0:0:0:
424,80,100373,1,0,0:0:0:0:
424,80,100438,1,8,0:0:0:0:
446,184,100569,1,0,0:0:0:0:
400,280,100699,2,0,B|376:320|328:344,1,95,0|0,0:0|0:0,0:0:0:0:
181,342,100960,2,0,B|136:320|112:280,1,95,8|0,0:0|0:0,0:0:0:0:
80,192,101221,6,0,B|176:192,1,95
337,192,101482,2,0,B|384:176|416:136,1,95,8|0,0:0|0:0,0:0:0:0:
256,48,101743,1,0,0:0:0:0:
256,144,101873,1,0,0:0:0:0:
256,240,102004,1,4,0:0:0:0:
256,336,102134,1,2,0:0:0:0:
144,336,102264,6,0,B|96:320|64:280,1,95,4|0,0:0|0:0,0:0:0:0:
16,200,102525,1,8,0:0:0:0:
16,200,102656,1,0,0:0:0:0:
128,208,102786,2,0,B|90:174|76:125,1,95,0|0,0:0|0:0,0:0:0:0:
80,32,103047,1,8,0:0:0:0:
80,32,103177,1,0,0:0:0:0:
160,80,103308,5,0,0:0:0:0:
260,132,103438,1,0,0:0:0:0:
368,96,103569,5,8,0:0:0:0:
316,196,103699,1,0,0:0:0:0:
352,304,103830,5,0,0:0:0:0:
252,252,103960,1,0,0:0:0:0:
144,288,104090,5,8,0:0:0:0:
196,188,104221,1,0,0:0:0:0:
256,48,104351,6,0,B|352:80,1,95,4|0,0:0|0:0,0:0:0:0:
456,120,104612,1,8,0:0:0:0:
456,120,104743,1,0,0:0:0:0:
320,256,104873,2,0,B|368:240|406:216,1,95,0|0,0:0|0:0,0:0:0:0:
192,256,105134,2,0,B|144:240|105:216,1,95,8|0,0:0|0:0,0:0:0:0:
104,72,105395,5,4,0:0:0:0:
63,214,105525,1,0,0:0:0:0:
136,344,105656,1,8,0:0:0:0:
278,384,105786,1,0,0:0:0:0:
408,312,105917,1,4,0:0:0:0:
448,168,106047,1,0,0:0:0:0:
376,40,106177,5,4,0:0:0:0:
308,8,106243,1,0,0:0:0:0:
232,0,106308,1,0,0:0:0:0:
160,20,106373,1,0,0:0:0:0:
104,72,106438,6,0,B|104:168,1,95,6|0,0:0|0:0,0:0:0:0:
324,208,106699,2,0,B|324:113,1,95,2|0,0:0|0:0,0:0:0:0:
104,167,106960,2,0,B|104:264,1,95,2|0,0:0|0:0,0:0:0:0:
324,303,107221,2,0,B|324:208,1,95,2|0,0:0|0:0,0:0:0:0:
104,262,107482,5,2,0:0:0:0:
176,336,107612,1,0,0:0:0:0:
280,352,107743,2,0,B|331:348|373:376,2,95,0|0|2,0:0|0:0|0:0,0:0:0:0:
240,256,108134,1,0,0:0:0:0:
248,152,108264,2,0,B|261:102|307:82,1,95,2|0,0:0|0:0,0:0:0:0:
408,122,108525,5,4,0:0:0:0:
104,122,108786,1,2,0:0:0:0:
256,376,109047,1,2,0:0:0:0:
256,32,109308,1,2,0:0:0:0:
176,256,109569,6,0,B|128:272|80:272,1,95,2|0,0:0|0:0,0:0:0:0:
336,128,109830,2,0,B|384:112|432:112,1,95,2|0,0:0|0:0,0:0:0:0:
416,312,110090,2,0,B|368:304|328:272,1,95,2|0,0:0|0:0,0:0:0:0:
96,72,110351,2,0,B|144:80|184:112,1,95,4|0,0:0|0:0,0:0:0:0:
256,304,110612,5,4,0:0:0:0:
408,80,110873,1,2,0:0:0:0:
104,80,111134,1,2,0:0:0:0:
256,304,111395,1,2,0:0:0:0:
408,79,111656,6,0,B|256:192,1,190,2|2,0:0|0:0,0:0:0:0:
103,304,112047,2,0,B|256:192,1,190,2|0,0:0|0:0,0:0:0:0:
232,136,112438,1,2,0:0:0:0:
280,248,112569,1,0,0:0:0:0:
208,80,112699,6,0,B|160:96|144:144,1,95,2|0,0:0|0:0,0:0:0:0:
304,304,112960,2,0,B|352:288|368:240,1,95,2|0,0:0|0:0,0:0:0:0:
176,224,113221,2,0,B|128:224|128:224|80:200,1,95,2|0,0:0|0:0,0:0:0:0:
336,160,113482,2,0,B|384:160|384:160|432:184,2,95,2|0|2,0:0|0:0|0:0,0:0:0:0:
256,192,113873,5,0,0:0:0:0:
256,192,113938,1,0,0:0:0:0:
256,192,114004,1,2,0:0:0:0:
256,320,114134,5,0,0:0:0:0:
256,64,114264,1,2,0:0:0:0:
377,152,114395,1,0,0:0:0:0:
331,295,114525,1,2,0:0:0:0:
180,295,114656,1,0,0:0:0:0:
134,152,114786,6,0,B|88:136|40:136,1,95,4|0,0:0|0:0,0:0:0:0:
40,248,115047,2,0,B|88:248|134:231,1,95
296,192,115308,2,0,B|200:192,2,95,0|0|2,0:0|0:0|0:0,0:0:0:0:
392,192,115699,1,0,0:0:0:0:
488,192,115830,6,0,B|488:256|456:320|392:344,1,190
296,344,116221,2,0,B|232:320|200:256|200:192,1,190
344,144,116612,2,0,B|344:240,1,95,2|0,0:0|0:0,0:0:0:0:
168,144,116873,6,0,B|112:136|80:104,1,95
344,144,117134,2,0,B|400:152|432:184,1,95
168,240,117395,2,0,B|111:241|77:217,1,95,0|0,0:0|0:0,0:0:0:0:
344,240,117656,2,0,B|397:257|421:291,1,95,2|0,0:0|0:0,0:0:0:0:
256,336,117917,6,0,B|256:240,1,95
256,241,118177,1,0,0:0:0:0:
256,241,118308,1,0,0:0:0:0:
256,48,118438,2,0,B|256:144,1,95,0|0,0:0|0:0,0:0:0:0:
112,144,118699,1,2,0:0:0:0:
32,264,118830,1,0,0:0:0:0:
144,352,118960,6,0,B|240:336,1,95
192,256,119221,2,0,B|288:240,1,95
368,32,119482,2,0,B|274:47,1,95,0|0,0:0|0:0,0:0:0:0:
234,143,119743,2,0,B|328:128,1,95,2|0,0:0|0:0,0:0:0:0:
464,168,120004,6,0,B|464:216|448:264,1,95
408,344,120264,1,0,0:0:0:0:
312,336,120395,2,0,B|264:336|216:320,1,95
136,280,120656,1,0,0:0:0:0:
159,90,120786,2,0,B|144:136|144:184,1,95,2|0,0:0|0:0,0:0:0:0:
296,192,121047,6,0,B|376:144|408:40,1,190
280,56,121438,1,0,0:0:0:0:
67,65,121569,2,0,B|112:80|159:90,1,95,0|0,0:0|0:0,0:0:0:0:
159,294,121830,2,0,B|112:304|67:318,1,95,2|0,0:0|0:0,0:0:0:0:
64,192,122090,6,0,B|160:192,1,95
303,96,122351,2,0,B|208:96,1,95
208,288,122612,2,0,B|303:288,1,95,0|0,0:0|0:0,0:0:0:0:
448,192,122873,1,2,0:0:0:0:
256,192,123004,1,0,0:0:0:0:
64,192,123134,6,0,B|48:240|56:288,1,95,4|0,0:0|0:0,0:0:0:0:
184,328,123395,2,0,B|176:280|136:248,1,95
448,192,123656,2,0,B|464:240|456:288,1,95,0|0,0:0|0:0,0:0:0:0:
328,328,123917,2,0,B|336:280|376:248,1,95,2|0,0:0|0:0,0:0:0:0:
256,96,124177,6,0,B|256:288,1,190
160,192,124569,2,0,B|352:192,1,190
400,112,124960,1,2,0:0:0:0:
400,16,125090,1,0,0:0:0:0:
256,64,125221,5,0,0:0:0:0:
256,64,125351,1,0,0:0:0:0:
144,88,125482,2,0,B|96:96|56:64,1,95,0|0,0:0|0:0,0:0:0:0:
160,192,125743,2,0,B|208:196|238:237,1,95,0|0,0:0|0:0,0:0:0:0:
352,192,126004,2,0,B|303:187|273:146,1,95,2|0,0:0|0:0,0:0:0:0:
368,296,126264,6,0,B|420:298|454:263,1,95
454,263,126525,1,0,0:0:0:0:
454,120,126656,2,0,B|420:85|368:88,1,95
367,87,126917,1,0,0:0:0:0:
304,192,127047,2,0,B|208:192,1,95,2|0,0:0|0:0,0:0:0:0:
64,96,127308,6,0,B|24:144|24:232|64:280,1,190,4|0,0:0|0:0,0:0:0:0:
208,48,127830,1,0,0:0:0:0:
304,336,128090,1,2,0:0:0:0:
464,112,128351,6,0,B|411:194,1,95
344,272,128612,1,0,0:0:0:0:
344,272,128743,2,0,B|291:189,1,95,0|0,0:0|0:0,0:0:0:0:
224,112,129004,1,0,0:0:0:0:
224,112,129134,2,0,B|171:194,1,95,2|0,0:0|0:0,0:0:0:0:
128,288,129395,6,0,B|232:264|312:344,1,190
384,96,129917,2,0,B|280:120|200:40,1,190,0|2,0:0|0:0,0:0:0:0:
40,152,130438,6,0,B|136:152,1,95
280,120,130699,1,0,0:0:0:0:
232,264,130830,2,0,B|232:360,1,95,0|0,0:0|0:0,0:0:0:0:
132,277,131090,1,0,0:0:0:0:
378,277,131221,1,6,0:0:0:0:
256,68,131351,1,4,0:0:0:0:
256,192,131482,5,4,0:0:0:0:
448,144,131743,1,0,0:0:0:0:
256,336,132004,1,8,0:0:0:0:
64,144,132264,1,0,0:0:0:0:
256,336,132525,6,0,B|296:360|352:352,1,95,2|0,0:0|0:0,0:0:0:0:
440,320,132786,1,2,0:0:0:0:
496,240,132917,1,0,0:0:0:0:
480,144,133047,2,0,B|464:96|416:80,1,95,2|0,0:0|0:0,0:0:0:0:
304,200,133308,2,0,B|353:210|391:176,1,95,2|0,0:0|0:0,0:0:0:0:
328,104,133569,6,0,B|278:93|240:127,1,95,4|0,0:0|0:0,0:0:0:0:
232,256,133830,2,0,B|182:266|143:232,1,95
64,88,134090,2,0,B|144:136,1,95,8|0,0:0|0:0,0:0:0:0:
448,296,134351,2,0,B|368:248,1,95
272,184,134612,5,2,0:0:0:0:
168,200,134743,1,0,0:0:0:0:
160,304,134873,1,2,0:0:0:0:
256,344,135004,1,0,0:0:0:0:
374,135,135134,2,0,B|280:128,1,95,2|0,0:0|0:0,0:0:0:0:
137,248,135395,2,0,B|232:256,1,95,4|0,0:0|0:0,0:0:0:0:
48,96,135656,6,0,B|48:288,1,190,4|0,0:0|0:0,0:0:0:0:
464,288,136177,2,0,B|464:96,1,190,8|0,0:0|0:0,0:0:0:0:
160,336,136699,6,0,B|352:336,1,190,0|2,0:0|0:0,0:0:0:0:
256,336,137090,2,0,B|256:144,1,190
256,48,137482,2,0,B|224:48|192:64|176:96,1,95,2|0,0:0|0:0,0:0:0:0:
256,240,137743,6,0,B|288:240|320:224|336:192,1,95,4|0,0:0|0:0,0:0:0:0:
376,112,138004,2,0,B|392:80|416:64|456:64,1,95,2|0,0:0|0:0,0:0:0:0:
451,319,138264,2,0,B|416:320|392:304|376:272,1,95,2|0,0:0|0:0,0:0:0:0:
432,192,138525,1,2,0:0:0:0:
432,192,138656,1,0,0:0:0:0:
320,192,138786,5,4,0:0:0:0:
192,192,138917,1,0,0:0:0:0:
192,192,138982,1,0,0:0:0:0:
192,192,139047,1,2,0:0:0:0:
320,192,139177,1,4,0:0:0:0:
256,48,139308,2,0,B|256:144,1,95,0|0,0:0|0:0,0:0:0:0:
256,336,139569,2,0,B|256:240,1,95,4|0,0:0|0:0,0:0:0:0:
176,104,139830,5,4,0:0:0:0:
88,64,139960,1,0,0:0:0:0:
24,136,140090,1,2,0:0:0:0:
72,216,140221,1,0,0:0:0:0:
136,288,140351,2,0,B|160:336|136:384,1,95,0|0,0:0|0:0,0:0:0:0:
53,333,140612,2,0,B|141:285,1,95,2|0,0:0|0:0,0:0:0:0:
375,287,140873,6,0,B|459:333,1,95
459,333,141134,1,2,0:0:0:0:
424,192,141264,2,0,B|376:160|336:192|296:224|240:192,1,190
133,235,141656,2,0,B|120:208|120:176|136:144,1,95,2|0,0:0|0:0,0:0:0:0:
248,56,141917,5,0,0:0:0:0:
264,328,142177,2,0,B|224:352|176:360,1,95,2|0,0:0|0:0,0:0:0:0:
248,224,142438,2,0,B|288:200|336:192,1,95,0|0,0:0|0:0,0:0:0:0:
472,256,142699,2,0,B|432:280|384:288,1,95,2|0,0:0|0:0,0:0:0:0:
432,152,142960,6,0,B|464:56,2,95,0|0|2,0:0|0:0|0:0,0:0:0:0:
288,208,143351,2,0,B|318:117,2,95
160,272,143743,1,2,0:0:0:0:
40,192,143873,1,0,0:0:0:0:
56,48,144004,6,0,B|152:32|256:32,1,190,0|2,0:0|0:0,0:0:0:0:
360,40,144395,1,0,0:0:0:0:
392,152,144525,2,0,B|344:160|296:160,1,95,0|0,0:0|0:0,0:0:0:0:
120,232,144786,2,0,B|168:224|216:224,1,95,2|0,0:0|0:0,0:0:0:0:
368,304,145047,6,0,B|296:232,1,95,0|0,0:0|0:0,0:0:0:0:
300,236,145308,1,2,0:0:0:0:
160,376,145438,2,0,B|232:304,1,95,0|0,0:0|0:0,0:0:0:0:
227,309,145699,1,0,0:0:0:0:
128,280,145830,2,0,B|120:232|120:232|136:184,1,95,2|0,0:0|0:0,0:0:0:0:
184,96,146090,5,2,0:0:0:0:
272,128,146221,1,0,0:0:0:0:
368,128,146351,1,2,0:0:0:0:
456,96,146482,1,0,0:0:0:0:
400,216,146612,5,2,0:0:0:0:
287,225,146743,1,0,0:0:0:0:
176,195,146873,1,2,0:0:0:0:
84,131,147004,1,0,0:0:0:0:
112,288,147134,5,2,0:0:0:0:
239,333,147264,1,0,0:0:0:0:
377,333,147395,1,2,0:0:0:0:
504,288,147525,1,0,0:0:0:0:
376,144,147656,5,0,0:0:0:0:
136,240,147786,1,0,0:0:0:0:
304,312,147917,1,0,0:0:0:0:
208,72,148047,1,0,0:0:0:0:
256,192,148177,5,4,0:0:0:0:
256,192,148243,12,0,149221,0:0:0:0:
