osu file format v12

[General]
AudioFilename: Dimrain47 - Forsaken Neon.mp3
AudioLeadIn: 0
PreviewTime: 89342
Countdown: 0
SampleSet: Soft
StackLeniency: 0.7
Mode: 0
LetterboxInBreaks: 1
WidescreenStoryboard: 0

[Editor]
Bookmarks: 4177,12525,29221,45917,50090,66786,83482,89743,106438,127308,144004
DistanceSpacing: 1
BeatDivisor: 4
GridSize: 4

[Metadata]
Title:Forsaken Neon
TitleUnicode:Forsaken Neon
Artist:Dimrain47
ArtistUnicode:Dimrain47
Creator:Tshemmp
Version:Collab
Source:
Tags:Techno Trance bomber34 BCI black_cherry_ita phaZ SkyDevil Katty Pie
BeatmapID:193672
BeatmapSetID:54215

[Difficulty]
HPDrainRate:6
CircleSize:4
OverallDifficulty:7
ApproachRate:9
SliderMultiplier:1.5
SliderTickRate:1

[Events]
//Background and Video events
0,0,"BG.jpg",0,0
//Break Periods
2,46117,49047
//Storyboard Layer 0 (Background)
//Storyboard Layer 1 (Fail)
//Storyboard Layer 2 (Pass)
//Storyboard Layer 3 (Foreground)
Sprite,Foreground,Centre,"SkyDevil.png",320,240 S,0,3917,,0.8 M,0,3917,4177,-97,434,168,419 F,0,3917,4177,0,1 F,0,4177,29221,1 F,0,29221,29482,1,0 S,0,49830,,0.8 M,0,49830,50090,-97,434,168,419 F,0,49830,50090,0,1 F,0,50090,66786,1 F,0,66786,67047,1,0 M,0,85308,85569,-97,434,168,419 F,0,85308,85569,0,1 F,0,85569,89743,1 F,0,89743,90004,1,0 M,0,106438,106699,-97,434,168,419 F,0,106438,106699,0,1 F,0,106699,127308,1 F,0,127308,127569,1,0
Sprite,Foreground,Centre,"Katty Pie.png",320,240 S,0,29221,,0.8 S,0,29221,,0.8 M,0,29221,29482,793,181,457,190 F,0,29221,29482,0,1 F,0,29482,45917,1 F,0,45917,46177,1,0 M,0,66786,67047,793,181,457,190 F,0,66786,67047,0,1 F,0,67047,83547,1 F,0,83547,83743,1,0 M,0,89743,90004,793,181,457,190 F,0,89743,90004,0,1 F,0,90004,106438,1 F,0,106438,106699,1,0 M,0,127308,127569,793,181,457,190 F,0,127308,127569,0,1 F,0,127569,148177,1 F,0,148177,148438,1,0
//Storyboard Sound Samples
//Background Colour Transformations
3,100,0,0,0

[TimingPoints]
4177.92514483393,260.869565217391,4,2,1,40,1,0
12004,-100,4,2,1,60,0,0
12525,-100,4,2,1,70,0,1
29221,-100,4,2,1,100,0,0
29286,-100,4,2,1,70,0,0
37569,-100,4,2,1,80,0,0
37634,-100,4,2,1,40,0,0
41743,-100,4,3,1,30,0,0
45917,-100,4,2,1,90,0,1
45982,-100,4,2,1,90,0,0
58960,-100,4,2,1,60,0,0
66786,-100,4,2,1,90,0,0
83482,-100,4,2,1,70,0,1
83547,-100,4,2,1,70,0,0
89743,-100,4,2,1,70,0,1
106438,-100,4,2,1,70,0,0
131221,-100,4,3,1,30,0,0
131482,-100,4,2,1,70,0,0
148177,-100,4,1,0,50,0,1
148308,-100,4,2,0,45,0,1
148438,-100,4,2,0,40,0,1
148569,-100,4,2,0,35,0,1
148699,-100,4,2,0,30,0,1
148830,-100,4,2,0,25,0,1
148960,-100,4,2,0,20,0,1
149090,-100,4,2,0,15,0,1
149221,-100,4,2,1,5,0,0

[Colours]
Combo1 : 41,79,226
Combo2 : 46,196,207
Combo3 : 71,6,206
Combo4 : 121,199,236

[HitObjects]
136,80,4177,6,0,P|200:136|256:112,1,150,4|0,0:0|0:0,0:0:0:0:
448,208,4699,2,0,P|384:152|328:176,1,150,2|0,0:0|0:0,0:0:0:0:
128,352,5221,2,0,L|136:272,1,75
224,224,5482,2,0,L|216:304,1,75
296,352,5743,2,0,P|344:296|416:312,1,150,2|0,0:0|0:0,0:0:0:0:
456,96,6264,5,0,0:0:0:0:
256,352,6525,1,0,0:0:0:0:
56,96,6786,2,0,P|104:144|176:112,1,150,2|0,0:0|0:0,0:0:0:0:
368,96,7308,2,0,P|320:48|248:80,1,150,0|0,0:0|0:0,0:0:0:0:
256,160,7699,2,0,L|312:240,1,75,0|2,0:0|0:0,0:0:0:0:
104,336,8090,1,0,0:0:0:0:
56,96,8351,5,0,1:0:0:0:
56,96,8612,2,0,P|100:152|172:136,1,150
188,288,9134,2,0,P|244:260|324:288,1,150
342,137,9656,2,0,P|412:152|456:96,1,150
476,244,10177,2,0,L|476:319,2,75
324,232,10699,2,0,P|256:204|188:236,1,150
256,368,11221,6,0,L|256:280,2,75
120,200,11743,1,0,0:0:0:0:
120,200,11873,1,0,0:0:0:0:
136,120,12004,2,0,L|160:72,3,37.5
184,64,12264,2,0,L|248:48,3,37.5
256,48,12525,6,0,P|304:112|368:104,1,150,0|8,1:0|1:0,0:0:0:0:
320,208,12917,2,0,L|320:288,1,75,0|0,0:0|1:0,0:0:0:0:
424,264,13177,2,0,L|464:352,1,75,0|8,0:0|1:0,0:0:0:0:
224,336,13569,6,0,P|144:344|112:288,1,150,0|8,1:0|1:0,0:0:0:0:
192,248,13960,1,0,0:0:0:0:
272,208,14090,2,0,P|240:155|160:163,1,150,0|8,1:0|1:0,0:0:0:0:
424,136,14612,6,0,P|464:192|424:256,1,150,0|8,1:0|1:0,0:0:0:0:
196,176,15134,2,0,L|276:176,1,75,0|0,1:0|0:0,0:0:0:0:
184,260,15395,2,0,L|104:260,1,75,8|0,1:0|0:0,0:0:0:0:
40,216,15656,5,0,1:0:0:0:
40,216,15786,1,0,0:0:0:0:
48,128,15917,2,0,P|128:128|152:64,1,150,8|0,1:0|1:0,0:0:0:0:
184,192,16308,2,0,L|184:280,1,75,0|8,0:0|1:0,0:0:0:0:
256,128,16569,2,0,L|256:40,1,75,8|0,1:0|0:0,0:0:0:0:
456,160,16960,6,8,P|448:232|376:240,1,150,8|0,1:0|1:0,0:0:0:0:
232,352,17482,2,8,P|240:280|312:272,1,150,8|0,1:0|1:0,0:0:0:0:
256,72,18004,2,0,L|176:72,1,75,8|0,1:0|0:0,0:0:0:0:
216,152,18264,2,0,P|144:168|136:256,1,150,0|8,1:0|1:0,0:0:0:0:
336,280,18786,6,0,P|318:346|246:362,1,150,0|8,1:0|1:0,0:0:0:0:
260,284,19177,2,0,L|200:224,1,75,0|0,0:0|1:0,0:0:0:0:
296,176,19438,2,0,L|280:96,1,75,0|8,0:0|1:0,0:0:0:0:
408,152,19699,2,0,L|432:80,1,75,0|4,0:0|1:2,0:0:0:0:
432,256,19960,2,0,L|408:328,2,75,0|8|0,0:0|1:0|0:0,0:0:0:0:
320,328,20351,2,0,B|288:368|256:344|256:344|216:368|192:328,1,150,4|4,0:0|0:0,0:0:0:0:
256,64,20873,5,4,0:0:0:0:
40,192,21134,2,0,L|104:256,1,75,8|0,1:0|0:0,0:0:0:0:
152,296,21395,2,0,L|184:320,3,37.5,0|0|0|0,1:0|0:0|0:0|0:0,0:0:0:0:
224,256,21656,2,0,L|272:264,3,37.5,8|0|0|0,1:0|0:0|0:0|0:0,0:0:0:0:
216,184,21917,2,0,P|240:152|272:144,1,75,0|0,1:0|0:0,0:0:0:0:
336,192,22177,2,0,L|384:256,1,75,8|0,1:0|0:0,0:0:0:0:
376,368,22438,2,0,L|328:304,1,75,0|0,1:0|0:0,0:0:0:0:
464,272,22699,2,0,L|512:336,1,75,8|0,1:0|0:0,0:0:0:0:
456,152,22960,6,0,L|408:88,1,75,0|0,1:0|0:0,0:0:0:0:
320,40,23221,1,8,1:0:0:0:
256,112,23351,1,0,0:0:0:0:
184,40,23482,2,0,L|152:72,3,37.5,0|0|0|0,1:0|0:0|0:0|0:0,0:0:0:0:
168,144,23743,2,0,L|152:184,3,37.5,8|0|0|0,1:0|0:0|0:0|0:0,0:0:0:0:
208,240,24004,6,0,L|208:328,1,75,0|0,1:0|0:0,0:0:0:0:
304,368,24264,2,0,L|304:280,1,75,8|0,1:0|0:0,0:0:0:0:
352,216,24525,1,0,1:0:0:0:
352,200,24590,1,0,0:0:0:0:
352,184,24656,1,0,0:0:0:0:
352,168,24721,1,0,0:0:0:0:
352,152,24786,2,0,L|352:72,1,75,8|0,1:0|0:0,0:0:0:0:
272,112,25047,6,0,L|224:144,3,37.5,0|0|0|0,1:0|0:0|0:0|0:0,0:0:0:0:
264,208,25308,2,0,L|240:256,3,37.5,8|0|0|0,1:0|0:0|0:0|0:0,0:0:0:0:
152,224,25569,2,0,L|88:248,3,37.5,0|0|0|0,1:0|0:0|0:0|0:0,0:0:0:0:
152,320,25830,2,0,L|128:368,3,37.5,8|0|0|0,1:0|0:0|0:0|0:0,0:0:0:0:
232,336,26090,6,0,L|308:336,2,75,2|2|8,1:2|0:0|1:0,0:0:0:0:
356,260,26482,2,0,L|276:260,1,75,2|2,0:0|1:2,0:0:0:0:
317,184,26743,2,0,L|392:184,2,75,2|8|0,0:0|1:0|0:0,0:0:0:0:
244,192,27134,6,0,L|196:192,4,37.5,0|0|0|0|8,1:0|0:0|0:0|0:0|1:0,0:0:0:0:
312,352,27525,2,0,L|352:352,4,37.5,0|0|0|0|0,0:0|0:0|1:0|0:0|0:0,0:0:0:0:
448,244,27917,2,0,L|400:244,3,37.5,8|0|0|0,1:0|0:0|0:0|0:0,0:0:0:0:
432,160,28177,2,0,L|400:136,3,37.5,4|0|0|0,1:2|0:0|0:0|0:0,0:0:0:0:
340,201,28438,2,0,L|304:208,3,37.5,8|0|0|0,1:0|0:0|0:0|0:0,0:0:0:0:
312,120,28699,5,4,1:2:0:0:
296,120,28764,1,0,0:0:0:0:
280,120,28830,1,0,0:0:0:0:
264,120,28895,1,0,0:0:0:0:
248,120,28960,1,4,0:0:0:0:
232,120,29025,1,0,0:0:0:0:
216,120,29090,1,0,0:0:0:0:
200,120,29156,1,0,0:0:0:0:
184,120,29221,1,4,0:0:0:0:
80,152,29351,5,0,0:0:0:0:
80,152,29482,2,0,P|72:192|88:240,1,75,2|0,0:0|0:0,0:0:0:0:
176,280,29743,2,0,P|184:240|168:192,1,75,2|0,0:0|0:0,0:0:0:0:
335,207,30004,2,2,P|328:240|336:280,1,75,2|0,0:0|0:0,0:0:0:0:
432,224,30264,6,0,P|440:192|432:152,1,75,2|0,0:0|0:0,0:0:0:0:
388,92,30525,1,2,0:0:0:0:
328,44,30656,1,0,0:0:0:0:
256,36,30786,1,2,0:0:0:0:
184,44,30917,1,0,0:0:0:0:
124,92,31047,2,0,L|44:92,2,75,2|0|4,0:0|0:0|0:0,0:0:0:0:
152,240,31569,5,2,0:0:0:0:
256,348,31830,1,0,0:0:0:0:
360,240,32090,1,2,0:0:0:0:
388,92,32351,6,0,L|460:56,1,75,2|0,0:0|0:0,0:0:0:0:
304,84,32612,2,0,L|348:16,1,75,2|0,0:0|0:0,0:0:0:0:
208,84,32873,2,0,L|164:16,1,75,2|0,0:0|0:0,0:0:0:0:
124,92,33134,2,0,L|52:56,2,75,4|0|4,0:0|0:0|0:2,0:0:0:0:
96,276,33656,5,2,0:0:0:0:
256,176,33917,1,0,0:0:0:0:
416,276,34177,1,2,0:0:0:0:
256,372,34438,1,0,0:0:0:0:
256,176,34699,2,0,L|256:84,1,75,2|0,0:0|0:0,0:0:0:0:
116,48,35090,6,0,L|116:136,1,75,0|2,0:0|0:0,0:0:0:0:
256,176,35351,2,0,L|256:84,1,75,0|2,0:0|0:0,0:0:0:0:
396,48,35612,2,0,L|396:136,1,75,0|2,0:0|0:0,0:0:0:0:
396,200,35873,5,0,0:0:0:0:
376,272,36004,1,2,0:0:0:0:
320,324,36134,1,0,0:0:0:0:
256,360,36264,1,2,0:0:0:0:
192,324,36395,1,0,0:0:0:0:
136,272,36525,1,2,0:0:0:0:
116,200,36656,6,0,P|88:168|28:160,1,75,0|2,0:0|0:0,0:0:0:0:
148,116,36917,2,0,P|150:73|114:25,1,75,0|2,0:0|0:0,0:0:0:0:
228,72,37177,2,0,P|260:44|268:-16,2,75,0|4|0,0:0|0:0|0:0,0:0:0:0:
224,184,37569,6,0,L|264:224,2,50
288,200,37830,2,0,L|328:236,2,50
352,216,38090,2,0,L|392:256,2,50
416,232,38351,2,0,L|456:272,2,50
480,216,38612,6,0,P|488:176|472:136,1,75
388,76,38873,1,8,0:0:0:0:
280,52,39004,1,0,0:0:0:0:
168,72,39134,1,0,0:0:0:0:
96,156,39264,1,0,0:0:0:0:
68,264,39395,1,8,0:0:0:0:
144,344,39525,1,0,0:0:0:0:
144,344,39656,6,0,P|172:292|172:276,1,75
256,204,39917,2,0,L|256:312,1,75,8|0,0:0|0:0,0:0:0:0:
340,277,40177,2,0,P|340:292|368:344,1,75
436,252,40438,2,0,B|432:212|432:212|396:184,1,75,8|0,0:0|0:0,0:0:0:0:
328,108,40699,6,0,P|344:56|368:36,1,75
154,42,40960,2,0,P|168:56|184:108,1,75,8|0,0:0|0:0,0:0:0:0:
107,190,41221,2,0,B|80:212|80:212|76:252,1,75
160,328,41482,1,8,0:0:0:0:
256,268,41612,1,0,0:0:0:0:
352,328,41743,5,4,0:0:0:0:
384,180,42004,1,4,0:0:0:0:
256,104,42264,1,4,0:0:0:0:
128,180,42525,1,4,0:0:0:0:
160,328,42786,6,0,P|72:312|40:256,1,150,4|4,0:0|0:0,0:0:0:0:
352,328,43308,2,0,P|440:312|472:256,1,150,4|4,0:0|0:0,0:0:0:0:
472,188,43699,2,0,L|516:188,2,37.5,0|0|4,0:0|0:0|0:0,0:0:0:0:
380,68,44090,5,4,0:0:0:0:
256,152,44351,1,4,0:0:0:0:
132,68,44612,1,4,0:0:0:0:
256,192,44873,12,4,45917,0:1:0:0:
256,48,50090,5,4,0:0:0:0:
256,344,50351,1,0,0:0:0:0:
256,312,50482,1,0,0:0:0:0:
256,280,50612,1,2,0:0:0:0:
176,104,50873,2,0,P|136:160|176:224,1,150
338,222,51395,6,0,P|376:160|336:104,1,150,0|2,0:0|0:0,0:0:0:0:
64,320,51917,1,0,0:0:0:0:
96,320,52047,1,0,0:0:0:0:
128,320,52177,1,0,0:0:0:0:
256,192,52438,6,0,P|192:152|136:192,1,150,0|2,0:0|0:0,0:0:0:0:
336,64,52960,2,0,P|400:104|454:66,1,150,0|0,0:0|0:0,0:0:0:0:
488,64,53351,1,0,0:0:0:0:
336,256,53612,1,0,0:0:0:0:
304,256,53743,1,2,0:0:0:0:
272,256,53873,1,0,0:0:0:0:
248,272,54004,1,0,0:0:0:0:
216,272,54134,1,0,0:0:0:0:
184,272,54264,6,0,P|112:248|112:176,1,150
120,160,54656,1,0,0:0:0:0:
136,136,54786,1,2,0:0:0:0:
344,64,55047,1,0,0:0:0:0:
328,88,55177,1,0,0:0:0:0:
312,112,55308,2,0,P|316:177|388:201,1,150
200,304,55830,5,2,0:0:0:0:
224,336,55960,1,0,0:0:0:0:
256,344,56091,1,0,0:0:0:0:
288,336,56221,1,0,0:0:0:0:
312,304,56351,1,0,0:0:0:0:
256,80,56612,6,0,L|256:248,1,150,0|2,0:0|0:0,0:0:0:0:
464,336,57134,2,0,L|464:168,1,150,0|0,0:0|0:0,0:0:0:0:
448,168,57525,1,0,0:0:0:0:
432,152,57656,1,0,0:0:0:0:
416,136,57786,1,0,0:0:0:0:
392,136,57917,1,2,0:0:0:0:
376,120,58047,1,0,0:0:0:0:
360,104,58177,1,0,1:0:0:0:
336,104,58308,1,0,1:0:0:0:
312,88,58438,6,0,P|232:64|192:136,1,150,4|0,1:0|0:0,0:0:0:0:
64,312,58960,2,0,P|144:336|184:264,1,150,8|0,0:1|0:0,0:0:0:0:
88,112,59482,1,0,0:0:0:0:
256,352,59743,1,0,0:0:0:0:
448,312,60004,2,0,P|368:336|328:264,1,150,8|0,0:1|0:0,0:0:0:0:
424,112,60525,5,0,0:0:0:0:
144,256,60786,2,0,P|131:185|190:150,1,150,0|8,0:0|0:1,0:0:0:0:
368,256,61308,2,0,P|380:185|321:150,1,150,0|0,0:0|0:0,0:0:0:0:
256,352,61830,1,0,0:0:0:0:
256,48,62090,1,8,0:1:0:0:
256,48,62351,2,0,L|256:144,1,75,8|8,0:1|0:1,0:1:0:0:
256,200,62612,1,4,0:1:0:0:
72,232,62873,6,0,P|56:304|128:328,1,150,0|8,0:0|0:1,0:0:0:0:
256,48,63395,2,0,L|256:144,2,75
440,232,63917,2,0,P|456:304|384:328,1,150,0|8,0:0|0:1,0:0:0:0:
64,360,64438,1,0,0:0:0:0:
328,160,64699,1,0,0:0:0:0:
104,272,64960,2,0,P|48:248|64:168,1,150,0|8,0:0|0:1,0:0:0:0:
440,232,65482,2,8,P|496:256|480:336,1,150,0|0,0:0|0:0,0:0:0:0:
256,48,66004,5,0,0:0:0:0:
256,48,66134,1,0,0:0:0:0:
192,168,66264,1,8,0:1:0:0:
192,168,66395,1,0,0:0:0:0:
296,272,66525,1,8,0:1:0:0:
296,272,66656,1,8,0:1:0:0:
148,296,66786,6,0,P|120:344|84:352,1,75,4|0,0:0|0:0,0:0:0:0:
96,240,67047,2,0,P|42:254|11:234,1,75,2|0,0:0|0:0,0:0:0:0:
92,164,67308,2,0,P|43:136|36:99,1,75,0|0,0:0|0:0,0:0:0:0:
144,108,67569,2,0,P|129:54|149:23,1,75,2|0,0:0|0:0,0:0:0:0:
368,108,67830,6,0,P|382:54|362:23,1,75,0|0,0:0|0:0,0:0:0:0:
420,164,68090,2,0,P|468:136|476:99,1,75,2|0,0:0|0:0,0:0:0:0:
416,240,68351,2,0,P|469:254|500:234,1,75,0|0,0:0|0:0,0:0:0:0:
364,296,68612,2,0,P|392:344|428:352,1,75,2|0,0:0|0:0,0:0:0:0:
256,332,68873,5,4,0:0:0:0:
256,332,69004,1,0,0:0:0:0:
184,244,69134,1,2,0:0:0:0:
184,244,69264,1,0,0:0:0:0:
256,156,69395,1,4,0:0:0:0:
256,156,69525,1,0,0:0:0:0:
184,68,69656,1,2,0:0:0:0:
184,68,69786,1,0,0:0:0:0:
328,68,69917,6,0,L|424:68,1,75,4|0,0:0|0:0,0:0:0:0:
376,136,70177,2,0,L|472:136,1,75,2|0,0:0|0:0,0:0:0:0:
184,68,70438,2,0,L|88:68,1,75,4|0,0:0|0:0,0:0:0:0:
136,136,70699,2,0,L|40:136,1,75,4|0,0:0|0:0,0:0:0:0:
52,248,70960,6,0,P|72:300|68:336,1,75,4|0,0:0|0:0,0:0:0:0:
148,316,71221,2,0,L|184:244,1,75,2|0,0:0|0:0,0:0:0:0:
256,336,71482,1,0,0:0:0:0:
256,336,71612,1,0,0:0:0:0:
330,248,71743,2,0,L|364:316,1,75,2|0,0:0|0:0,0:0:0:0:
440,318,72004,6,0,P|440:300|460:248,1,75
472,176,72264,1,2,0:0:0:0:
436,108,72395,1,0,0:0:0:0:
368,80,72525,1,0,0:0:0:0:
296,96,72656,1,0,0:0:0:0:
252,156,72786,1,2,0:0:0:0:
256,232,72917,1,0,0:0:0:0:
248,308,73047,6,0,L|160:308,1,75,4|0,0:0|0:0,0:0:0:0:
88,232,73308,2,0,L|176:232,1,75,2|0,0:0|0:0,0:0:0:0:
252,156,73569,2,0,L|168:156,1,75,4|0,0:0|0:0,0:0:0:0:
92,80,73830,2,0,L|180:80,1,75,2|0,0:0|0:0,0:0:0:0:
345,80,74090,6,0,L|420:80,1,75,4|0,0:0|0:0,0:0:0:0:
504,156,74351,2,0,L|429:156,1,75,2|0,0:0|0:0,0:0:0:0:
344,232,74612,2,0,L|419:232,1,75,4|0,0:0|0:0,0:0:0:0:
503,308,74873,2,0,L|428:308,1,75,4|0,0:0|0:0,0:0:0:0:
352,308,75134,5,4,0:0:0:0:
284,340,75264,1,0,0:0:0:0:
216,304,75395,1,8,0:0:0:0:
152,340,75525,1,0,0:0:0:0:
84,304,75656,2,0,L|84:208,1,75
152,196,75917,2,0,L|152:116,1,75,8|0,0:0|0:0,0:0:0:0:
220,88,76177,5,0,0:0:0:0:
292,16,76308,1,0,0:0:0:0:
220,16,76438,1,8,0:0:0:0:
292,88,76569,1,0,0:0:0:0:
364,168,76699,2,0,L|416:244,1,75
256,244,76960,2,0,L|256:169,1,75,8|0,0:0|0:0,0:0:0:0:
148,168,77221,5,4,0:0:0:0:
120,312,77482,1,2,0:0:0:0:
256,244,77743,1,4,0:0:0:0:
392,312,78004,1,2,0:0:0:0:
436,168,78264,6,2,P|436:92|356:64,1,150,4|0,0:0|0:0,0:0:0:0:
256,152,78786,1,4,0:0:0:0:
134,60,79047,2,0,P|76:92|76:168,1,150,4|4,0:0|0:0,0:0:0:0:
52,240,79438,5,0,0:0:0:0:
76,312,79569,1,8,0:0:0:0:
148,296,79699,1,0,0:0:0:0:
220,320,79830,1,0,0:0:0:0:
292,296,79960,1,0,0:0:0:0:
360,324,80090,2,0,L|360:380,2,37.5,8|0|0,0:0|0:0|0:0,0:0:0:0:
428,292,80351,6,0,P|468:244|464:208,1,75
412,184,80612,2,0,P|406:121|378:99,1,75,8|0,0:0|0:0,0:0:0:0:
328,128,80873,2,0,P|280:87|244:92,1,75
224,144,81134,2,0,P|161:149|139:177,2,75,8|0|4,0:0|0:0|0:0,0:0:0:0:
192,328,81656,5,2,0:0:0:0:
256,368,81786,1,0,0:0:0:0:
320,328,81917,1,4,0:0:0:0:
320,56,82177,5,2,0:0:0:0:
256,16,82307,1,0,0:0:0:0:
192,56,82438,1,4,0:0:0:0:
84,192,82699,6,0,L|164:192,1,75,4|0,0:0|0:0,0:0:0:0:
428,192,82960,2,0,L|348:192,1,75,2|0,0:0|0:0,0:0:0:0:
256,96,83221,1,4,0:0:0:0:
256,192,83351,1,0,0:0:0:0:
256,288,83482,1,4,0:0:0:0:
256,192,83612,12,0,85569,0:0:0:0:
256,56,85699,5,0,0:0:0:0:
256,56,85830,2,0,L|256:144,1,75
196,200,86090,2,0,P|256:240|316:200,1,150
56,192,86612,6,0,L|120:256,1,75
112,328,86873,1,0,0:0:0:0:
196,304,87004,2,0,P|256:344|316:304,1,150
377,366,87395,2,0,P|417:306|380:248,1,150
256,128,87917,6,0,P|216:184|256:248,1,150
40,352,88438,2,0,P|80:296|42:233,1,150
8,160,88830,2,0,L|48:88,1,75
160,64,89090,2,0,L|120:136,1,75
176,224,89351,2,0,L|216:152,1,75
312,152,89612,1,0,0:0:0:0:
384,64,89743,6,0,P|448:104|448:188,1,150,4|2,0:2|0:0,0:0:0:0:
448,248,90134,1,0,0:0:0:0:
400,304,90264,2,0,L|312:304,1,75,2|0,0:0|0:0,0:0:0:0:
332,228,90525,2,0,L|257:228,1,75,2|0,0:0|0:0,0:0:0:0:
112,80,90786,6,0,L|200:80,1,75,2|0,0:0|0:0,0:0:0:0:
180,156,91047,2,0,L|255:156,1,75,2|0,0:0|0:0,0:0:0:0:
332,72,91308,1,2,0:0:0:0:
332,72,91438,1,0,0:0:0:0:
408,156,91569,1,2,0:0:0:0:
408,156,91699,1,0,0:0:0:0:
484,72,91830,5,4,0:0:0:0:
396,320,92090,1,2,0:0:0:0:
116,320,92351,1,0,0:0:0:0:
28,72,92612,1,2,0:0:0:0:
256,56,92873,6,0,P|268:88|257:126,1,75,2|0,0:0|0:0,0:0:0:0:
159,288,93134,2,0,P|173:257|208:237,1,75,2|0,0:0|0:0,0:0:0:0:
352,288,93395,2,0,P|321:274|301:239,1,75,2|0,0:0|0:0,0:0:0:0:
372,216,93656,1,4,0:0:0:0:
257,126,93786,1,0,0:0:0:0:
140,216,93917,5,4,0:0:0:0:
108,68,94177,1,2,0:0:0:0:
404,68,94438,1,0,0:0:0:0:
256,240,94699,1,2,0:0:0:0:
124,312,94960,6,0,P|68:288|56:184,1,150,0|2,0:0|0:0,0:0:0:0:
388,312,95482,2,0,P|444:288|456:184,1,150,0|2,0:0|0:0,0:0:0:0:
404,68,96004,6,0,P|368:56|333:67,1,75,2|0,0:0|0:0,0:0:0:0:
108,68,96264,2,0,P|144:56|178:67,1,75,2|0,0:0|0:0,0:0:0:0:
372,136,96525,2,0,P|336:148|301:136,1,75,2|0,0:0|0:0,0:0:0:0:
140,136,96786,2,0,P|176:148|210:136,1,75,2|0,0:0|0:0,0:0:0:0:
424,236,97047,6,0,P|388:224|353:235,1,75,4|0,0:0|0:0,0:0:0:0:
88,236,97308,2,0,P|124:224|158:235,1,75,2|0,0:0|0:0,0:0:0:0:
388,312,97569,2,0,P|352:324|317:312,1,75,4|0,0:0|0:0,0:0:0:0:
124,312,97830,2,0,P|160:324|194:312,1,75,4|0,0:0|0:0,0:0:0:0:
256,268,98090,5,4,0:0:0:0:
256,192,98221,1,0,0:0:0:0:
296,128,98351,1,8,0:0:0:0:
356,80,98482,1,0,0:0:0:0:
428,64,98612,1,0,0:0:0:0:
504,60,98743,2,0,L|504:136,2,75,0|8|0,0:0|0:0|0:0,0:0:0:0:
356,80,99134,6,0,L|292:20,1,75,4|0,0:0|0:0,0:0:0:0:
116,68,99395,2,0,L|180:128,1,75,8|0,0:0|0:0,0:0:0:0:
311,243,99656,2,0,L|256:191,1,75,0|0,0:0|0:0,0:0:0:0:
76,248,99917,2,0,L|130:299,1,75,8|0,0:0|0:0,0:0:0:0:
236,336,100177,5,4,0:0:0:0:
312,336,100308,2,0,L|324:376,2,37.5,0|0|8,0:0|0:0|0:0,0:0:0:0:
380,300,100569,1,0,0:0:0:0:
408,232,100699,1,0,0:0:0:0:
404,156,100830,1,0,0:0:0:0:
360,96,100960,2,0,P|328:72|296:60,1,75,8|0,0:0|0:0,0:0:0:0:
296,60,101221,5,4,0:0:0:0:
220,68,101351,2,0,L|132:68,1,75,0|8,0:0|0:0,0:0:0:0:
88,164,101612,2,0,L|172:164,1,75
220,260,101873,2,0,L|124:260,2,75,0|4|0,0:0|0:0|0:0,0:0:0:0:
292,348,102264,6,0,L|372:348,1,75,4|0,0:0|0:0,0:0:0:0:
444,264,102525,2,0,L|348:264,1,75,8|0,0:0|0:0,0:0:0:0:
292,180,102786,2,0,L|384:180,1,75
444,96,103047,2,0,L|360:96,1,75,8|0,0:0|0:0,0:0:0:0:
256,96,103308,5,4,0:0:0:0:
256,96,103438,1,0,0:0:0:0:
160,40,103569,1,8,0:0:0:0:
160,40,103699,1,0,0:0:0:0:
100,136,103830,1,0,0:0:0:0:
100,136,103960,1,0,0:0:0:0:
200,192,104090,1,8,0:0:0:0:
200,192,104221,1,0,0:0:0:0:
108,256,104351,6,0,P|110:292|150:326,1,75,4|0,0:0|0:0,0:0:0:0:
200,292,104612,2,0,P|209:327|184:372,1,75,8|0,0:0|0:0,0:0:0:0:
315,361,104873,2,0,P|302:327|312:292,1,75,0|0,0:0|0:0,0:0:0:0:
376,320,105134,2,0,P|401:292|404:256,1,75,8|0,0:0|0:0,0:0:0:0:
396,180,105395,6,0,L|448:108,1,75,4|0,0:0|0:0,0:0:0:0:
328,116,105656,2,0,L|352:32,1,75
116,180,105917,2,0,L|64:108,1,75,4|0,0:0|0:0,0:0:0:0:
184,116,106177,2,0,L|160:32,1,75,4|0,0:0|0:0,0:0:0:0:
256,64,106438,5,4,1:0:0:0:
512,176,106699,1,2,0:0:0:0:
256,352,106960,2,0,P|304:288|368:304,2,150,0|0|2,1:0|1:0|0:0,0:0:0:0:
56,224,107743,6,0,L|56:312,1,75
140,260,108004,2,0,L|140:172,1,75,2|0,0:0|0:0,0:0:0:0:
224,144,108264,2,0,L|224:232,1,75,2|0,0:0|0:0,0:0:0:0:
304,184,108525,5,4,1:0:0:0:
112,48,108786,1,2,0:0:0:0:
80,344,109047,2,0,P|152:360|208:304,2,150,0|0|2,1:0|1:0|0:0,0:0:0:0:
304,184,109830,5,0,0:0:0:0:
304,184,109960,1,0,0:0:0:0:
368,112,110090,1,2,0:0:0:0:
368,112,110221,1,0,0:0:0:0:
304,48,110351,2,0,L|224:48,2,75,2|0|4,1:2|1:0|1:0,0:0:0:0:
32,224,110873,5,2,0:0:0:0:
256,336,111134,2,0,P|336:344|376:288,2,150,0|0|2,1:0|1:0|0:0,0:0:0:0:
296,264,111786,2,0,L|264:184,1,75
136,112,112047,2,0,L|176:184,1,75,2|0,0:0|0:0,0:0:0:0:
24,352,112438,5,2,0:0:0:0:
24,352,112569,1,0,0:0:0:0:
64,280,112699,2,0,L|96:208,1,75,2|0,0:0|0:0,0:0:0:0:
32,136,112960,1,0,0:0:0:0:
184,168,113090,2,0,L|200:256,1,75,2|0,0:0|0:0,0:0:0:0:
136,328,113351,1,0,0:0:0:0:
232,360,113482,2,0,L|280:280,1,75,2|0,0:0|0:0,0:0:0:0:
320,224,113743,1,0,0:0:0:0:
408,296,113873,6,0,L|408:216,1,75,2|0,0:0|0:0,0:0:0:0:
496,112,114134,2,0,L|496:192,1,75,0|2,0:0|0:0,0:0:0:0:
408,136,114395,1,0,0:0:0:0:
328,176,114525,1,2,0:0:0:0:
240,144,114656,2,0,L|152:144,1,75,0|4,0:0|0:1,0:0:0:0:
48,328,115047,5,0,0:0:0:0:
256,280,115308,2,0,P|320:248|392:280,1,150,0|0,0:0|0:0,0:0:0:0:
472,240,115699,2,0,L|416:184,1,75
408,64,115960,2,0,L|472:120,1,75
348,128,116221,2,0,P|272:112|216:192,1,150
296,192,116612,2,0,L|320:272,2,75,0|0|0,0:0|0:0|0:0,0:0:0:0:
128,136,117134,5,0,0:0:0:0:
88,312,117395,1,0,0:0:0:0:
256,352,117656,2,0,P|336:328|344:264,1,150,0|0,0:0|0:0,0:0:0:0:
264,272,118047,2,0,L|200:216,1,75
288,104,118308,2,0,L|312:184,1,75
424,136,118569,2,0,L|424:48,2,75,0|0|0,0:0|0:0|0:0,0:0:0:0:
464,208,118960,6,0,P|528:248|504:312,1,150
424,136,119482,2,0,P|360:96|384:32,1,150,0|0,0:0|0:0,0:0:0:0:
256,192,120004,2,0,L|256:104,2,75,0|0|0,0:0|0:0|0:0,0:0:0:0:
324,248,120395,2,0,P|256:280|188:248,1,150
112,296,120786,2,0,P|105:221|158:168,1,150,0|0,0:0|0:0,0:0:0:0:
256,40,121308,5,0,0:0:0:0:
32,192,121569,1,0,0:0:0:0:
256,344,121830,1,0,0:0:0:0:
480,192,122090,2,0,L|424:248,1,75
296,272,122351,2,0,L|352:216,1,75
352,128,122612,2,0,P|320:64|248:72,1,150,0|0,0:0|0:0,0:0:0:0:
272,152,123004,2,0,L|216:208,1,75,0|4,0:0|1:0,0:0:0:0:
56,96,123395,5,0,0:0:0:0:
0,264,123656,2,0,P|64:312|128:280,1,150,0|0,0:0|0:0,0:0:0:0:
368,192,124177,2,0,L|368:280,1,75
432,128,124438,2,0,L|432:40,1,75
504,280,124830,1,0,0:0:0:0:
435,324,124960,2,0,P|372:352|300:324,1,150,0|0,0:0|0:0,0:0:0:0:
432,128,125482,5,0,0:0:0:0:
272,192,125743,2,0,P|200:216|144:152,1,150,0|0,0:0|0:0,0:0:0:0:
16,360,126264,2,0,L|112:360,1,75
235,304,126525,2,0,L|160:304,1,75
256,56,126917,1,0,0:0:0:0:
256,56,127047,1,0,0:0:0:0:
388,236,127308,6,0,P|436:160|384:132,1,150,4|0,1:0|0:0,0:0:0:0:
256,56,127830,1,0,0:0:0:0:
107,134,128090,2,0,P|76:160|124:236,1,150,0|0,0:0|0:0,0:0:0:0:
256,164,128612,6,0,L|256:252,1,75
256,316,128873,1,0,0:0:0:0:
332,304,129004,1,0,0:0:0:0:
332,228,129134,1,0,0:0:0:0:
392,88,129395,5,0,0:0:0:0:
256,24,129656,1,0,0:0:0:0:
120,88,129917,1,0,0:0:0:0:
180,228,130177,1,0,0:0:0:0:
48,300,130438,6,0,P|56:336|116:352,1,75
156,328,130699,2,0,P|187:347|240:316,1,75,0|0,0:0|0:0,0:0:0:0:
248,268,130960,2,0,P|284:260|300:200,1,75,0|0,0:0|0:0,0:0:0:0:
264,168,131221,2,0,P|283:136|252:83,2,75,8|8|4,0:0|0:0|0:0,0:0:0:0:
160,60,131743,5,0,0:0:0:0:
52,164,132004,1,8,0:0:0:0:
156,272,132264,1,0,0:0:0:0:
264,168,132525,6,0,L|280:60,1,75,0|0,0:0|0:0,0:0:0:0:
348,116,132786,2,0,L|388:48,1,75,2|0,0:0|0:0,0:0:0:0:
436,108,133047,2,0,L|496:60,2,75,0|0|2,0:0|0:0|0:0,0:0:0:0:
456,180,133438,1,0,0:0:0:0:
432,252,133569,5,4,0:0:0:0:
256,316,133830,1,0,0:0:0:0:
80,252,134090,1,8,0:0:0:0:
152,80,134351,1,0,0:0:0:0:
360,80,134612,6,0,P|368:116|361:153,1,75,0|0,0:0|0:0,0:0:0:0:
216,120,134873,2,0,P|252:112|289:118,1,75,2|0,0:0|0:0,0:0:0:0:
252,264,135134,2,0,P|244:228|250:190,1,75,2|0,0:0|0:0,0:0:0:0:
396,224,135395,2,0,P|360:232|322:225,2,75,4|0|4,0:0|0:0|0:0,0:0:0:0:
360,80,135917,5,0,0:0:0:0:
256,188,136177,1,8,0:0:0:0:
152,80,136438,1,0,0:0:0:0:
116,224,136699,5,0,0:0:0:0:
256,348,136960,1,2,0:0:0:0:
256,348,137090,1,0,0:0:0:0:
396,224,137351,1,0,0:0:0:0:
400,148,137482,6,0,B|408:108|408:108|396:64,1,75,2|0,0:0|0:0,0:0:0:0:
112,148,137743,2,0,B|104:108|104:108|116:64,1,75,4|0,0:0|0:0,0:0:0:0:
328,52,138004,2,0,L|256:72,1,75,2|0,0:0|0:0,0:0:0:0:
184,52,138264,2,0,L|256:72,1,75,2|0,0:0|0:0,0:0:0:0:
256,148,138525,1,2,0:0:0:0:
256,224,138656,1,0,0:0:0:0:
296,288,138786,6,0,B|324:316|324:316|372:316,1,75,4|0,0:0|0:0,0:0:0:0:
216,288,139047,2,0,B|188:316|188:316|140:316,1,75,2|0,0:0|0:0,0:0:0:0:
416,264,139308,2,0,B|388:236|388:236|340:236,1,75,4|0,0:0|0:0,0:0:0:0:
96,264,139569,2,0,B|124:236|124:236|172:236,2,75,4|0|4,0:0|0:0|1:0,0:0:0:0:
60,120,140090,5,0,0:0:0:0:
168,16,140351,1,0,0:0:0:0:
256,136,140612,1,0,0:0:0:0:
344,16,140873,5,0,0:0:0:0:
420,24,141004,1,0,0:0:0:0:
464,84,141134,1,0,0:0:0:0:
468,160,141264,1,0,0:0:0:0:
424,220,141395,1,0,0:0:0:0:
256,304,141656,2,0,L|256:208,2,75,0|0|4,0:0|0:0|0:0,0:0:0:0:
88,220,142177,5,0,0:0:0:0:
180,104,142438,1,0,0:0:0:0:
332,104,142699,1,0,0:0:0:0:
332,104,142830,1,0,0:0:0:0:
332,104,142960,5,0,0:0:0:0:
256,276,143221,1,0,0:0:0:0:
256,124,143482,1,0,0:0:0:0:
128,44,143743,1,0,0:0:0:0:
56,68,143873,1,0,0:0:0:0:
56,144,144004,5,4,0:0:0:0:
88,292,144264,2,0,L|152:224,1,75,2|0,0:0|0:0,0:0:0:0:
256,276,144525,2,0,L|256:180,1,75
424,292,144786,2,0,L|360:224,1,75,2|0,0:0|0:0,0:0:0:0:
320,136,145047,6,0,P|348:116|352:64,1,75
192,136,145308,2,0,P|164:116|160:64,2,75,2|0|0,0:0|0:0|0:0,0:0:0:0:
256,276,145830,1,2,0:0:0:0:
256,192,145960,1,0,0:0:0:0:
256,108,146090,6,0,B|248:68|248:68|220:46,1,75,4|0,0:0|0:0,0:0:0:0:
172,192,146351,2,0,B|132:200|132:200|110:227,1,75,2|0,0:0|0:0,0:0:0:0:
256,276,146612,2,0,B|264:316|264:316|291:337,1,75,4|0,0:0|0:0,0:0:0:0:
340,192,146873,2,0,B|380:184|380:184|401:156,1,75,2|0,0:0|0:0,0:0:0:0:
176,108,147134,6,0,P|144:88|108:85,1,75,2|0,0:0|0:0,0:0:0:0:
172,272,147395,2,0,P|148:324|156:356,1,75,4|0,0:0|0:0,0:0:0:0:
336,276,147656,2,0,P|388:300|420:292,1,75,4|0,0:0|0:0,0:0:0:0:
340,112,147917,2,0,P|364:60|356:28,2,75,4|0|4,0:0|0:0|0:0,0:0:0:0:
256,192,148243,12,0,149221,0:0:0:0:
