osu file format v12

[General]
AudioFilename: Yeah Yeah Yeah.mp3
AudioLeadIn: 2000
PreviewTime: 47580
Countdown: 0
SampleSet: Soft
StackLeniency: 0.6
Mode: 0
LetterboxInBreaks: 0
EpilepsyWarning: 1
WidescreenStoryboard: 1

[Editor]
DistanceSpacing: 0.8
BeatDivisor: 2
GridSize: 4

[Metadata]
Title:Til Death (Nightcore Mix)
TitleUnicode:Til Death (Nightcore Mix)
Artist:Digital Sexy
ArtistUnicode:Digital Sexy
Creator:Andrea
Version:Normal
Source:
Tags:osuplayer111 XinCrin Trance Techno Remix
BeatmapID:299415
BeatmapSetID:115950

[Difficulty]
HPDrainRate:4
CircleSize:3
OverallDifficulty:4
ApproachRate:5
SliderMultiplier:1.2
SliderTickRate:1

[Events]
//Background and Video events
0,0,"BG.jpg",0,0
//Break Periods
//Storyboard Layer 0 (Background)
//Storyboard Layer 1 (Fail)
//Storyboard Layer 2 (Pass)
//Storyboard Layer 3 (Foreground)
//Storyboard Sound Samples
//Background Colour Transformations
3,100,0,0,160

[TimingPoints]
1475,360.902255639098,4,2,1,60,1,0
24572,-100,4,1,1,60,0,0
33595,-100,4,2,1,50,0,0
36121,-100,4,1,1,60,0,0
52362,-100,4,1,2,60,0,0
52723,-100,4,1,1,60,0,0
57775,-100,4,2,1,60,0,0
66798,-100,4,1,3,60,0,0
67159,-100,4,2,1,60,0,0
70768,-100,4,1,1,80,0,1
82226,-100,4,1,1,80,0,0
82317,-100,4,1,1,80,0,1
93865,-100,4,1,1,80,0,0

[Colours]
Combo1 : 255,0,255
Combo2 : 128,255,128
Combo3 : 128,191,255
Combo4 : 0,0,255

[HitObjects]
208,36,753,1,2,0:0:0:0:
304,36,1114,1,0,0:0:0:0:
256,120,1475,2,0,L|256:360,2,240,4|2|2,1:2|0:0|0:0,0:0:0:0:
208,36,3279,1,0,0:0:0:0:
160,120,3640,6,0,P|40:120|0:220,2,240,2|2|2,0:0|0:0|0:0,0:0:0:0:
180,216,5444,1,0,0:0:0:0:
256,156,5805,1,2,0:0:0:0:
332,216,6166,1,0,0:0:0:0:
352,120,6527,38,0,P|472:120|512:220,2,240,2|2|2,0:0|0:0|0:0,0:0:0:0:
332,216,8332,1,0,0:0:0:0:
256,276,8693,2,0,P|168:344|80:272,1,240,2|2,0:0|0:0,0:0:0:0:
32,192,9775,1,0,0:0:0:0:
80,109,10136,6,0,P|167:40|256:108,2,240,2|2|4,0:0|0:0|0:0,0:0:0:0:
124,192,11941,1,0,0:0:0:0:
80,276,12302,1,2,0:0:0:0:
256,352,13023,37,4,0:0:0:0:
360,192,13745,1,2,0:0:0:0:
256,32,14467,2,0,L|128:32,2,120,2|0|2,0:0|0:0|0:0,0:0:0:0:
368,172,15911,6,0,P|255:135|143:171,2,240,2|2|2,0:0|0:0|0:0,0:0:0:0:
424,252,17715,1,0,0:0:0:0:
368,328,18076,38,0,P|256:364|144:328,2,240,2|2|2,0:0|0:0|0:0,0:0:0:0:
256,144,20241,1,2,0:0:0:0:
176,92,20602,1,0,0:0:0:0:
168,188,20963,1,2,0:0:0:0:
88,136,21324,1,0,0:0:0:0:
80,232,21685,6,0,P|168:320|272:296,2,240,2|2|2,0:0|0:0|0:0,0:0:0:0:
88,136,23490,1,0,0:0:0:0:
176,92,23850,1,2,0:0:0:0:
344,48,24572,37,4,1:2:0:0:
432,88,24933,2,0,P|432:148|364:248,1,180,8|0,1:2|0:0,0:0:0:0:
320,232,25655,1,8,1:2:0:0:
240,288,26016,1,0,0:0:0:0:
160,344,26377,2,0,P|92:292|64:204,1,180,8|0,1:2|0:0,0:0:0:0:
60,156,27099,1,8,1:2:0:0:
104,72,27459,5,0,0:0:0:0:
184,128,27820,2,0,P|264:128|352:80,1,180,8|0,1:2|0:0,0:0:0:0:
380,44,28542,1,8,1:2:0:0:
456,100,28903,1,0,0:0:0:0:
464,196,29264,2,0,P|424:272|340:316,1,180,8|0,1:2|0:0,0:0:0:0:
296,328,29986,1,8,1:2:0:0:
214,276,30347,37,0,0:0:0:0:
132,328,30708,2,0,P|60:284|28:196,1,180,8|0,1:2|0:0,0:0:0:0:
24,148,31429,1,8,1:2:0:0:
84,72,31790,1,0,0:0:0:0:
156,136,32151,2,0,P|248:136|320:84,1,180,8|0,1:2|0:0,0:0:0:0:
344,48,32873,1,8,1:2:0:0:
476,192,33595,6,0,L|404:300,1,120,8|2,0:2|0:0,0:0:0:0:
320,252,34317,1,8,0:2:0:0:
256,324,34678,1,4,0:0:0:0:
192,252,35038,1,2,0:0:0:0:
102,291,35399,2,0,L|36:192,1,120,4|4,0:0|0:0,0:0:0:0:
64,100,36121,37,2,0:0:0:0:
148,52,36482,2,0,B|256:104|256:104|364:52,2,240,2|2|2,0:0|0:0|0:0,0:0:0:0:
128,148,38287,2,0,P|128:207|162:255,1,120,2|2,0:0|0:0,0:0:0:0:
224,328,39008,5,2,0:0:0:0:
320,316,39369,2,0,P|396:224|396:108,1,240,2|2,0:0|0:0,0:3:0:0:
332,36,40452,1,2,0:0:0:0:
236,48,40813,2,0,P|160:140|160:256,1,240,2|2,0:0|0:0,0:3:0:0:
224,328,41896,5,2,0:0:0:0:
300,272,42256,2,8,B|376:272|376:272|444:304|444:304|532:304,2,240
224,328,44061,1,2,0:0:0:0:
128,324,44422,6,0,P|100:271|100:212,1,120,8|2,0:0|0:0,0:0:0:0:
136,124,45144,2,8,P|252:104|336:184,1,240
448,48,46587,1,2,2:0:0:0:
484,136,46948,38,0,B|484:256|484:256|404:348,1,240,2|4,2:0|1:2,0:0:0:0:
332,284,48031,1,8,0:0:0:0:
352,188,48392,2,0,P|288:188|248:224,1,120,2|8,0:0|0:0,0:0:0:0:
180,292,49114,1,2,0:0:0:0:
112,360,49475,2,0,P|24:276|24:164,1,240,8|8,0:0|0:0,0:0:0:0:
80,84,50557,6,0,P|124:40|184:40,1,120,2|8,0:0|0:0,0:0:0:0:
236,116,51279,1,2,0:0:0:0:
284,200,51640,1,8,0:0:0:0:
328,116,52001,2,0,P|448:116|512:208,1,240,2|2,0:0|0:0,0:0:0:0:
468,292,53084,38,8,P|348:292|284:200,1,240
200,152,54166,1,2,0:0:0:0:
152,68,54527,2,8,P|256:16|360:68,1,240
312,152,55610,1,2,0:0:0:0:
256,232,55971,1,8,0:0:0:0:
416,116,56693,6,0,P|356:116|312:152,1,120,8|2,0:0|0:0,0:0:0:0:
392,204,57414,1,8,0:0:0:0:
368,296,57775,6,0,B|256:340|256:340|144:296,2,240,2|2|4,0:0|0:0|0:0,0:0:0:0:
392,204,59580,1,8,0:0:0:0:
256,68,60302,1,8,0:0:0:0:
152,212,61023,5,8,0:0:0:0:
208,288,61384,1,2,0:0:0:0:
304,288,61745,1,8,0:0:0:0:
360,212,62106,37,4,0:0:0:0:
360,116,62467,2,8,P|256:64|152:116,2,240
360,212,64271,2,0,P|348:272|308:312,1,120,2|8,0:0|0:0,0:0:0:0:
204,312,64993,6,0,P|162:270|152:212,1,120,4|8,0:0|0:0,0:0:0:0:
148,116,65715,1,2,0:0:0:0:
208,40,66076,1,8,0:0:0:0:
268,116,66437,2,0,P|388:116|472:196,1,240,4|8,0:0|0:0,0:0:0:0:
444,288,67520,38,0,P|384:288|336:320,1,120,8|4,0:0|0:0,0:0:0:0:
256,268,68241,1,8,0:0:0:0:
176,320,68602,2,0,P|127:287|68:288,1,120,4|8,0:0|0:0,0:0:0:0:
16,208,69324,1,4,0:0:0:0:
40,116,69685,1,8,0:0:0:0:
64,24,70046,22,0,P|180:24|264:108,1,240,4|4,0:0|1:2,0:0:0:0:
292,200,71129,2,0,P|374:282|494:282,1,240,8|8,0:0|0:0,0:0:0:0:
476,188,72211,2,0,P|435:147|375:147,1,120,2|8,0:0|0:0,0:0:0:0:
336,60,72933,1,2,0:0:0:0:
256,116,73294,1,8,0:0:0:0:
176,60,73655,5,2,0:0:0:0:
92,108,74016,2,8,P|167:197|166:315,1,240
256,340,75099,2,0,P|299:301|358:303,1,120,2|8,0:0|0:0,0:0:0:0:
432,240,75820,2,0,P|389:201|328:200,1,120,2|8,0:0|0:0,0:0:0:0:
256,136,76542,37,2,0:0:0:0:
184,72,76903,2,8,P|88:8|0:76,1,240
60,148,77986,1,2,0:0:0:0:
0,224,78347,1,8,0:0:0:0:
60,300,78708,2,0,P|107:334|166:334,1,120,2|8,0:0|0:0,0:0:0:0:
256,296,79429,5,2,0:0:0:0:
340,248,79790,2,0,B|400:144|400:144|340:40,1,240,8|8,0:0|0:0,0:0:0:0:
256,80,80873,2,0,P|196:80|148:112,1,120,2|8,0:0|0:0,0:0:0:0:
104,196,81595,2,0,L|206:258,1,120,0|2,2:0|2:0,0:0:0:0:
305,258,82317,38,0,L|408:196,2,120,4|8|2,1:2|0:0|0:0,0:0:0:0:
256,176,83399,2,0,B|196:176|196:176|144:140,1,120,8|2,0:0|0:0,0:0:0:0:
88,64,84121,1,8,0:0:0:0:
180,36,84482,2,0,B|240:36|240:36|292:72,1,120,2|8,0:0|0:0,0:0:0:0:
360,136,85204,5,2,0:0:0:0:
432,200,85565,2,0,P|352:280|228:280,1,240,8|8,0:0|0:0,0:0:0:0:
148,232,86647,2,0,P|88:232|44:192,1,120,2|8,0:0|0:0,0:0:0:0:
112,124,87369,2,0,P|172:124|216:84,1,120,2|8,0:0|0:0,0:0:0:0:
288,24,88091,37,2,0:0:0:0:
360,88,88452,2,0,P|420:88|468:124,1,120,8|2,0:0|0:0,0:0:0:0:
388,176,89174,2,0,L|332:288,1,120,8|2,0:0|0:0,0:0:0:0:
256,336,89896,1,8,0:0:0:0:
177,283,90256,2,0,L|124:176,1,120,2|8,0:0|0:0,0:0:0:0:
84,88,90978,5,2,0:0:0:0:
176,64,91339,2,8,P|255:139|336:60,1,240
256,192,92422,12,4,93865,1:2:0:0:
