osu file format v12

[General]
AudioFilename: Yeah Yeah Yeah.mp3
AudioLeadIn: 2000
PreviewTime: 47580
Countdown: 0
SampleSet: Soft
StackLeniency: 0.6
Mode: 0
LetterboxInBreaks: 0
EpilepsyWarning: 1
WidescreenStoryboard: 1

[Editor]
DistanceSpacing: 1
BeatDivisor: 4
GridSize: 4

[Metadata]
Title:Til Death (Nightcore Mix)
TitleUnicode:Til Death (Nightcore Mix)
Artist:Digital Sexy
ArtistUnicode:Digital Sexy
Creator:Andrea
Version:Hard
Source:
Tags:osuplayer111 XinCrin Trance Techno Remix
BeatmapID:299316
BeatmapSetID:115950

[Difficulty]
HPDrainRate:7
CircleSize:4
OverallDifficulty:7
ApproachRate:8
SliderMultiplier:1.6
SliderTickRate:1

[Events]
//Background and Video events
0,0,"BG.jpg",0,0
//Break Periods
//Storyboard Layer 0 (Background)
//Storyboard Layer 1 (Fail)
//Storyboard Layer 2 (Pass)
//Storyboard Layer 3 (Foreground)
//Storyboard Sound Samples
//Background Colour Transformations
3,100,0,0,160

[TimingPoints]
1475,360.902255639098,4,2,1,60,1,0
24572,-100,4,1,1,60,0,0
33234,-100,4,2,1,50,0,0
36121,-100,4,1,1,60,0,0
57775,-100,4,2,1,60,0,0
70768,-100,4,1,1,80,0,1
82226,-100,4,1,1,80,0,0
82317,-100,4,1,1,80,0,1
93865,-100,4,1,1,80,0,0

[Colours]
Combo1 : 255,0,255
Combo2 : 128,255,128
Combo3 : 128,191,255
Combo4 : 0,0,255

[HitObjects]
256,40,753,2,0,L|256:124,1,80,2|0,0:0|0:0,0:0:0:0:
188,164,1114,2,0,P|256:200|324:164,1,160,0|4,0:0|1:2,0:0:0:0:
376,104,1655,1,0,0:0:0:0:
440,152,1835,2,0,L|400:308,1,160,0|2,0:0|0:0,0:0:0:0:
72,152,2557,6,0,L|112:308,1,160,0|2,0:0|0:0,0:0:0:0:
172,360,3099,1,0,0:0:0:0:
216,296,3279,1,0,0:0:0:0:
296,296,3459,1,0,0:0:0:0:
340,360,3640,1,2,0:0:0:0:
256,64,4001,38,0,L|256:224,1,160,0|2,0:0|0:0,0:0:0:0:
184,28,4542,2,0,L|140:96,1,80
328,28,4903,2,0,L|372:96,1,80,0|2,0:0|0:0,0:0:0:0:
188,280,5444,2,0,B|256:322|256:322|324:280,1,160,0|2,0:0|0:0,0:0:0:0:
256,224,5986,1,0,0:0:0:0:
324,168,6166,2,0,B|256:126|256:126|188:168,2,160,0|2|0,0:0|0:0|0:0,0:0:0:0:
202,67,7249,6,0,L|136:112,1,80,2|0,0:0|0:0,0:0:0:0:
309,67,7610,2,0,L|376:112,1,80
256,128,7971,2,0,L|256:288,1,160,2|0,0:0|0:0,0:0:0:0:
188,328,8512,1,0,0:0:0:0:
256,368,8693,1,2,0:0:0:0:
324,328,8873,2,0,P|404:328|464:280,2,160,0|2|0,0:0|0:0|0:0,0:0:0:0:
188,328,9775,38,0,P|108:328|48:280,2,160,0|2|0,0:0|0:0|0:0,0:0:0:0:
256,284,10678,1,0,0:0:0:0:
324,242,10858,2,0,P|351:215|351:176,1,80,2|0,0:0|0:0,0:0:0:0:
312,108,11219,1,0,0:0:0:0:
256,164,11399,1,0,0:0:0:0:
200,108,11580,1,4,0:0:0:0:
158,177,11760,2,0,P|160:216|187:243,1,80,0|2,0:0|0:0,0:0:0:0:
256,48,12302,1,0,0:0:0:0:
256,336,12662,1,2,0:0:0:0:
40,244,13023,6,0,L|104:292,1,80,4|0,0:0|0:0,0:0:0:0:
40,140,13384,2,0,L|104:92,1,80,2|0,0:0|0:0,0:0:0:0:
100,192,13745,2,0,L|260:192,1,160,0|2,0:0|0:0,0:0:0:0:
380,84,14467,1,0,0:0:0:0:
440,136,14647,1,0,0:0:0:0:
496,192,14828,2,0,B|496:272|496:272|452:340,2,160,2|0|2,0:0|0:0|0:0,0:0:0:0:
384,308,15911,38,0,P|340:308|308:328,1,80
128,308,16271,2,0,P|172:308|201:326,1,80,2|0,0:0|0:0,0:0:0:0:
256,268,16632,1,0,0:0:0:0:
177,98,16993,2,0,L|216:168,1,80,2|0,0:0|0:0,0:0:0:0:
334,98,17354,2,0,L|296:168,1,80
256,56,17715,1,2,0:0:0:0:
136,192,18076,6,0,P|56:192|12:252,2,160,0|2|0,0:0|0:0|0:0,0:0:0:0:
196,244,18978,1,0,0:0:0:0:
256,192,19159,1,2,0:0:0:0:
316,244,19339,1,0,0:0:0:0:
376,192,19520,2,0,P|456:192|500:252,1,160,0|2,0:0|0:0,0:0:0:0:
440,304,20061,1,0,0:0:0:0:
376,352,20241,2,0,P|336:352|300:332,1,80
136,352,20602,38,0,P|176:352|212:332,1,80,2|0,0:0|0:0,0:0:0:0:
176,260,20963,2,0,P|156:184|196:116,1,160,0|2,0:0|0:0,0:0:0:0:
256,64,21505,1,0,0:0:0:0:
317,116,21685,2,0,P|356:184|336:260,1,160,0|2,0:0|0:0,0:0:0:0:
416,264,22226,1,0,0:0:0:0:
448,336,22407,2,0,P|412:356|372:356,1,80
296,332,22768,1,2,0:0:0:0:
216,332,22948,1,0,0:0:0:0:
138,356,23129,6,0,P|100:356|64:336,1,80
20,268,23490,2,0,P|20:188|64:124,1,160,2|0,0:0|0:0,0:0:0:0:
200,40,24211,1,2,0:0:0:0:
256,96,24392,1,0,0:0:0:0:
312,40,24572,38,0,P|392:40|456:88,1,160,4|8,1:2|1:2,0:0:0:0:
484,160,25114,1,0,0:0:0:0:
388,288,25475,1,0,0:0:0:0:
332,348,25655,2,0,B|256:322|256:322|180:348,1,160,8|0,1:2|0:0,0:0:0:0:
96,192,26377,6,0,L|144:120,1,80,8|0,1:2|0:0,0:0:0:0:
256,93,26738,2,0,L|212:160,1,80
304,28,27099,2,0,B|352:28|352:28|404:56|404:56|456:56,1,160,8|0,1:2|0:0,0:0:0:0:
496,212,27820,1,8,1:2:0:0:
432,264,28001,2,0,P|352:264|296:316,1,160
78,264,28542,2,0,P|157:262|215:315,1,160,8|0,1:2|0:0,0:0:0:0:
140,116,29264,38,0,P|180:116|216:92,1,80,8|0,1:2|0:0,0:0:0:0:
371,116,29625,2,0,P|331:115|298:95,1,80,0|0,0:0|1:2,0:0:0:0:
256,28,29986,1,8,1:2:0:0:
256,228,30347,1,0,0:0:0:0:
144,340,30708,5,8,1:2:0:0:
104,272,30888,2,0,P|104:192|40:152,1,160
36,232,31429,2,0,L|176:156,1,160,8|0,1:2|0:0,0:0:0:0:
208,53,31971,2,0,L|136:88,1,80,0|8,0:0|1:2,0:0:0:0:
284,80,32332,1,0,0:0:0:0:
360,48,32512,2,0,P|440:48|496:100,1,160,2|8,2:0|1:2,0:0:0:0:
360,336,33234,38,0,P|440:336|496:284,1,160,2|8,0:0|0:2,0:0:0:0:
432,236,33775,1,0,0:0:0:0:
364,192,33956,2,0,L|200:192,1,160,2|8,0:0|0:2,0:0:0:0:
136,148,34497,1,0,0:0:0:0:
80,92,34678,2,0,P|137:39|215:40,1,160,4|2,0:0|0:0,0:0:0:0:
296,40,35219,2,0,L|360:96,1,80,0|4,0:0|0:0,0:0:0:0:
436,96,35580,2,0,L|496:148,1,80,0|4,0:0|0:0,0:0:0:0:
384,264,36121,6,0,L|316:332,1,80,2|0,0:0|0:0,0:0:0:0:
128,264,36482,2,0,L|184:320,1,80,2|0,0:0|0:0,0:0:0:0:
256,204,36843,2,0,L|256:284,1,80,2|0,0:0|0:0,0:0:0:0:
172,192,37204,2,0,B|172:152|172:152|189:116,1,80,2|0,0:0|0:0,0:0:0:0:
322,116,37565,2,0,B|340:152|340:152|340:192,1,80,2|0,0:0|0:0,0:0:0:0:
256,64,37926,1,2,0:0:0:0:
188,320,38287,2,0,P|256:356|324:320,1,160,2|2,0:0|0:0,0:0:0:0:
376,260,38828,1,0,0:0:0:0:
328,196,39008,38,0,L|364:120,1,80,2|0,0:0|0:0,0:0:0:0:
149,123,39369,2,0,L|184:196,1,80,2|0,0:0|0:0,0:0:0:0:
256,132,39730,2,0,L|256:52,1,80,2|0,0:0|0:0,0:0:0:0:
116,52,40091,1,2,0:0:0:0:
40,80,40271,1,0,0:0:0:0:
72,156,40452,2,0,L|106:228,1,80,2|0,0:0|0:0,0:0:0:0:
140,300,40813,2,0,P|220:300|284:348,1,160,2|2,0:0|0:0,0:0:0:0:
364,344,41354,1,0,0:0:0:0:
444,344,41535,22,0,P|504:300|464:240,1,160,2|2,0:0|0:0,0:0:0:0:
400,192,42076,1,0,0:0:0:0:
443,40,42256,2,0,P|503:81|465:143,1,160,8|2,0:0|0:0,0:0:0:0:
168,208,42978,2,0,P|168:168|192:132,1,80,8|0,0:0|0:0,0:0:0:0:
323,134,43339,2,0,P|344:168|344:208,1,80,2|0,0:0|0:0,0:0:0:0:
256,92,43700,2,0,L|256:0,1,80,8|0,0:0|0:0,0:0:0:0:
256,192,44061,2,0,L|256:272,1,80,2|0,0:0|0:0,0:0:0:0:
192,324,44422,6,0,B|256:372|256:372|320:324,1,160,8|2,0:0|0:0,0:0:0:0:
380,272,44963,2,0,L|324:208,1,80,0|8,0:0|0:0,0:0:0:0:
132,272,45324,2,0,L|188:208,1,80,0|2,0:0|0:0,0:0:0:0:
256,96,45685,2,0,L|256:176,1,80,0|8,0:0|0:0,0:0:0:0:
176,92,46046,1,0,0:0:0:0:
216,24,46226,1,2,2:0:0:0:
336,92,46407,1,0,2:0:0:0:
296,24,46587,1,2,2:0:0:0:
256,368,46948,1,2,2:0:0:0:
176,92,47670,38,0,L|128:156,1,80,4|0,1:2|0:0,0:0:0:0:
336,92,48031,2,0,L|384:156,1,80,8|0,0:0|0:0,0:0:0:0:
256,140,48392,2,0,L|256:304,2,160,2|8|2,0:0|0:0|0:0,0:0:0:0:
408,92,49475,1,8,0:0:0:0:
460,152,49655,1,0,0:0:0:0:
408,292,49835,1,2,0:0:0:0:
460,232,50016,1,0,0:0:0:0:
356,352,50196,6,0,P|276:352|216:304,2,160,8|2|8,0:0|0:0|0:0,0:0:0:0:
408,292,51099,1,0,0:0:0:0:
460,232,51279,2,0,P|398:183|319:183,2,160,2|8|2,0:0|0:0|0:0,0:0:0:0:
388,88,52362,2,0,B|348:88|348:88|316:64,1,80,8|0,0:0|0:0,0:0:0:0:
124,88,52723,2,0,B|164:88|164:88|196:64,1,80,2|0,0:0|0:0,0:0:0:0:
256,120,53084,1,8,0:0:0:0:
28,216,53444,1,2,0:0:0:0:
124,344,53805,38,0,L|184:288,1,80,8|0,0:0|0:0,0:0:0:0:
260,308,54166,2,0,L|318:253,1,80,2|0,0:0|0:0,0:0:0:0:
384,204,54527,2,0,P|384:124|328:60,1,160,8|2,0:0|0:0,0:0:0:0:
180,32,55249,2,0,P|140:32|104:56,1,80,8|0,0:0|0:0,0:0:0:0:
88,132,55610,2,0,P|128:132|164:108,1,80,2|0,0:0|0:0,0:0:0:0:
107,53,55971,2,0,L|151:209,1,160,8|2,0:0|0:0,0:0:0:0:
188,360,56693,5,8,0:0:0:0:
256,320,56873,1,0,0:0:0:0:
324,360,57053,2,0,B|404:360|404:360|464:308,1,160,2|8,0:0|0:0,0:0:0:0:
464,228,57595,1,0,0:0:0:0:
464,148,57775,6,0,B|392:148|392:100|312:100,1,160,2|0,0:0|0:0,0:0:0:0:
256,44,58317,1,0,0:0:0:0:
197,100,58497,1,2,0:0:0:0:
256,156,58678,1,0,0:0:0:0:
197,100,58858,6,0,B|120:100|120:148|48:148,1,160,0|4,0:0|0:0,0:0:0:0:
48,308,59580,1,8,0:0:0:0:
176,212,59941,1,8,0:0:0:0:
256,352,60302,1,8,0:0:0:0:
336,212,60662,1,8,0:0:0:0:
464,308,61023,38,0,L|396:256,1,80,8|0,0:0|0:0,0:0:0:0:
464,112,61384,2,0,L|396:164,1,80,8|0,0:0|0:0,0:0:0:0:
464,212,61745,1,8,0:0:0:0:
256,72,62106,6,0,P|176:72|112:120,1,160,4|8,0:0|0:0,0:0:0:0:
256,312,62828,2,8,P|176:312|112:264,1,160
256,192,63550,1,8,0:0:0:0:
408,148,63911,2,0,L|484:100,1,80,8|0,0:0|0:0,0:0:0:0:
408,236,64271,2,0,L|484:284,1,80,8|0,0:0|0:0,0:0:0:0:
484,192,64632,1,8,0:0:0:0:
340,192,64813,37,0,0:0:0:0:
340,192,64903,1,0,0:0:0:0:
340,192,64993,2,0,L|296:264,1,80,4|0,0:0|0:0,0:0:0:0:
172,192,65354,2,0,L|216:264,1,80,8|0,0:0|0:0,0:0:0:0:
256,192,65715,2,0,L|256:112,1,80,8|0,0:0|0:0,0:0:0:0:
256,32,66076,1,8,0:0:0:0:
188,72,66256,5,0,0:0:0:0:
188,72,66347,1,0,0:0:0:0:
188,72,66437,2,0,P|148:72|112:88,1,80,4|0,0:0|0:0,0:0:0:0:
48,136,66798,1,8,0:0:0:0:
104,192,66978,1,0,0:0:0:0:
48,248,67159,1,8,0:0:0:0:
111,295,67339,38,0,P|148:312|188:312,1,80,0|8,0:0|0:0,0:0:0:0:
187,312,67610,1,0,0:0:0:0:
187,312,67700,1,0,0:0:0:0:
256,272,67881,1,4,0:0:0:0:
400,295,68061,2,0,P|363:312|324:312,1,80,0|8,0:0|0:0,0:0:0:0:
256,272,68422,1,0,0:0:0:0:
320,224,68602,6,0,L|388:168,1,80,4|0,0:0|0:0,0:0:0:0:
312,132,68963,2,0,L|380:76,1,80,8|0,0:0|0:0,0:0:0:0:
192,224,69324,2,0,L|124:168,1,80,4|0,0:0|0:0,0:0:0:0:
200,132,69685,2,0,L|132:76,1,80,8|0,0:0|0:0,0:0:0:0:
256,272,70046,1,4,0:0:0:0:
256,272,70136,1,0,0:0:0:0:
256,272,70226,2,0,L|256:360,2,80,0|8|0,0:0|0:0|0:0,0:0:0:0:
256,192,70768,21,4,1:2:0:0:
256,112,70948,1,0,0:0:0:0:
256,112,71038,1,0,0:0:0:0:
256,112,71129,1,8,0:0:0:0:
196,60,71309,2,0,P|256:16|316:60,1,160
344,136,71850,38,0,L|372:216,1,80,8|0,0:0|0:0,0:0:0:0:
168,136,72211,2,0,L|140:216,1,80,2|0,0:0|0:0,0:0:0:0:
256,192,72572,2,0,L|256:272,1,80,8|0,0:0|0:0,0:0:0:0:
185,310,72933,1,2,0:0:0:0:
256,348,73114,1,0,0:0:0:0:
327,310,73294,1,8,0:0:0:0:
440,180,73655,5,2,0:0:0:0:
388,120,73835,1,0,0:0:0:0:
388,120,73926,1,0,0:0:0:0:
388,120,74016,1,8,0:0:0:0:
324,72,74196,2,0,P|256:36|188:72,1,160
188,71,74738,1,8,0:0:0:0:
176,152,74918,1,0,0:0:0:0:
256,152,75099,38,0,L|256:232,1,80,2|0,0:0|0:0,0:0:0:0:
176,232,75459,2,0,L|212:304,1,80,8|0,0:0|0:0,0:0:0:0:
336,232,75820,2,0,L|300:304,1,80,2|0,0:0|0:0,0:0:0:0:
256,232,76181,1,8,0:0:0:0:
256,152,76362,1,0,0:0:0:0:
256,72,76542,6,0,P|216:72|180:52,1,80,2|0,0:0|0:0,0:0:0:0:
181,53,76813,1,0,0:0:0:0:
181,53,76903,1,8,0:0:0:0:
108,20,77084,2,0,P|28:20|8:88,1,160
88,100,77625,1,8,0:0:0:0:
148,152,77805,1,0,0:0:0:0:
148,232,77986,37,2,0:0:0:0:
88,284,78166,2,0,L|148:336,1,80,0|8,0:0|0:0,0:0:0:0:
216,292,78527,1,0,0:0:0:0:
296,292,78708,1,2,0:0:0:0:
364,336,78888,2,0,L|424:284,1,80,0|8,0:0|0:0,0:0:0:0:
420,124,79429,5,2,0:0:0:0:
372,60,79610,1,0,0:0:0:0:
372,60,79700,1,0,0:0:0:0:
372,60,79790,1,8,0:0:0:0:
292,60,79971,2,0,P|212:60|152:112,1,160
172,261,80512,2,0,P|151:227|152:188,1,80,8|0,0:0|0:0,0:0:0:0:
295,328,80873,2,0,P|256:339|219:328,1,80,2|0,0:0|0:0,0:0:0:0:
359,187,81234,2,0,P|359:227|339:261,1,80,8|0,0:0|0:0,0:0:0:0:
256,192,81595,37,0,2:0:0:0:
256,192,81685,1,0,2:0:0:0:
256,192,81775,2,0,L|256:108,2,80,0|2|0,2:0|2:0|2:0,0:0:0:0:
256,272,82317,5,4,1:2:0:0:
200,328,82497,1,0,0:0:0:0:
200,328,82587,1,0,0:0:0:0:
200,328,82678,1,8,0:0:0:0:
144,272,82858,2,0,B|88:208|88:208|88:132,1,160
20,92,83399,1,8,0:0:0:0:
88,52,83580,1,0,0:0:0:0:
156,92,83760,38,0,L|212:28,1,80,2|0,0:0|0:0,0:0:0:0:
256,96,84121,2,0,L|256:176,1,80,8|0,0:0|0:0,0:0:0:0:
356,92,84482,2,0,L|300:28,1,80,2|0,0:0|0:0,0:0:0:0:
256,176,84843,6,0,L|256:336,1,160,8|2,0:0|0:0,0:0:0:0:
336,336,85384,1,0,0:0:0:0:
336,336,85475,1,0,0:0:0:0:
336,336,85565,1,8,0:0:0:0:
256,336,85745,2,0,B|176:336|176:336|104:292,1,160
152,228,86287,2,0,L|80:188,1,80,8|0,0:0|0:0,0:0:0:0:
112,116,86647,38,0,L|40:76,2,80,2|0|8,0:0|0:0|0:0,0:0:0:0:
184,156,87189,1,0,0:0:0:0:
256,124,87369,1,2,0:0:0:0:
328,156,87550,1,0,0:0:0:0:
400,116,87730,2,0,L|472:76,1,80,8|0,0:0|0:0,0:0:0:0:
429,189,88091,6,0,L|360:228,1,80,2|0,0:0|0:0,0:0:0:0:
360,228,88362,1,0,0:0:0:0:
360,228,88452,1,8,0:0:0:0:
404,294,88632,2,0,B|336:336|336:336|256:336,1,160
176,336,89174,2,0,B|136:336|136:336|96:316,1,80,8|0,0:0|0:0,0:0:0:0:
80,240,89535,2,0,B|120:240|120:240|160:260,1,80,2|0,0:0|0:0,0:0:0:0:
204,196,89896,2,0,L|132:156,1,80,8|0,0:0|0:0,0:0:0:0:
308,196,90256,2,0,L|380:156,1,80,2|0,0:0|0:0,0:0:0:0:
448,120,90617,38,0,P|400:56|320:56,1,160,8|2,0:0|0:0,0:0:0:0:
256,96,91159,2,0,L|256:140,2,40,0|0|8,0:0|0:0|0:0,0:0:0:0:
64,119,91520,2,0,P|109:57|186:53,1,160
256,96,92061,2,0,L|256:176,1,80,8|0,0:0|0:0,0:0:0:0:
256,192,92422,12,4,93865,1:2:0:0:
