osu file format v14

[General]
AudioFilename: different heaven.mp3
AudioLeadIn: 2000
PreviewTime: 32563
Countdown: 0
SampleSet: Soft
StackLeniency: 0.7
Mode: 0
LetterboxInBreaks: 1
WidescreenStoryboard: 1

[Editor]
DistanceSpacing: 1
BeatDivisor: 4
GridSize: 4
TimelineZoom: 1.299999

[Metadata]
Title:My Heart
TitleUnicode:My Heart
Artist:Different Heaven & EH!DE
ArtistUnicode:Different Heaven & EH!DE
Creator:Aleycks
Version:Easy
Source:
Tags:
BeatmapID:708108
BeatmapSetID:315443

[Difficulty]
HPDrainRate:3
CircleSize:3
OverallDifficulty:3
ApproachRate:3
SliderMultiplier:1.6
SliderTickRate:1

[Events]
//Background and Video events
0,0,"umbrellas-balloons-colors.jpg",0,0
//Break Periods
2,22418,26296
//Storyboard Layer 0 (Background)
//Storyboard Layer 1 (Fail)
//Storyboard Layer 2 (Pass)
//Storyboard Layer 3 (Foreground)
//Storyboard Sound Samples

[TimingPoints]
150,689.655172413793,4,2,0,70,1,0
33253,-100,4,1,0,70,0,0
77391,-100,4,2,0,70,0,1
98080,-100,4,2,0,70,0,0

[HitObjects]
212,244,11184,6,0,B|220:200|184:172|184:172|148:204|96:180,2,160
348,60,13943,6,0,B|340:104|376:132|376:132|412:100|464:124,2,160
76,64,16701,5,0,0:0:0:0:
136,120,17046,2,0,P|176:164|180:200,2,80
188,56,18081,2,0,P|264:36|340:80,2,160
212,132,19805,6,0,L|212:220,1,80
292,216,20494,2,0,L|232:284,1,80
292,336,21184,2,0,L|128:336,1,160
160,260,22218,1,0,0:0:0:0:
256,192,27736,12,0,31874,0:0:0:0:
256,192,33253,6,0,L|312:252,1,79.9999999999999,8|8,0:0|0:0,0:0:0:0:
374,201,33943,2,0,L|252:72,1,160,8|0,0:0|0:0,0:0:0:0:
192,48,34977,5,8,0:0:0:0:
196,128,35322,2,8,P|148:156|128:188,1,79.9999999999999
208,212,36012,2,0,P|193:265|202:302,1,79.9999999999999,8|0,0:0|0:0,0:0:0:0:
276,264,36701,2,8,B|304:228|348:228|348:228|348:184|376:156,2,160
196,288,38425,1,8,0:0:0:0:
120,264,38770,6,0,L|48:212,1,79.9999999999999
100,152,39460,2,0,L|240:252,1,160
280,184,40494,2,8,L|336:104,3,79.9999999999999
376,56,41874,6,0,L|452:112,1,79.9999999999999
392,168,42563,1,0,0:0:0:0:
348,236,42908,2,8,B|340:280|280:272|280:272|240:312|204:284,2,160
280,192,44632,5,8,0:0:0:0:
216,144,44977,2,0,P|264:112|352:156,1,160
424,120,46012,5,8,0:0:0:0:
412,200,46356,2,8,P|392:248|356:272,1,79.9999999999999
287,261,47046,2,0,P|299:223|328:196,1,79.9999999999999,8|0,0:0|0:0,0:0:0:0:
372,128,47736,6,8,B|312:96|256:136|228:188,2,160
327,196,49460,1,8,0:0:0:0:
268,252,49805,6,0,L|268:332,1,79.9999999999999
188,332,50494,2,0,L|188:164,1,160
132,112,51529,2,8,L|68:180,3,79.9999999999999
112,244,52908,6,0,L|204:244,1,79.9999999999999
228,172,53598,1,0,0:0:0:0:
308,156,53943,2,8,L|308:244,1,79.9999999999999
364,300,54632,1,0,0:0:0:0:
448,316,54977,6,8,L|448:228,1,79.9999999999999
388,184,55667,1,0,0:0:0:0:
328,132,56012,2,0,P|308:176|320:220,2,79.9999999999999
300,56,57046,6,8,L|216:56,1,79.9999999999999
220,136,57736,1,8,0:0:0:0:
144,164,58081,2,8,P|208:220|284:184,2,160
72,132,59805,1,8,0:0:0:0:
76,212,60150,2,0,L|24:284,1,79.9999999999999
96,320,60839,6,0,L|142:255,1,79.9999999999999
212,216,61529,1,0,0:0:0:0:
212,296,61874,2,0,P|260:284|284:244,1,79.9999999999999
284,180,62563,6,8,L|328:112,3,79.9999999999999
408,116,63943,2,0,L|452:184,1,79.9999999999999
388,232,64632,1,0,0:0:0:0:
316,268,64977,6,8,B|276:292|256:328|256:328|216:308|176:320,2,160
292,192,66701,1,8,0:0:0:0:
220,228,67046,6,0,L|156:156,1,79.9999999999999
236,124,67736,2,0,L|308:84,1,79.9999999999999
356,148,68425,2,0,L|416:216,1,79.9999999999999
340,252,69115,2,0,L|192:340,2,160,0|0|8,0:0|0:0|0:0,0:0:0:0:
300,180,70839,5,8,0:0:0:0:
220,180,71184,2,8,L|164:244,1,79.9999999999999
104,188,71874,2,0,L|156:127,1,79.9999999999999,8|0,0:0|0:0,0:0:0:0:
232,96,72563,6,0,P|300:144|292:216,2,160
224,176,74287,1,0,0:0:0:0:
156,136,74632,2,0,P|150:207|222:255,1,160
224,176,75667,5,0,0:0:0:0:
292,220,76012,1,0,0:0:0:0:
424,128,76701,5,0,0:0:0:0:
436,288,77391,6,0,L|352:244,1,79.9999999999999,4|0,0:0|0:0,0:0:0:0:
292,220,78081,1,0,0:0:0:0:
292,60,78770,5,0,0:0:0:0:
156,140,79460,2,0,L|252:140,1,79.9999999999999
316,140,80150,1,4,0:0:0:0:
276,212,80494,2,0,L|276:296,1,79.9999999999999
116,312,81529,5,0,0:0:0:0:
120,152,82218,2,0,L|176:224,1,79.9999999999999
236,172,82908,1,4,0:0:0:0:
192,104,83253,2,0,L|264:52,1,79.9999999999999
396,140,84287,5,0,0:0:0:0:
276,244,84977,2,0,L|288:160,1,79.9999999999999
300,84,85667,1,4,0:0:0:0:
220,72,86012,2,0,L|208:151,1,79.9999999999999
56,204,87046,6,0,L|96:284,1,79.9999999999999
168,248,87736,2,0,L|242:297,1,79.9999999999999
280,228,88425,2,0,L|369:233,2,79.9999999999999,4|0|0,0:0|0:0|0:0,0:0:0:0:
188,96,89805,5,0,0:0:0:0:
348,96,90494,2,0,L|440:96,1,79.9999999999999
428,176,91184,1,4,0:0:0:0:
348,176,91529,2,0,L|348:264,1,79.9999999999999
188,240,92563,5,0,0:0:0:0:
200,80,93253,2,0,L|252:164,1,79.9999999999999
284,216,93943,1,4,0:0:0:0:
356,180,94287,2,0,L|313:111,1,79.9999999999999
400,248,95322,5,0,0:0:0:0:
240,248,96012,2,0,L|148:248,1,79.9999999999999
80,248,96701,1,4,0:0:0:0:
80,168,97046,2,4,L|172:168,1,79.9999999999999
240,168,97736,2,4,L|240:264,1,79.9999999999999
256,92,99460,6,0,B|256:144|216:180|216:180|240:212|240:236,1,160,4|0,0:0|0:0,0:0:0:0:
376,152,100839,2,0,L|376:244,1,79.9999999999999
456,232,101529,2,0,L|456:320,1,79.9999999999999
376,312,102218,5,4,0:0:0:0:
256,204,102908,1,0,0:0:0:0:
136,312,103598,2,0,L|136:224,1,79.9999999999999
56,228,104287,2,0,L|56:140,1,79.9999999999999
136,148,104977,6,0,B|188:148|224:108|224:108|256:132|280:132,1,160,4|0,0:0|0:0,0:0:0:0:
404,232,106356,2,0,L|308:232,1,79.9999999999999
244,232,107046,2,0,L|244:324,1,79.9999999999999
324,312,107736,5,4,0:0:0:0:
320,152,108425,1,0,0:0:0:0:
192,56,109115,2,0,L|192:144,1,79.9999999999999
112,136,109805,2,0,L|112:228,1,79.9999999999999
192,216,110494,6,0,B|244:216|280:256|280:256|312:232|336:232,1,160,4|0,0:0|0:0,0:0:0:0:
416,92,111874,2,0,L|320:92,1,79.9999999999999
256,92,112563,2,0,L|256:172,1,79.9999999999999
336,172,113253,5,4,0:0:0:0:
176,172,113943,1,0,0:0:0:0:
256,312,114632,2,0,L|256:228,1,79.9999999999999
256,152,115322,2,0,L|256:56,1,79.9999999999999
336,72,116012,6,0,B|336:124|376:160|376:160|352:191|352:216,1,160,4|0,0:0|0:0,0:0:0:0:
192,216,117391,2,0,L|108:216,1,79.9999999999999
32,216,118081,2,0,L|32:296,1,79.9999999999999
112,296,118770,5,4,0:0:0:0:
224,184,119460,1,0,0:0:0:0:
384,184,120150,2,8,L|304:184,3,79.9999999999999
224,184,121529,5,4,0:0:0:0:
