osu file format v6

[General]
AudioFilename: Die Antwoord - Zef Side..MP3
AudioLeadIn: 0
PreviewTime: 80800
Countdown: 0
SampleSet: Soft
StackLeniency: 0.7
Mode: 0
LetterboxInBreaks: 1

[Editor]
Bookmarks: 46514,72658,78015,80801,86801,93658,133447,144376
DistanceSpacing: 1.10000002384186
BeatDivisor: 4
GridSize: 8

[Metadata]
Title:Zef Side.
Artist:Die Antwoord
Creator:hawkzor
Version:Normal
Source:Youtube
Tags:Die Antwoord Afrikaans

[Difficulty]
HPDrainRate:5
CircleSize:4
OverallDifficulty:5
SliderMultiplier:1.4
SliderTickRate:1

[Events]
//Background and Video events
Video,0,"Die Antwoord - Zef Side.avi"
0,0,"antwoord.jpg"
//Break Periods
2,63428,66100
2,73607,76814
2,116627,131604
//Storyboard Layer 0 (Background)
//Storyboard Layer 1 (Fail)
//Storyboard Layer 2 (Pass)
//Storyboard Layer 3 (Foreground)
//Storyboard Sound Samples
//Background Colour Transformations
3,100,163,162,255

[TimingPoints]
43086,428.571428571429,4,2,0,48,1,0
61943,-100,4,2,0,48,0,0
63550,-100,4,2,0,48,0,0
67193,-100,4,2,0,48,0,1
68157,-100,4,2,0,48,0,0
79086,-200,4,2,0,48,0,0
79943,-100,4,2,0,48,0,0
80800,-100,4,2,0,48,0,1
84121,-100,4,2,0,48,0,0
86800,-100,4,2,0,48,0,1
91086,-100,4,2,0,48,0,0
95157,-100,4,2,0,48,0,0
95157,-100,4,2,0,48,0,1
95478,-100,4,2,0,48,0,0
96871,-100,4,2,0,48,0,1
97621,-100,4,2,0,48,0,0
98586,-100,4,2,0,48,0,1
99014,-100,4,2,0,48,0,0
99657,-100,4,1,0,48,0,0
101264,-100,4,2,0,48,0,1
102550,-100,4,2,0,48,0,0
103728,-100,4,2,0,48,0,1
104800,-100,4,1,0,48,0,0
106407,-100,4,2,0,48,0,0
109999,428.571428571429,4,2,0,48,1,0
132804.599861843,428.571428571429,4,2,0,48,1,0
143090,-200,4,2,0,48,0,0

[Colours]
Combo1 : 255,128,255
Combo2 : 255,255,255
Combo3 : 108,201,236

[HitObjects]
173,258,46514,2,2,B|173:218|219:169,4,70,2|2|2|2|6
312,191,47800,2,2,B|338:216|346:272,4,70,2|2|2|2|6
456,192,49086,5,0
357,290,49514,1,0
256,192,49943,1,4
157,290,50371,1,0
58,191,50800,1,0
156,92,51228,1,4
256,208,51336,12,4,53371
256,40,53800,6,0,B|328:48|368:80|384:120,1,140
375,258,54657,2,0,B|334:308|277:325|248:325,1,140
120,256,55514,6,0,B|184:264|204:263|249:258|279:258|304:240|330:207|348:183|372:140,1,280,0|4
256,45,56800,6,2,B|208:49|180:84,2,70,2|2|6
359,159,57657,2,2,B|381:188|391:224|382:261|346:285,2,140,2|6|2
256,43,58943,2,0,B|216:43,1,35,8|0
179,150,59371,5,0
179,304,59800,1,0
332,304,60228,1,0
332,149,60657,1,0
256,288,61086,5,8
158,226,61407,1,8
255,164,61728,1,8
397,226,62157,1,4
256,208,62264,12,4,63228
192,352,67300,6,2,B|264:352|264:352|256:336|264:320|264:320|272:344|288:360|288:360|288:344|304:320|336:320,1,210,2|6
408,192,68371,5,0
344,56,68800,2,8,B|296:40|232:40|168:48|136:96,1,210
96,312,70086,5,0
248,272,70514,2,8,B|312:264|352:248|384:216|416:176|416:144,1,210
424,320,71586,2,8,B|272:136,1,210
192,40,72657,1,0
256,184,73086,6,2,B|256:224,3,35,2|2|2|6
120,112,78014,6,0,B|80:168|80:200|88:248,1,140
304,328,79086,6,2,B|304:280|296:256|264:240|256:224|256:192,1,140,2|6
256,199,80371,1,4
333,66,80800,6,8,B|333:282,1,210
179,276,81871,2,8,B|179:52,1,210
256,288,83157,5,0
256,136,83586,1,0
256,136,84228,1,2
179,253,84871,5,0
331,253,85300,1,0
152,112,85943,2,8,B|376:112,1,210
439,112,86800,6,2,B|439:152,3,35,2|2|2|6
440,336,87657,6,8,B|392:304|376:312|352:320|328:336|304:368|256:336|224:312,1,210
376,248,88728,2,8,B|328:216|312:224|288:232|264:248|240:280|192:248|160:224,1,210
400,176,90014,5,0
245,176,90443,1,0
245,176,91086,1,2
40,272,91728,5,0
40,120,92157,1,0
256,192,92800,6,8,B|304:160|320:168|344:176|368:192|392:224|440:192|472:168,1,210
400,120,93657,6,2,B|400:80,3,35,2|2|2|6
220,154,94514,6,2,B|292:154,1,70
222,292,95157,2,0,B|246:284|262:300|278:308|302:284,1,70,4|0
256,64,96014,6,0,B|256:160,2,70,0|2|2
256,216,96871,5,4
256,216,97300,2,0,B|248:240|264:256|272:272|248:296,1,70,4|0
256,208,97621,12,4,98586
64,256,99657,6,0,B|136:256,1,70
134,333,100086,2,0,B|222:333,1,70,0|0
208,256,100514,6,0,B|288:256,1,70
278,333,100943,2,0,B|368:333|368:333|368:336,1,70
384,264,101371,6,2,B|343:193,1,70
222,292,102014,2,0,B|246:284|262:300|278:308|302:284,1,70,4|0
256,64,102871,6,0,B|256:160,2,70,0|2|2
256,216,103728,5,4
256,216,104157,2,0,B|264:240|248:256|240:272|264:296,1,70,4|0
400,224,104800,2,0,B|328:224,1,70
330,147,105229,2,0,B|242:147,1,70,0|0
256,224,105657,6,0,B|176:224,1,70
186,147,106086,2,0,B|96:147|96:147|96:144,1,70
112,224,106514,6,2,B|184:224|184:224|176:256|176:256|208:248|208:248|208:248|208:248|200:280|200:280|240:272|240:272|240:272|240:272|232:296|232:296|232:296|232:296|224:336|224:336|240:336|240:336|296:336|296:336|312:264|312:264|384:264|384:264,1,490,2|6
256,192,109086,6,2,B|256:232,3,35,2|2|2|6
256,304,109621,1,4
192,104,110213,6,0,B|219:77|260:60|296:78|324:114,1,140
315,103,110856,1,8
440,192,111284,6,0,B|448:248|424:280|400:304|368:312,1,140,0|8
304,304,111927,2,2,B|264:296|216:312|216:312,4,70,0|0|0|8|0
384,296,112999,2,0,B|416:256|408:216|384:192|360:168,1,140,0|8
168,48,114070,5,0
168,48,114284,2,0,B|120:88|96:128|88:168|88:176,1,140,8|0
90,316,115141,2,0,B|188:316|188:316|192:320,1,70,8|0
235,302,115570,6,0,B|275:302,3,35
256,184,116213,2,2,B|256:104,1,70,0|4
256,128,132804,6,0,B|336:152|360:224,1,140,0|8
320,280,133447,2,0,B|293:307|252:324|216:306|188:270,1,140
196,280,134090,1,8
72,192,134518,6,0,B|64:136|88:104|112:80|144:72,1,140,0|8
208,80,135161,2,2,B|248:88|304:64,4,70,0|0|0|8|0
128,88,136233,2,0,B|96:128|104:168|128:192|152:216,1,140,0|8
344,336,137304,5,0
344,336,137518,2,0,B|392:296|416:256|424:216|424:208,1,140,8|0
422,68,138375,2,0,B|324:68|324:68|320:64,1,70,8|0
276,81,138804,6,2,B|236:81,3,35,2|2|2|6
256,200,139447,2,0,B|256:280,1,70
136,72,140304,2,0,B|96:112|80:144|80:168|80:208,1,140
80,195,140947,1,8
192,304,141376,6,0,B|232:328|272:320|312:304|336:280,1,140,0|8
323,289,142018,1,0
368,144,142447,2,0,B|328:80|328:80|328:80,1,70,0|8
256,88,143090,6,0,B|240:104|224:120|256:144|280:168|280:192|256:224|240:232,1,140,4|2
