osu file format v6

[General]
AudioFilename: Die Antwoord - Zef Side..MP3
AudioLeadIn: 0
PreviewTime: 80800
Countdown: 0
SampleSet: Soft
StackLeniency: 0.7
Mode: 0
LetterboxInBreaks: 1

[Editor]
Bookmarks: 72658,78015,80801,86801,93658
DistanceSpacing: 1.20000004768372
BeatDivisor: 4
GridSize: 8

[Metadata]
Title:Zef Side.
Artist:Die Antwoord
Creator:hawkzor
Version:Insane
Source:Youtube
Tags:Die Antwoord Afrikaans

[Difficulty]
HPDrainRate:7
CircleSize:5
OverallDifficulty:7
SliderMultiplier:1.4
SliderTickRate:1

[Events]
//Background and Video events
Video,0,"Die Antwoord - Zef Side.avi"
0,0,"antwoord.jpg"
//Break Periods
2,72856,77114
2,117055,131920
//Storyboard Layer 0 (Background)
//Storyboard Layer 1 (Fail)
//Storyboard Layer 2 (Pass)
//Storyboard Layer 3 (Foreground)
Sprite,Foreground,Centre,"warning.png",320,240 R,0,98800,,-5.948543E-07 M,0,98800,98847,240,279,246,277 F,0,98800,98907,0,1 M,0,98847,99121,246,277,283,267 M,0,99121,99443,283,267,302,240 S,0,99121,99550,1.034164,0.6583631 M,0,99443,99978,302,240,307,241 S,0,99550,99978,0.6583631,0.8086832 S,0,99978,100300,0.8086832,0.6720286 S,0,100300,100407,0.6720286,0.6378651 M,1,99978,100514,307,241,302,236 M,0,100514,100621,302,236,307,233 S,0,100407,100728,0.6378651,0.8405057 M,0,100621,100728,307,233,303,228 F,1,98907,100836,1 M,0,100728,100836,303,228,304,224 S,0,100728,100836,0.8405057,0.8906764 M,0,100836,101157,304,224,309,252 F,0,100836,101157,1,0 S,0,100836,101157,0.8906764,0.6241995
Sprite,Foreground,Centre,"warning.png",320,240 F,0,104264,104478,0,1 S,0,104478,104907,0.7676869,1.088825 S,0,104907,105336,1.088825,0.7266903 S,0,105336,105764,0.7266903,1.054662 F,0,104478,105978,1 S,0,105764,106193,1.054662,0.6583628 M,0,104264,106407,318,272,315,275 F,0,105978,106407,1,0 S,0,106193,106407,0.6583628,0.9521705
//Storyboard Sound Samples
//Background Colour Transformations
3,100,163,162,255

[TimingPoints]
43086,428.571428571429,4,2,0,48,1,0
61943,-50,4,2,0,48,0,0
63550,-100,4,2,0,48,0,0
67193,-100,4,2,0,48,0,1
68157,-100,4,2,0,48,0,0
80800,-100,4,2,0,48,0,1
84121,-100,4,2,0,48,0,0
86800,-100,4,2,0,48,0,1
91086,-100,4,2,0,48,0,0
95157,-100,4,2,0,48,0,1
95157,-100,4,2,0,48,0,0
95478,-100,4,2,0,48,0,0
96871,-100,4,2,0,48,0,1
97621,-100,4,2,0,48,0,0
98586,-100,4,2,0,48,0,1
99014,-100,4,2,0,48,0,0
99657,-50,4,1,0,48,0,0
101907,-100,4,2,0,48,0,1
102550,-100,4,2,0,48,0,0
103728,-100,4,2,0,48,0,1
104800,-50,4,1,0,48,0,0
106407,-100,4,2,0,48,0,0
109570,428.571428571429,4,2,0,48,1,0
132804.599861843,428.571428571429,4,2,0,48,1,0
143090,-200,4,2,0,48,0,0

[Colours]
Combo1 : 255,128,255
Combo2 : 255,255,255
Combo3 : 108,201,236

[HitObjects]
120,192,46514,5,0
152,192,46621,1,0
184,192,46728,1,4
224,136,46943,1,0
256,136,47050,1,0
288,136,47157,1,4
328,192,47371,1,0
360,192,47478,1,0
392,192,47585,1,4
352,248,47800,6,0,B|312:248,2,35,0|0|4
280,248,48228,2,0,B|240:248,2,35,0|0|4
208,248,48657,2,0,B|168:248,2,35,0|0|4
168,192,49085,6,0,B|168:152|168:152|208:152,1,70,0|4
256,192,49514,2,0,B|256:160|256:160|256:120|256:120|256:128,1,70,0|4
314,151,49943,2,0,B|354:151|354:151|354:183,1,70,0|4
320,248,50371,5,0
320,248,50478,1,0
320,248,50586,1,4
256,264,50800,1,0
256,264,50907,1,0
256,264,51014,1,4
192,248,51228,1,0
192,248,51335,1,0
192,248,51443,1,4
184,176,51657,5,2
184,144,51764,1,2
184,112,51871,1,2
200,80,51978,1,2
224,56,52085,1,2
256,40,52193,1,2
288,56,52300,1,2
312,80,52407,1,2
328,112,52514,1,2
328,144,52621,1,2
328,176,52728,1,2
328,208,52835,1,2
312,240,52943,1,2
288,264,53050,1,2
256,280,53157,1,2
224,264,53264,1,2
200,240,53371,1,6
256,112,53800,5,0
256,80,53907,1,0
256,152,54121,2,2,B|256:229,1,70,2|2
315,135,54657,6,2,B|275:103,3,35,0|0|0|4
216,112,55193,1,0
188,139,55300,1,0
172,171,55407,1,0
172,203,55514,1,0
172,275,55728,1,4
243,275,55943,5,0
275,275,56050,1,0
307,275,56157,1,0
339,275,56264,1,0
371,275,56371,1,0
443,275,56585,1,4
400,216,56800,5,2
328,216,57014,1,2
256,216,57228,1,2
112,216,57657,1,2
184,216,57871,1,2
256,216,58086,2,0,B|240:176|224:160|224:160|248:152|280:136|296:96|296:96|264:96|248:80|248:64|256:40,1,245,2|8
328,48,59050,5,0
328,48,59157,1,0
384,88,59371,5,2
424,144,59585,1,2
432,216,59800,1,2
360,232,60014,5,0
360,232,60121,1,0
360,232,60335,1,0
288,232,60550,1,0
288,232,60657,1,0
288,232,60871,1,0
192,336,61085,6,0,B|144:336,1,35,8|0
88,208,61407,6,0,B|88:160,1,35,8|0
192,64,61728,6,0,B|232:64,1,35,8|0
200,128,62050,6,2,B|288:128,1,70
344,192,62585,5,4
344,192,62693,1,4
344,192,62800,1,4
344,192,62907,1,4
344,192,63014,1,4
376,128,63228,2,0,B|341:68|341:68|302:132,1,140,4|0
234,128,63657,5,8
256,192,63871,1,0
256,192,63978,1,0
256,192,64085,1,8
292,251,64300,2,0,B|372:251|372:251|356:251,2,70,0|8|0
255,310,64943,1,8
255,310,65050,1,0
216,251,65264,6,4,B|143:252|143:252,3,70
144,184,66121,1,0
144,184,66228,5,4
216,184,66443,1,4
216,251,66657,2,4,B|192:293|144:285|104:285,1,105,4|0
72,192,67300,6,2,B|144:192|144:192|120:176|112:168|112:168|112:168|136:160|136:160|120:112|64:88,1,210,2|2
223,52,68371,6,2,B|223:92,3,35,2|2|2|6
287,52,68907,5,0
287,84,69014,1,0
287,116,69121,1,0
287,148,69228,1,0
287,180,69335,1,0
287,212,69443,2,2,B|279:228|279:236|255:228|247:228|239:228|231:236|231:252,3,70,2|2|2|6
287,212,70728,6,2,B|276:209|252:209|252:217|236:233|220:217|204:201|204:193,3,70,0|0|0|4
200,136,71585,1,2
256,88,71800,1,2
312,136,72014,1,2
256,176,72228,2,0,B|224:200|216:232|216:232|216:232|248:248|264:272|256:288|256:304,1,140,0|4
320,56,78014,5,0
320,56,78121,1,0
320,56,78228,1,0
384,96,78443,1,0
384,96,78550,1,0
384,96,78657,1,0
440,144,78871,1,0
440,144,79085,6,2,B|440:200|432:240|400:280|376:288|352:288|312:288,1,210
326,287,79835,1,0
326,287,79943,1,0
256,288,80157,1,2
256,216,80371,2,2,B|232:176|248:152|272:136,1,70,2|6
320,96,80800,6,0,B|344:136|320:168,1,70,8|0
323,204,81121,2,0,B|347:244|323:276,1,70,8|0
201,270,81657,6,0,B|177:230|201:198,1,70,8|0
197,162,81978,2,0,B|173:122|204:89,1,70,8|0
304,160,82514,5,2
363,100,82728,1,2
422,160,82943,1,2
363,219,83157,1,2
343,301,83371,6,0,B|303:325|271:301,1,70,8|0
235,304,83693,2,0,B|200:312|168:280,1,70,8|0
208,160,84228,5,2
148,100,84443,1,2
88,159,84657,1,2
147,218,84871,1,2
208,160,85085,1,2
267,100,85300,1,2
326,160,85514,1,2
267,219,85728,1,2
207,159,85943,1,2
148,219,86157,1,2
89,159,86371,1,2
148,100,86585,1,2
208,159,86800,6,0,B|251:159|297:159,1,70,8|0
304,192,87121,1,8
304,192,87228,2,0,B|280:176|264:208|240:200|216:176,1,70,0|0
208,112,87657,6,0,B|304:112,1,70,8|0
312,88,87978,1,8
312,88,88086,2,0,B|304:80|288:72|272:88|256:104|224:64,1,70
208,160,88514,6,0,B|288:160,1,70,8|0
304,192,88836,1,8
304,192,88943,2,0,B|280:200|272:208|264:192|240:184|216:224,1,70
248,288,89371,5,2
176,248,89585,1,2
144,168,89800,1,2
144,84,90014,1,2
208,136,90228,6,0,B|288:136,1,70,8|0
304,104,90550,1,8
304,104,90657,2,0,B|288:96|280:88|272:96|256:112|240:96|224:88,1,70
304,40,91086,5,2
368,88,91300,1,2
368,171,91514,1,2
368,255,91728,1,2
452,255,91943,1,2
452,171,92157,1,2
452,88,92371,1,2
368,88,92585,1,2
368,172,92800,1,2
368,256,93014,1,2
452,256,93228,1,2
367,256,93443,1,2
288,288,93657,5,8
248,296,93764,1,0
216,272,93871,1,0
256,256,93978,2,0,B|240:232|256:224|264:216|280:192|288:176|256:160|248:160,1,105,8|0
256,80,94514,5,8
176,80,94728,1,8
344,80,95157,6,0,B|328:104|344:120|360:136|344:152|344:152,1,70,4|0
176,328,96014,5,0
256,328,96228,1,8
344,328,96443,1,8
176,328,96871,6,0,B|160:304|176:288|192:272|168:256|168:256,1,70,4|0
257,261,97300,2,0,B|273:285|257:301|241:317|259:331|259:331,1,70,4|0
344,328,97728,5,0
256,328,97943,1,8
176,328,98157,1,8
256,184,98585,6,0,B|272:160|256:144|240:128|264:112|264:112,1,70,4|0
107,90,99657,6,2,B|147:50|179:90|211:130|259:66,1,140
405,89,100085,2,2,B|365:49|333:89|301:129|253:65,1,140
181,227,100514,6,2,B|157:219|125:243|125:251|125:291|157:315|190:288,1,140
338,228,100943,2,2,B|362:220|394:244|394:252|394:292|362:316|329:289,1,140
256,328,101371,5,8
256,240,101585,1,8
184,88,102014,6,0,B|232:56|256:88|288:120|336:80|336:80,1,140,4|0
256,240,102871,5,0
224,160,103085,2,8,B|263:144|303:168,1,70
229,317,103728,6,0,B|213:293|229:277|245:261|229:245|229:245,1,70,4|0
285,317,104157,2,0,B|269:293|285:277|301:261|285:245|285:245,1,70,4|0
107,294,104800,6,2,B|147:334|179:294|211:254|259:318,1,140
405,295,105228,2,2,B|365:335|333:295|301:255|253:319,1,140
181,157,105657,6,2,B|157:165|125:141|125:133|125:93|157:69|190:96,1,140
338,156,106085,2,2,B|362:164|394:140|394:132|394:92|362:68|329:95,1,140
256,88,106514,5,2
256,160,106728,1,2
256,192,106835,1,2
256,224,106943,1,2
256,256,107050,1,2
256,288,107157,1,2
256,288,107371,5,8
256,288,107585,1,8
256,288,107800,1,8
256,288,108014,1,8
256,168,109085,5,8
256,168,109193,1,0
256,168,109300,1,0
256,168,109407,2,0,B|240:192|256:208|280:224|240:248,1,70,8|0
256,40,110213,6,0,B|240:72|200:72|192:104,1,70,4|0
256,40,110641,2,0,B|264:72|320:72|320:112,1,70,4|0
256,216,111284,6,0,B|240:248|272:272|256:288|248:296,2,70,4|0|0
218,156,111927,2,0,B|202:124|242:100|210:84,1,70,4|0
288,89,112356,1,8
288,89,112463,1,8
288,89,112570,1,8
288,160,112784,1,0
328,216,112998,6,0,B|296:248|320:272|336:280|368:304|344:336|312:344,1,140,4|0
256,336,113641,6,0,B|288:304|264:280|248:272|216:248|240:216|272:208,1,140,4|0
184,216,114284,6,0,B|152:248|176:272|192:280|224:304|200:336|168:344,1,140,4|0
256,288,114927,5,4
256,216,115141,1,0
256,144,115356,1,0
256,72,115570,5,2
256,72,115677,5,2
256,72,115784,5,2
256,72,115891,5,2
256,216,116213,5,0
198,176,116427,2,0,B|214:152|231:141|257:132|291:140|310:160|318:176|321:205,1,140,0|4
255,141,132820,6,0,B|234:182|246:203|253:218|279:230|269:269|228:294,1,140
256,344,133447,6,0,B|278:315|315:317|318:276,1,70,4|0
256,344,133876,2,0,B|248:312|192:312|192:272,1,70,4|0
256,168,134518,6,0,B|272:136|240:112|256:96|264:88,2,70,4|0|0
294,228,135161,2,0,B|310:260|270:284|302:300,1,70,4|0
224,295,135590,1,8
224,295,135697,1,8
224,295,135804,1,8
224,224,136018,1,0
184,168,136233,6,0,B|216:136|192:112|176:104|144:80|168:48|200:40,1,140,4|0
256,48,136876,6,0,B|224:80|248:104|264:112|296:136|272:168|240:176,1,140,4|0
328,168,137518,6,0,B|360:136|336:112|320:104|288:80|312:48|344:40,1,140,4|0
256,96,138161,5,4
256,168,138376,1,0
256,240,138590,1,0
256,312,138804,5,2
256,312,138911,5,2
256,312,139018,5,2
256,312,139126,5,2
256,168,139447,5,0
314,208,139661,2,0,B|298:232|281:243|255:252|221:244|202:224|194:208|191:179,1,140,4|0
198,137,140304,6,0,B|224:112|200:88|233:61,1,70,4|0
292,72,140733,2,0,B|311:95|303:119|311:135|322:139,1,70,4|0
179,165,141376,6,2,B|283:269|283:269|283:269,1,140,4|0
328,214,142018,6,2,B|225:110|225:110|223:108,1,140,4|0
229,114,142661,1,4
256,192,143090,6,0,B|248:224|232:240|256:256|271:280|287:304|271:328|240:336|240:336|240:336,1,140,4|0
