osu file format v4

[General]
AudioFilename: Lasse Redn.mp3
AudioLeadIn: 0
AudioHash: 7fbcd572b872573bd9de4e0d534e17cb
PreviewTime: -1
SampleSet: Normal
EditorBookmarks: 57436,126684

[Metadata]
Title:Lasse Redn
Artist:Die Aerzte
Creator:Cecilthemos
Version:Normal

[Difficulty]
HPDrainRate:4
CircleSize:4
OverallDifficulty:4
SliderMultiplier: 1
SliderTickRate: 2

[Events]
2,50869,56912
2,97786,111153
3,0,0,128,128

[TimingPoints]
7800,451.127819548872,4,1,0

[HitObjects]
256,192,7799,2,0,B|256:192|320:256|352:224,2,100
128,192,9153,1,2
128,352,9830,1,4
288,352,10506,1,4
480,96,11409,6,0,B|480:96|448:128|416:96,2,50
480,224,12311,2,0,B|480:224|442:246|416:224,5,50
480,352,14115,5,0
384,256,14566,1,4
288,160,15018,1,0
192,64,15469,1,4
32,160,16371,5,4
128,256,16822,1,0
224,352,17273,1,4
352,352,17724,1,0
352,224,18175,1,4
352,96,18627,1,0
224,96,19078,1,4
224,224,19529,1,0
96,224,19980,1,2
224,352,20657,5,4
224,352,21108,1,4
352,352,21559,6,0,B|352:352|416:288|384:224,1,100
394,264,22236,1,0
384,128,22687,1,0
192,128,23589,2,0,B|192:128|96:160|96:224,1,100
109,180,24266,1,0
224,288,24942,6,0,B|224:288|256:224|288:256,1,50
320,256,25393,2,4,B|320:256|352:224|352:160,1,100
352,96,26070,2,4,B|352:96|224:128|160:96,1,150
192,224,27198,1,2
192,224,27536,1,2
192,224,27875,1,6
480,32,29228,5,0
480,32,29454,1,0
384,128,29905,1,0
384,128,30130,1,0
288,224,30581,1,0
288,224,30807,1,0
160,224,31258,1,2
160,224,31484,2,4,B|160:224|64:256|64:288,1,100
256,192,32160,12,4,35544
256,192,36672,1,0
256,192,36897,1,0
256,192,37123,1,0
384,256,37574,5,0
384,320,37800,2,4,B|384:320|288:288|224:320,1,150
237,316,38927,1,4
96,320,39378,1,0
96,320,39604,2,0,B|96:320|64:288|96:224,2,100
160,320,40732,1,4
256,256,41183,5,0
256,128,41634,1,0
384,128,42085,1,4
384,128,42311,1,4
384,128,42536,1,4
480,320,43213,6,0,B|480:320|416:320|384:256,1,100
395,275,43890,2,0,B|395:275|320:288|288:256,1,100
288,128,44792,2,2,B|288:128|237:135|224:160,1,50
224,256,45469,2,4,B|224:256|160:288|128:256,1,100
130,258,46145,1,0
128,128,46596,6,4,B|128:128|192:160|224:128,3,100
256,96,49303,5,2
192,192,49754,1,2
320,192,50206,1,2
256,288,50657,1,4
64,192,58100,5,0
64,192,58326,2,0,B|64:192|128:224|160:224,1,100
288,224,59228,1,2
384,288,59679,1,2
480,224,60130,1,0
480,224,60356,2,4,B|480:224|448:128|384:96,1,150
256,32,61709,6,0,B|256:32|256:96,1,50
256,160,62160,2,0,B|256:160|224:192|192:192,1,50
224,256,62612,2,0,B|224:256|256:288|288:288,1,50
288,352,63063,2,4,B|288:352|224:352,3,50
170,354,63965,2,2,B|170:354|110:314|114:255,1,100
32,96,64867,5,0
32,96,65093,1,0
160,96,65544,1,0
288,96,65995,1,0
288,224,66446,1,0
288,224,66672,2,4,B|288:224|256:256|224:256,3,50
192,256,67574,2,2,B|192:256|128:224|128:160,1,100
480,192,68927,5,0
480,192,69153,1,0
416,192,69378,2,0,B|416:192|384:160|416:128,2,50
416,256,70055,2,0,B|416:256|384:288|352:256,1,50
288,256,70506,2,0,B|288:256|224:224|224:160,1,100
226,182,71183,1,4
64,192,71860,6,0,B|64:192|64:128,1,50
64,256,72536,2,0,B|64:256|64:320,4,50
64,256,73664,1,0
64,128,74115,1,0
192,128,74566,1,2
192,128,74792,2,0,B|192:128|241:147|230:174|192:224,1,100
256,192,76145,12,4,79078
256,192,79529,1,4
256,192,80206,1,4
416,192,80882,1,2
416,192,81333,1,2
416,320,81784,1,0
288,320,82236,2,4,B|288:320|224:288|224:224,1,100
226,246,82912,6,0,B|226:246|96:192|96:160,1,150
160,96,84040,1,2
288,96,84491,1,0
288,96,84717,2,0,B|288:96|352:160|320:256,1,150
326,233,85845,1,0
320,352,86296,5,0
256,352,86521,2,0,B|256:352|192:320|160:288,1,100
96,288,87198,2,0,B|96:288|117:246|85:246,3,50
166,256,88100,1,0
166,256,88326,1,0
166,256,88551,2,4,B|166:256|224:224|256:192,1,100
248,199,89454,1,4
480,256,90581,6,0,B|480:256|416:224,1,50
416,96,91258,2,0,B|416:96|352:96,2,50
416,224,92160,2,0,B|416:224|352:288|320:288,1,100
224,288,93063,1,0
224,160,93514,1,0
96,160,93965,1,0
96,288,94416,1,0
160,288,94642,1,0
224,288,94867,1,0
288,288,95093,2,4,B|288:288|320:256|320:224,3,50
256,192,95995,12,4,97574
192,192,112461,1,0
320,192,112912,1,0
320,320,113363,2,0,B|320:320|256:288|224:256,1,100
128,256,114266,1,0
128,256,114491,1,0
128,96,115168,1,0
320,96,116070,5,0
384,96,116296,1,0
448,96,116521,1,0
448,224,116972,1,0
384,224,117198,1,0
320,224,117424,1,0
192,224,117875,1,0
128,224,118100,2,4,B|128:224|64:192|96:64,1,150
224,32,119454,5,0
224,96,119679,1,0
224,160,119905,2,0,B|224:160|288:160,1,50
288,32,120581,5,0
288,96,120807,1,0
288,160,121033,2,0,B|288:160|352:160,1,50
448,160,121709,2,2,B|448:160|416:256|320:256,1,150
224,256,122837,5,0
224,320,123063,1,0
128,256,123514,1,0
128,320,123739,1,0
32,320,124190,1,0
32,256,124416,1,0
32,192,124642,1,0
32,64,125093,1,0
32,64,125318,2,4,B|32:64|117:48|128:96,2,100
0,192,126897,5,0
128,192,127348,1,0
256,192,127800,1,4
256,192,128025,1,4
256,352,128702,1,2
256,352,129153,1,2
416,352,129830,2,4,B|416:352|448:256|384:192,1,150
384,96,130957,1,0
288,192,131409,2,4,B|288:192|192:160|192:128,3,100
192,352,133890,5,0
192,288,134115,1,0
192,224,134341,1,0
256,224,134566,1,0
256,288,134792,2,0,B|256:288|256:352,1,50
320,352,135243,2,0,B|320:352|384:352,1,50
384,288,135694,2,0,B|384:288|384:224,1,50
384,160,136145,1,4
256,32,136822,5,2
256,160,137273,5,4
256,288,137724,5,4
384,288,138175,5,4
384,160,138627,5,4
256,160,139078,5,4
192,160,139303,1,0
128,160,139529,1,0
128,224,139754,2,2,B|128:224|160:288|160:320,1,100
352,320,140657,5,0
352,160,141333,2,0,B|352:160|320:96|256:96,1,100
160,96,142236,1,0
160,160,142461,1,0
160,320,143138,2,0,B|160:320|224:320|256:256,1,100
352,224,144040,1,0
352,224,144266,1,0
352,64,144942,1,0
352,64,145393,1,0
224,64,145845,1,0
224,128,146070,1,0
224,192,146296,2,0,B|224:192|160:224|160:160,4,50
256,352,147649,5,0
256,224,148100,1,0
384,224,148551,1,0
384,96,149003,1,0
256,96,149454,1,0
192,96,149679,1,0
128,96,149905,1,0
128,160,150130,2,0,B|128:160|160:224|224:224,1,100
320,224,151033,1,4
320,352,151709,6,2,B|320:352|256:384|192:352,4,100
256,192,154190,12,4,155769
