osu file format v4

[General]
AudioFilename: Lasse Redn.mp3
AudioLeadIn: 0
AudioHash: 7fbcd572b872573bd9de4e0d534e17cb
PreviewTime: -1
SampleSet: Normal
EditorBookmarks: 57436

[Metadata]
Title:Lasse Redn
Artist:Die Aerzte
Creator:Cecilthemos
Version:Hard

[Difficulty]
HPDrainRate:5
CircleSize:5
OverallDifficulty:5
SliderMultiplier: 1.5
SliderTickRate: 4

[Events]
2,50869,56912
3,0,0,128,128

[TimingPoints]
7800,451.127819548872,4,1,0

[HitObjects]
480,352,7799,1,2
448,288,8025,1,0
416,224,8251,1,0
384,160,8476,2,0,B|384:160|384:64,2,75
320,160,9153,2,0,B|320:160|224:160,1,75
192,160,9604,2,4,B|192:160|192:288|0:320|0:160,1,300
1,183,10732,1,4
96,352,11409,5,0
96,288,11634,2,0,B|96:288|128:256|192:320,4,75
96,224,12762,1,0
96,224,12987,1,0
160,192,13213,1,0
160,192,13439,2,4,B|160:192|256:96|352:288,1,225
334,254,14341,5,0
334,254,14566,1,0
334,254,14792,2,2,B|334:254|352:352,2,75
320,192,15469,2,2,B|320:192|384:160|288:128,1,75
256,128,15920,2,4,B|256:128|224:96|288:64,1,75
192,64,16371,5,2
192,192,16822,1,2
192,256,17048,2,4,B|192:256|320:384|416:288,1,225
384,256,17950,6,0,B|384:256|384:160,2,75
320,256,18627,1,0
256,256,18852,1,0
256,192,19078,1,0
192,192,19303,1,0
192,256,19529,2,0,B|192:256|192:352,2,75
192,192,20206,1,0
256,192,20431,1,2
256,256,20657,2,4,B|256:256|352:224|352:128,1,150
480,341,21559,6,4,B|480:341|480:181,1,150
416,160,22236,1,0
416,160,22461,1,0
352,128,22687,1,0
352,128,22912,1,0
288,160,23138,1,0
224,160,23363,1,2
224,160,23589,1,2
224,224,23815,2,0,B|224:224|192:256|256:288,1,75
307,298,24266,2,4,B|307:298|267:398|83:298,1,225
107,252,25168,5,0
96,192,25393,2,4,B|96:192|128:160|64:128,2,75
160,192,26070,2,2,B|160:192|224:128|128:64,1,150
192,64,26747,1,0
256,64,26972,1,0
256,128,27198,1,0
352,224,27536,5,2
352,224,27875,1,2
32,352,29228,5,0
32,352,29454,1,0
32,352,29679,2,0,B|32:352|64:320|128:320|96:320,1,75
160,320,30130,2,0,B|160:320|227:343|224:288,1,75
223,304,30581,1,0
223,304,30807,2,0,B|223:304|231:260|159:240,2,75
288,320,31484,1,2
416,320,31935,5,2
416,320,32160,1,0
448,256,32386,1,0
448,256,32612,1,0
384,256,32837,1,0
384,256,33063,1,0
416,192,33288,1,0
416,192,33514,1,0
256,192,33739,12,4,35093
256,192,35544,1,4
256,320,35995,5,2
384,320,36446,1,2
384,256,36672,2,2,B|384:256|416:128|512:160,1,150
224,160,37574,5,2
160,160,37800,2,4,B|160:160|192:256|128:320,1,150
160,352,38476,2,4,B|160:352|256:352,1,75
235,352,38927,1,4
288,160,39378,5,2
224,160,39604,2,4,B|224:160|146:122|224:0,1,150
256,32,40281,1,0
320,32,40506,1,0
288,96,40732,1,4
288,288,41183,5,2
288,352,41409,1,0
224,352,41634,2,2,B|224:352|224:256,1,75
160,288,42085,1,0
160,352,42311,2,4,B|160:352|64:352,1,75
96,160,43213,5,2
256,160,43664,2,0,B|256:160|256:64,2,75
256,224,44341,1,0
384,224,44792,2,4,B|384:224|480:224,1,75
480,352,45469,2,6,B|480:352|384:352,1,75
352,352,45920,1,2
288,352,46145,1,4
32,352,46596,5,0
32,288,46822,1,2
160,288,47273,1,2
160,224,47499,1,0
160,160,47724,1,0
160,96,47950,1,0
224,96,48175,2,4,B|224:96|256:96|288:160,2,75
224,288,49078,5,0
224,288,49303,2,0,B|224:288|288:320|256:352,1,75
263,342,49754,1,0
263,342,49980,2,0,B|263:342|320:320|320:288,1,75
319,296,50431,1,2
384,288,50657,1,2
256,160,58100,5,0
256,224,58326,1,0
320,160,58551,1,0
320,224,58777,1,0
384,160,59003,1,0
384,224,59228,1,0
448,160,59454,1,0
448,224,59679,1,0
448,288,59905,2,2,B|448:288|416:328|384:288,1,75
320,288,60356,2,4,B|320:288|235:322|224:96,1,225
160,320,61709,5,0
96,320,61935,1,0
96,256,62160,2,2,B|96:256|192:256,1,75
160,192,62612,1,0
96,192,62837,1,0
96,128,63063,2,4,B|96:128|192:128,1,75
224,128,63514,2,4,B|224:128|224:224,1,75
288,224,63965,1,2
288,224,64416,1,2
462,347,64867,6,0,B|462:347|430:283|398:283,3,75
352,278,65769,2,0,B|352:278|282:289|274:194,3,75
241,207,66672,2,4,B|241:207|264:155|317:157,3,75
351,133,67574,1,2
351,133,68025,1,2
32,352,68927,5,0
96,320,69153,1,0
160,288,69378,1,0
224,256,69604,2,0,B|224:256|288:262|256:320,2,75
160,224,70281,1,0
96,192,70506,2,0,B|96:192|87:114|224:96,1,150
256,96,71183,2,4,B|256:96|352:160|320:320,1,225
324,296,72085,1,4
480,352,72536,5,0
480,288,72762,1,0
480,224,72987,2,0,B|480:224|480:128,2,75
416,224,73664,1,0
352,224,73890,1,0
288,224,74115,2,2,B|288:224|256:192|288:128,1,75
288,96,74566,1,2
224,96,74792,2,4,B|224:96|128:160|160:256,1,150
32,352,76145,5,0
32,288,76371,1,0
96,288,76596,1,0
96,352,76822,1,0
160,352,77048,1,0
224,352,77273,1,0
224,288,77499,1,0
160,288,77724,2,2,B|160:288|160:224|288:192,1,150
267,197,78401,1,4
384,192,78852,5,0
384,256,79078,1,0
384,320,79303,1,0
384,384,79529,2,0,B|384:384|480:384,1,75
448,320,79980,1,0
448,256,80206,1,2
448,128,80657,5,2
448,64,80882,1,0
384,64,81108,1,0
384,128,81333,2,4,B|384:128|320:160|288:128,3,75
256,128,82236,1,2
160,192,82687,1,6
96,224,82912,5,2
160,320,83363,1,0
192,256,83589,2,4,B|192:256|224:160|320:192,1,150
352,32,84491,5,0
416,32,84717,2,2,B|416:32|448:128|384:192,1,150
416,256,85393,2,4,B|416:256|512:256,1,75
490,256,85845,1,4
256,160,86296,5,0
192,160,86521,2,2,B|192:160|114:122|192:0,1,150
224,32,87198,1,0
288,32,87424,1,0
256,96,87649,1,0
256,160,87875,1,0
256,224,88100,5,0
256,288,88326,1,0
192,320,88551,2,2,B|192:320|128:256|192:160,1,150
114,184,89228,2,4,B|114:184|18:184,1,75
224,160,90581,6,0,B|224:160|224:64,2,75
224,224,91258,2,0,B|224:224|320:224,1,75
352,224,91709,2,4,B|352:224|448:224,1,75
448,288,92160,2,2,B|448:288|384:352|288:320,1,150
256,320,92837,1,4
192,320,93063,1,4
0,352,93514,5,0
0,288,93739,1,0
64,288,93965,2,0,B|64:288|128:256|96:224,3,75
96,160,94867,1,0
160,160,95093,2,6,B|160:160|192:160|224:224,2,75
480,32,96221,5,0
480,96,96446,1,0
480,160,96672,2,4,B|480:160|394:205|320:128,1,150
288,96,97348,1,0
224,96,97574,5,2
224,160,97800,5,0
224,224,98025,1,0
288,224,98251,2,4,B|288:224|320:288|224:352,1,150
480,352,99830,5,2
480,192,100281,1,2
480,192,100506,1,0
480,192,100732,2,4,B|480:192|416:128|320:160,1,150
192,32,101634,5,0
192,96,101860,2,4,B|192:96|160:160|64:160,2,150
480,32,103439,5,0
384,128,103890,1,0
384,192,104115,1,0
320,160,104341,1,0
192,160,104792,1,2
96,224,105243,1,2
96,224,105469,2,0,B|96:224|128:320|224:320,1,150
384,320,107048,1,2
384,192,107499,2,4,B|384:192|384:96,1,75
384,117,107950,1,4
192,32,108401,5,0
192,32,108627,1,0
320,96,108852,5,0
320,96,109078,1,0
192,160,109303,5,0
192,160,109529,1,0
320,224,109754,5,0
320,224,109980,1,0
192,288,110206,5,2
192,288,110431,1,2
320,352,110657,5,4
320,352,110882,1,2
384,352,111108,2,4,B|384:352|480:352,2,75
385,91,112236,5,0
323,72,112461,1,0
258,56,112687,2,0,B|258:56|258:152,1,75
256,192,113138,1,0
192,192,113363,1,0
128,192,113589,1,0
128,256,113815,2,0,B|128:256|141:299|192:320,1,75
238,313,114266,2,0,B|238:313|286:291|302:249,1,75
384,160,115168,5,2
384,160,115393,1,2
96,96,116070,5,0
96,96,116296,1,0
160,96,116521,2,0,B|160:96|192:160|160:192,1,75
192,224,116972,1,0
192,224,117198,1,0
256,224,117424,1,0
256,288,117649,1,0
256,288,117875,1,0
256,288,118100,2,4,B|256:288|461:344|416:192,1,225
448,32,119454,5,4
384,32,119679,1,0
320,64,119905,1,0
256,96,120130,1,0
256,160,120356,1,0
320,192,120581,1,0
384,224,120807,1,0
384,288,121033,2,4,B|384:288|352:320|288:288,2,75
384,352,121709,2,2,B|384:352|229:375|160:256,1,225
192,224,122612,5,0
192,160,122837,2,0,B|192:160|224:128|192:64,2,75
128,160,123514,2,0,B|128:160|96:128|128:64,3,75
128,32,124416,1,0
192,32,124642,1,0
256,32,124867,2,0,B|256:32|288:96|256:128,1,75
269,104,125318,1,2
269,104,125769,1,2
128,160,126221,5,2
128,288,126672,1,2
192,288,126897,2,4,B|192:288|224:384|320:352,1,150
320,192,127800,5,0
384,192,128025,2,2,B|384:192|416:288|352:352,1,150
440,336,128702,2,4,B|440:336|536:336,1,75
514,335,129153,1,4
448,160,129604,5,2
384,160,129830,2,4,B|384:160|306:122|384:0,1,150
288,32,130506,1,0
224,32,130732,1,0
256,96,130957,1,0
256,288,131409,5,0
256,352,131634,1,0
192,352,131860,2,0,B|192:352|160:288|192:256,1,75
160,224,132311,1,0
96,224,132536,2,4,B|96:224|0:224,1,75
224,160,133890,6,0,B|224:160|224:64,2,75
224,224,134566,2,0,B|224:224|320:224,1,75
352,224,135018,2,2,B|352:224|448:224,1,75
448,288,135469,2,4,B|448:288|384:352|288:320,1,150
256,320,136145,1,4
96,288,136822,5,2
96,32,137273,5,4
256,160,137724,5,4
416,32,138175,5,4
416,288,138627,5,4
352,288,138852,1,2
288,288,139078,1,2
224,288,139303,2,4,B|224:288|172:278|192:224,1,75
256,224,139754,2,4,B|256:224|286:138|192:96,2,150
160,352,141108,5,2
96,352,141333,1,0
96,288,141559,1,0
160,288,141784,2,4,B|160:288|191:209|96:160,1,150
128,96,142461,5,2
288,32,142912,1,2
256,96,143138,1,0
320,96,143363,1,0
288,160,143589,2,4,B|288:160|377:198|352:288,1,150
288,288,144266,5,2
480,320,144717,6,2,B|480:320|469:243|416:256,1,75
480,192,145168,1,0
480,128,145393,2,4,B|480:128|416:64|320:96,1,150
288,96,146070,6,0,B|288:96|224:128|192:96,1,75
160,128,146521,1,0
160,192,146747,1,0
160,256,146972,1,0
160,320,147198,2,4,B|160:320|75:335|32:224,1,150
64,192,147875,5,0
128,192,148100,1,0
192,192,148326,1,0
256,192,148551,2,2,B|256:192|256:96,2,75
320,224,149228,2,4,B|320:224|378:220|352:160,2,75
320,288,149905,1,4
256,288,150130,5,2
128,288,150581,1,2
32,224,151033,1,2
32,64,151484,5,0
96,64,151709,1,0
160,64,151935,2,0,B|160:64|149:107|192:128,2,75
224,64,152612,2,4,B|224:64|439:28|416:224,1,300
256,192,154190,12,4,155769
