osu file format v4

[General]
AudioFilename: Die Aerzte - Junge.mp3
AudioLeadIn: 0
PreviewTime: -1
Countdown: 1
SampleSet: Normal
StackLeniency: 0.7
Mode: 0
LetterboxInBreaks: 1

[Editor]
DistanceSpacing: 0.8
BeatDivisor: 4
GridSize: 8

[Metadata]
Title:Junge
TitleUnicode:
Artist:Die Aerzte
ArtistUnicode:
Creator:Fox
Version:Normal
Source:
Tags:
BeatmapID:2199
BeatmapSetID:453

[Difficulty]
HPDrainRate:5
CircleSize:3
OverallDifficulty:5
ApproachRate:5
SliderMultiplier:1.4
SliderTickRate:1

[Events]
//Background and Video events
0,0,"End_of_Summer_in_Berlin_2004_1.jpg",0,0
//Break Periods
2,71149,75721
2,97311,106148
2,138543,163021
2,177501,181504
//Storyboard Layer 0 (Background)
//Storyboard Layer 1 (Fail)
//Storyboard Layer 2 (Pass)
//Storyboard Layer 3 (Foreground)
//Storyboard Sound Samples
//Background Colour Transformations
3,48,0,0,0

[TimingPoints]
4124,568.72857142857,4,1,0,100,1,0

[HitObjects]
256,192,22323,1,0,0:0:0:0:
256,192,23460,1,0,0:0:0:0:
368,192,25166,6,0,B|259:305|128:176,1,245
256,144,26730,1,0,0:0:0:0:
256,144,26873,1,0,0:0:0:0:
240,320,27868,2,0,B|304:320,1,35
240,224,29005,2,0,B|304:224,1,35
256,64,30569,6,0,B|256:160,3,70
256,208,31707,1,2,0:0:0:0:
256,208,31849,1,0,0:0:0:0:
368,208,32844,1,0,0:0:0:0:
368,208,32986,1,0,0:0:0:0:
256,288,33982,1,0,0:0:0:0:
256,288,34124,1,0,0:0:0:0:
256,192,34550,5,0,0:0:0:0:
176,192,34835,1,0,0:0:0:0:
208,112,35119,1,0,0:0:0:0:
208,112,35261,1,0,0:0:0:0:
320,112,35688,1,0,0:0:0:0:
368,192,35972,1,6,0:0:0:0:
256,256,36399,1,0,0:0:0:0:
256,96,37110,1,0,0:0:0:0:
256,96,37536,1,0,0:0:0:0:
256,208,38247,1,0,0:0:0:0:
256,208,38673,1,0,0:0:0:0:
256,80,39953,6,0,B|256:160,1,70
160,144,40522,1,0,0:0:0:0:
128,272,40949,1,2,0:0:0:0:
256,240,41375,1,0,0:0:0:0:
384,272,41802,1,2,0:0:0:0:
352,144,42228,1,0,0:0:0:0:
256,48,42655,1,2,0:0:0:0:
256,192,43081,1,2,0:0:0:0:
128,272,43650,6,0,B|416:272,1,280
320,192,45072,2,4,B|192:192,2,105
176,112,46636,1,0,0:0:0:0:
288,96,47063,1,0,0:0:0:0:
304,176,47347,2,4,B|176:176,2,105
256,256,48484,1,0,0:0:0:0:
256,256,48911,1,0,0:0:0:0:
256,112,49622,5,0,0:0:0:0:
256,112,49906,1,0,0:0:0:0:
256,256,50759,1,0,0:0:0:0:
256,256,51044,1,0,0:0:0:0:
256,192,52750,12,2,56447,0:0:0:0:
208,112,57300,6,0,B|253:11|304:128,1,140
256,192,58153,1,2,0:0:0:0:
256,192,58295,1,2,0:0:0:0:
256,288,58579,2,4,B|560:144|240:64,1,385
288,192,61849,5,0,0:0:0:0:
288,112,62134,1,2,0:0:0:0:
368,112,62418,1,0,0:0:0:0:
368,192,62703,1,0,0:0:0:0:
368,192,62845,1,2,0:0:0:0:
368,272,63129,2,0,B|256:272,1,105
224,192,64124,5,0,0:0:0:0:
224,112,64409,1,2,0:0:0:0:
144,112,64693,1,0,0:0:0:0:
144,192,64978,1,0,0:0:0:0:
144,192,65120,1,2,0:0:0:0:
144,272,65404,2,4,B|256:272,1,105
208,144,66684,5,0,0:0:0:0:
304,144,66969,1,0,0:0:0:0:
304,240,67253,1,2,0:0:0:0:
304,240,67395,1,0,0:0:0:0:
208,240,67680,1,0,0:0:0:0:
256,192,68248,12,0,70949,0:0:0:0:
256,192,76921,5,0,0:0:0:0:
256,192,78058,1,0,0:0:0:0:
192,96,79480,6,0,B|256:48|331:104,2,140
256,192,81186,1,0,0:0:0:0:
256,192,81471,1,0,0:0:0:0:
256,192,82324,1,0,0:0:0:0:
256,192,82608,2,2,B|256:64|400:64|384:256|400:336|48:320,1,560
80,240,85167,5,0,0:0:0:0:
80,160,85452,1,0,0:0:0:0:
80,80,85736,1,6,0:0:0:0:
160,80,86020,1,0,0:0:0:0:
240,80,86305,1,0,0:0:0:0:
240,80,86447,1,0,0:0:0:0:
176,192,88580,6,0,B|288:96,1,140
304,192,89433,1,0,0:0:0:0:
304,192,89575,1,0,0:0:0:0:
304,272,89859,2,0,B|176:272,1,105
112,272,90570,1,2,0:0:0:0:
112,272,90855,1,0,0:0:0:0:
112,144,91423,2,2,B|108:75|144:48,2,70
224,144,92561,2,4,B|220:75|256:48,2,70
336,64,93698,5,0,0:0:0:0:
384,128,93983,1,0,0:0:0:0:
400,224,94409,1,4,0:0:0:0:
336,304,94836,1,0,0:0:0:0:
240,304,95120,1,0,0:0:0:0:
240,224,95404,1,0,0:0:0:0:
240,144,95689,1,0,0:0:0:0:
240,64,95973,1,0,0:0:0:0:
160,64,96258,1,0,0:0:0:0:
80,64,96542,1,0,0:0:0:0:
80,64,96684,1,2,0:0:0:0:
80,160,96968,1,0,0:0:0:0:
80,160,97111,1,2,0:0:0:0:
256,304,107348,5,0,0:0:0:0:
256,208,107632,1,4,0:0:0:0:
256,208,107774,1,4,0:0:0:0:
192,144,108059,2,0,B|255:70|320:160,2,140
96,192,109907,6,2,B|192:192,1,70
256,192,110476,1,0,0:0:0:0:
256,192,110618,1,0,0:0:0:0:
256,288,110902,2,0,B|176:288|176:208,1,105
208,112,111898,6,4,B|253:11|304:128,1,140
256,192,112751,1,2,0:0:0:0:
256,192,112893,1,2,0:0:0:0:
256,288,113177,2,4,B|560:144|240:64,1,385
288,192,116447,5,0,0:0:0:0:
288,112,116732,1,2,0:0:0:0:
368,112,117016,1,2,0:0:0:0:
368,192,117301,1,0,0:0:0:0:
368,192,117443,1,0,0:0:0:0:
368,272,117727,2,0,B|256:272,1,105
224,192,118722,5,0,0:0:0:0:
224,112,119007,1,2,0:0:0:0:
144,112,119291,1,2,0:0:0:0:
144,192,119576,1,4,0:0:0:0:
144,192,119718,1,0,0:0:0:0:
144,272,120002,2,4,B|256:272,1,105
208,144,120997,5,0,0:0:0:0:
304,144,121282,1,6,0:0:0:0:
304,240,121567,1,4,0:0:0:0:
208,240,121851,1,0,0:0:0:0:
208,240,121993,1,0,0:0:0:0:
208,144,122278,1,0,0:0:0:0:
256,192,122846,12,0,124978,0:0:0:0:
256,224,125831,6,4,B|256:112|377:157|391:250|356:304|233:357|54:239|288:48,2,560
256,144,130950,1,0,0:0:0:0:
256,144,131092,1,0,0:0:0:0:
192,224,131519,2,4,B|352:224,5,140
256,192,134789,12,0,138343,0:0:0:0:
256,80,164221,5,0,0:0:0:0:
256,176,164505,1,4,0:0:0:0:
256,176,164647,1,4,0:0:0:0:
192,240,164932,2,6,B|255:314|320:224,2,140
96,192,166496,5,0,0:0:0:0:
96,192,166780,2,2,B|192:192,1,70
256,192,167349,1,0,0:0:0:0:
256,192,167491,1,0,0:0:0:0:
256,96,167775,2,2,B|176:96|176:176,1,105
208,272,168770,6,2,B|253:373|304:256,1,140
256,192,169624,1,0,0:0:0:0:
256,192,169766,1,0,0:0:0:0:
256,96,170050,2,6,B|560:240|240:320,1,385
288,272,173605,5,0,0:0:0:0:
368,272,173889,1,0,0:0:0:0:
368,192,174174,1,0,0:0:0:0:
368,192,174316,1,2,0:0:0:0:
368,112,174600,2,4,B|256:112,1,105
224,272,175880,5,0,0:0:0:0:
144,272,176164,1,0,0:0:0:0:
144,192,176449,1,0,0:0:0:0:
144,192,176590,1,2,0:0:0:0:
144,112,176875,2,4,B|256:112,1,105
144,240,182704,6,0,B|252:67|380:262,2,280
