osu file format v4

[General]
AudioFilename: Die Aerzte - Junge.mp3
AudioLeadIn: 0
AudioHash: 0332a9dd39320f4dcde897f1390c43f8
PreviewTime: -1
SampleSet: Normal

[Metadata]
Title:Junge
Artist:Die Aerzte
Creator:Fox
Version:Hard

[Difficulty]
HPDrainRate:7
CircleSize:3
OverallDifficulty:7
SliderMultiplier: 1.4
SliderTickRate: 1

[Events]
0,0,"End_of_Summer_in_Berlin_2004_1.jpg"
3,0,0,0,0

[TimingPoints]
4100,568.72857142857,4,1,0

[HitObjects]
144,288,11777,1,0,
144,192,12062,2,0,B|144:192|164:106|240:112,1,105
304,128,12915,1,0,
304,224,13199,1,4,
192,320,13768,2,0,B|192:320|336:320,2,140
320,320,15474,1,0,
256,128,17038,5,2,
208,240,17465,1,0,
304,240,17749,1,2,
256,192,18318,12,0,21446
256,112,22299,1,0,
256,112,22584,1,2,
256,256,23436,1,0,
256,256,23721,1,2,
208,128,25142,5,0,
304,128,25427,1,0,
304,224,25711,1,0,
208,224,25996,1,0,
208,224,26138,1,0,
256,112,26706,1,4,
256,112,26849,1,4,
240,272,27844,2,0,B|240:272|304:272,1,35
240,176,28981,2,2,B|240:176|304:176,1,35
352,64,30545,5,0,
352,160,30830,1,0,
352,256,31114,1,0,
256,256,31398,1,2,
160,256,31683,1,0,
160,256,31825,1,0,
160,160,32252,1,0,
160,64,32536,1,2,
256,64,32820,1,0,
256,64,32962,1,0,
256,160,33389,1,0,
256,256,33673,1,2,
368,256,33958,1,0,
368,256,34100,1,0,
368,160,34526,5,0,
368,64,34811,1,4,
272,64,35095,1,0,
272,64,35237,1,0,
224,144,35664,1,0,
176,224,35948,1,6,
240,304,36375,1,0,
320,192,37086,1,0,
240,128,37512,1,0,
240,256,38223,1,0,
320,192,38650,1,4,
128,192,39929,5,0,
208,192,40214,1,0,
288,192,40498,1,0,
368,192,40782,2,0,B|368:192|368:256,1,35
368,304,41209,2,2,B|368:304|320:304,1,35
256,304,41636,2,0,B|256:304|256:240,1,35
176,272,42062,2,2,B|176:272|176:240,1,35
256,224,42489,2,0,B|256:224|256:192,1,35
256,80,43057,1,2,
272,256,43626,5,0,
176,256,43910,1,0,
96,160,44337,1,0,
192,160,44764,1,0,
272,160,45048,1,0,
368,160,45475,1,0,
320,80,45901,1,0,
246,81,46185,1,4,
224,176,46612,5,0,
320,176,47039,1,0,
320,240,47323,1,0,
256,304,47749,1,0,
192,240,48176,1,0,
192,176,48460,1,4,
256,96,48887,1,6,
256,288,49598,6,0,B|256:288|256:192,1,70
224,64,50735,2,0,B|224:64|320:64,1,70
256,160,51873,2,4,B|256:160|256:256,1,70
128,224,52726,5,0,
192,272,53010,1,4,
192,272,53152,1,4,
256,320,53437,1,0,
320,272,53721,1,6,
368,224,54005,1,0,
256,224,54432,2,2,B|256:224|256:144,1,70
256,64,55285,5,0,
256,144,55569,1,4,
256,224,55854,1,2,
256,224,55996,1,2,
192,320,56280,1,0,
320,320,56707,1,4,
336,160,57276,5,0,
288,96,57560,1,4,
224,96,57844,1,4,
176,160,58129,1,0,
176,160,58318,1,0,
256,176,58555,2,4,B|256:176|256:304,1,105
176,288,60119,5,0,
256,288,60404,1,0,
336,288,60688,1,6,
336,288,60830,1,6,
297,189,61257,1,0,
217,189,61541,1,0,
257,114,61825,5,0,
336,112,62110,1,2,
416,112,62394,1,0,
416,192,62679,1,2,
416,192,62821,1,0,
416,272,63105,1,2,
336,272,63532,1,6,
192,272,64100,5,0,
256,208,64385,1,2,
320,272,64669,1,0,
384,208,64953,1,2,
384,208,65096,1,2,
320,128,65380,1,0,
256,192,65807,1,4,
256,320,66660,5,0,
192,272,66944,1,0,
128,224,67228,1,0,
128,224,67371,1,0,
128,144,67655,1,4,
240,144,68081,5,0,
224,256,68650,1,0,
336,256,69219,5,2,
336,176,69503,1,0,
336,96,69788,1,0,
336,96,69930,1,0,
256,128,70356,1,4,
256,208,70641,1,0,
192,176,70925,1,0,
112,176,71209,5,2,
112,256,71494,1,0,
176,304,71778,1,0,
176,304,71920,1,0,
256,304,72205,1,0,
352,304,72631,1,4,
352,208,73200,5,0,
352,128,73484,1,0,
352,128,73627,1,0,
272,80,73911,1,0,
272,160,74195,1,0,
192,112,74480,1,0,
112,112,74906,2,4,B|112:112|112:336,1,210
256,48,76897,5,0,
256,48,77181,1,0,
256,192,78034,1,2,
256,192,78319,1,2,
256,304,79456,6,0,B|256:304|464:96|416:32|336:16|256:96,1,420
224,80,81447,2,4,B|224:80|128:32|64:32|48:128|272:320,1,420
272,224,83437,5,0,
272,144,83721,2,0,B|272:144|272:16|416:16|416:192,1,280
384,256,85143,5,4,
304,256,85428,1,0,
224,256,85712,1,0,
256,176,85996,1,0,
336,176,86281,1,2,
336,176,86423,1,2,
288,96,86850,1,0,
240,304,88556,5,0,
272,240,88840,1,0,
240,176,89124,1,0,
272,112,89409,1,4,
272,112,89551,1,4,
352,112,89835,1,0,
352,208,90262,1,6,
352,208,90546,1,6,
352,208,90831,1,0,
176,208,91399,1,0,
176,208,91684,1,2,
176,208,91968,1,0,
256,96,92537,1,0,
256,96,92821,1,0,
224,272,93674,5,0,
304,272,93959,1,0,
256,176,94385,1,0,
256,80,94812,1,0,
176,96,95096,1,2,
144,176,95380,1,0,
176,256,95665,1,2,
256,272,95949,1,0,
336,256,96234,1,2,
368,176,96518,1,0,
368,176,96660,1,0,
368,96,96944,1,2,
368,96,97087,1,2,
192,176,97940,6,0,B|192:176|336:176,1,140
336,256,98935,1,0,
400,176,99362,1,0,
400,96,99646,1,2,
192,256,101352,5,0,
256,304,101636,1,0,
320,256,101921,1,0,
240,160,102347,1,0,
288,64,102774,1,0,
224,64,103058,1,0,
256,160,103627,1,4,
256,272,104196,5,0,
256,272,104480,1,0,
368,192,105333,1,0,
368,192,105618,1,0,
160,192,106471,1,0,
160,192,106755,1,0,
256,192,107324,12,0,109030
320,112,109883,2,2,B|320:112|256:48|176:128,1,140
192,160,110594,1,0,
208,256,110878,2,0,B|208:256|320:256,1,105
224,224,111874,2,4,B|224:224|320:224,2,70
256,160,112727,1,0,
256,160,112869,1,0,
256,80,113153,1,4,
384,144,113580,5,0,
256,144,114148,1,4,
128,144,114717,5,0,
112,224,115002,1,0,
176,272,115286,1,4,
176,272,115428,1,4,
272,224,115855,1,0,
336,288,116139,1,0,
400,224,116423,2,2,B|400:224|393:185|256:192,1,140
192,192,117276,1,0,
192,192,117419,1,0,
256,112,117703,2,4,B|256:112|352:160,1,105
400,64,118698,1,0,
400,144,118983,1,0,
400,224,119267,1,0,
400,304,119551,1,4,
400,304,119694,1,4,
320,304,119978,2,6,B|320:304|208:304,1,105
256,192,120973,1,0,
256,112,121258,1,0,
336,144,121542,1,0,
336,224,121826,1,0,
256,272,122111,1,2,
256,272,122253,2,4,B|256:272|112:272,2,140
256,192,123675,12,0,129220
128,192,130073,1,0,
192,144,130357,1,0,
256,192,130642,1,0,
320,144,130926,1,2,
320,144,131068,1,2,
384,208,131353,1,6,
256,272,131779,1,0,
256,160,132348,1,0,
256,80,132632,5,0,
336,80,132917,1,0,
336,160,133201,1,0,
336,240,133485,1,2,
336,240,133627,1,0,
192,240,134054,1,0,
240,176,134338,1,4,
192,112,134623,5,0,
272,112,134907,2,0,B|272:112|352:112,1,70
400,176,135476,1,0,
400,176,135618,1,0,
400,272,135902,2,0,B|400:272|288:272,1,105
256,144,136898,1,0,
256,64,137182,1,0,
176,128,137466,1,0,
176,128,137609,1,0,
176,224,138035,1,0,
176,304,138319,2,4,B|176:304|352:304,3,140
144,144,141163,6,4,B|144:144|252:-3|384:160,3,280
256,192,145144,1,4,
368,240,145713,6,2,B|368:240|260:387|128:224,3,280
256,192,149694,1,6,
176,80,150263,6,6,B|176:80|336:80,7,140
256,192,154813,12,0,161637
256,192,164197,1,0,
256,112,164481,1,0,
336,96,164765,1,0,
336,160,164979,1,0,
336,224,165192,1,0,
256,304,165476,2,4,B|256:304|256:176,1,105
192,112,166472,6,0,B|192:112|256:64|352:128,1,140
256,160,167325,1,0,
256,160,167467,1,0,
256,240,167751,1,0,
320,288,168178,1,4,
160,288,168746,5,0,
192,224,169031,1,0,
224,160,169315,1,0,
256,96,169600,1,2,
256,96,169742,1,2,
304,160,170026,2,0,B|304:160|317:216|358:234|416:192,2,140
224,64,171590,6,0,B|224:64|320:64,1,70
288,144,172159,1,2,
288,144,172301,1,2,
224,224,172728,1,0,
224,304,173012,2,0,B|224:304|320:304,1,70
400,304,173581,5,0,
384,224,173865,1,0,
368,144,174149,1,0,
352,64,174434,1,0,
352,64,174576,1,0,
256,64,175002,1,4,
112,64,175856,5,2,
128,144,176140,1,2,
144,224,176424,1,2,
160,304,176709,1,2,
160,304,176851,1,0,
256,304,177277,1,6,
256,192,177846,12,0,181543
256,192,182680,1,0,
256,96,183107,1,0,
256,96,183249,1,0,
160,96,183533,1,0,
176,192,183818,2,6,B|176:192|253:415|336:192,1,280
