osu file format v5

[General]
AudioFilename: Dido - White Flag .mp3
AudioLeadIn: 1500
PreviewTime: 45253
Countdown: 0
SampleSet: Soft
StackLeniency: 0.4
Mode: 0
LetterboxInBreaks: 1
EditorDistanceSpacing: 0.699999988079071

[Metadata]
Title:White Flag
Artist:Dido
Creator:Sir Minelli
Version:Normal
Source:
Tags:

[Difficulty]
HPDrainRate:5
CircleSize:5
OverallDifficulty:5
SliderMultiplier:1.4
SliderTickRate:1

[Events]
//Background and Video events
0,0,"white-flag.jpg"
//Break Periods
//Storyboard Layer 0 (Background)
//Storyboard Layer 1 (Fail)
//Storyboard Layer 2 (Pass)
//Storyboard Layer 3 (Foreground)
//Storyboard Sound Samples
//Background Colour Transformations
3,100,163,162,255

[TimingPoints]
430,705.882352941176,4,2,2,80,1,0
1488,-200,4,2,2,80,0,0
3606,-100,4,2,2,80,0,0
6694,-100,4,2,2,80,0,0
17371,-100,4,2,2,0,0,0
19488,-100,4,2,2,80,0,0
19841,-100,4,2,2,80,0,0
24253,-100,4,2,2,40,0,0
24606,-100,4,2,2,80,0,0
27077,-100,4,2,2,36,0,0
27429,-100,4,2,2,80,0,0
28488,-100,4,2,2,0,0,0
30782,-100,4,2,2,80,0,0
32900,-100,4,2,2,80,0,0
35547,-100,4,2,2,54,0,0
36253,-100,4,2,2,80,0,0
36606,-100,4,2,2,70,0,0
38018,-100,4,2,2,80,0,0
42606,-100,4,2,2,0,0,0
44900,-100,4,2,2,80,0,0
45253,-100,4,2,2,80,0,0
45606,-100,4,2,2,80,0,0
46929,-100,4,2,2,80,0,0
47018,-100,4,2,2,80,0,0
48341,-100,4,2,2,80,0,0
48429,-100,4,2,2,80,0,0
49047,-100,4,2,2,80,0,0
49135,-100,4,2,2,80,0,0
49753,-100,4,2,2,80,0,0
49841,-100,4,2,2,80,0,0
51165,-100,4,2,2,80,0,0
51253,-100,4,2,2,80,0,0
56106,-100,4,2,2,80,0,0
56194,-100,4,2,2,80,0,0
56812,-100,4,2,2,80,0,0
56900,-100,4,2,2,80,0,0
58224,-100,4,2,2,80,0,0
58312,-100,4,2,2,80,0,0
60341,-100,4,2,2,80,0,0
60429,-100,4,2,2,80,0,0
61753,-100,4,2,2,80,0,0
61841,-100,4,2,2,80,0,0
64488,-100,4,2,2,69,0,0
66429,-100,4,2,2,50,0,0
67841,-100,4,2,2,80,0,0
73841,-100,4,2,2,0,0,0
75959,-100,4,2,2,80,0,0
85135,-100,4,2,2,0,0,0
87253,-100,4,2,2,80,0,0
87606,-100,4,2,2,0,0,0
89900,-100,4,2,2,35,0,0
90871,-100,4,2,2,60,0,0
91135,-100,4,2,2,60,0,0
99077,-100,4,2,2,0,0,0
102077,-100,4,2,2,80,0,0
107018,-100,4,2,2,80,0,0
107547,-100,4,2,2,80,0,0
107724,-100,4,2,2,80,0,0
113194,-100,4,2,2,80,0,0
113371,-100,4,2,2,80,0,0
116724,-100,4,2,2,80,0,0
116900,-100,4,2,2,80,0,0
118047,-100,4,2,2,80,0,0
118312,-100,4,2,2,80,0,0
121135,-100,4,2,2,51,0,0
121224,-100,4,2,2,80,0,0
123253,-100,4,2,2,80,0,0
124488,-100,4,2,2,30,0,0
135606,-100,4,2,2,50,0,0
137724,-100,4,2,2,60,0,0
140635,-100,4,2,2,70,0,0
143371,-100,4,2,2,0,0,0
146547,-100,4,2,2,80,0,0
147253,-100,4,2,2,80,0,1
152724,-100,4,2,2,80,0,0
152900,-100,4,2,2,80,0,1
154841,-100,4,2,2,55,0,1
157312,-100,4,2,2,66,0,1
157665,-100,4,2,2,80,0,1
158371,-100,4,2,2,80,0,0
158547,-100,4,2,2,80,0,1
163312,-100,4,2,2,80,0,1
163841,-100,4,2,2,80,0,1
167194,-100,4,2,2,60,0,1
168253,-100,4,2,2,80,0,0
169841,-100,4,2,2,80,0,1
180958,-100,4,2,2,80,0,0
181135,-100,4,2,2,80,0,1
186605,-100,4,2,2,80,0,1
186782,-100,4,2,2,80,0,1
188635,-100,4,2,2,65,0,1
191899,-100,4,2,2,50,0,1
192076,-100,4,2,2,50,0,0
192429,-100,4,2,2,60,0,1
192517,-100,4,2,2,25,0,0
193664,-100,4,2,2,25,0,0
195340,-100,4,2,2,18,0,0
197018,-100,4,2,2,19,0,0
199929,-100,4,2,2,19,0,0
200723,-100,4,2,2,14,0,0
202224,-100,4,2,2,0,0,0
203371,-100,4,2,2,10,0,0
208399,-100,4,2,2,9,0,0
212017,-100,4,2,2,5,0,0
212899,-100,4,2,2,0,0,0

[Colours]
Combo1 : 128,128,255
Combo2 : 192,192,192
Combo3 : 255,255,255

[HitObjects]
256,50,430,1,0
256,144,1135,1,0
192,216,1841,2,0,B|224:248|256:248|288:248|320:216,1,140,0|0
292,49,4312,2,0,B|212:49,3,70,0|0|0|0
152,112,6077,5,0
96,192,6782,1,0
40,272,7488,2,0,B|72:304|96:328|120:312|162:260,1,140,0|0
248,272,8900,5,0
316,344,9606,2,0,B|176:344,1,140,0|0
256,192,11724,5,0
343,236,12429,1,8
427,187,13135,2,0,B|323:83,1,140,0|8
328,88,14194,5,0
278,88,14547,1,0
184,48,15253,1,8
96,88,15959,2,0,B|205:198,1,140,0|8
194,187,17018,1,0
256,192,17371,12,8,19488
326,140,20194,6,0,B|186:140,2,140,0|2|0
256,208,22312,5,8
256,208,22665,1,2
256,208,23018,2,0,B|285:284|372:271,1,140,0|8
465,272,24429,1,0
464,222,24782,1,0
464,172,25135,1,8
463,73,25841,6,0,B|376:63|356:140,1,140,0|8
349,236,27253,1,2
299,236,27606,2,0,B|228:236,2,70,0|8|0
256,192,28665,12,8,30782
256,194,31488,5,2
174,45,33253,6,0,B|82:45,2,70,0|2|0
224,48,34312,1,4
304,104,35018,1,4
360,184,35724,2,0,B|296:184|296:256|240:256,1,140,2|0
244,255,36782,2,0,B|194:256|194:184|130:184,1,140,2|0
130,183,37841,1,8
80,184,38194,2,0,B|24:248|88:320,1,140,0|0
128,312,39253,1,8
200,248,39959,1,0
296,248,40665,1,8
368,183,41371,2,0,B|318:184|318:112|254:112,1,140,0|8
254,112,42429,1,0
256,192,42606,12,4,44900
256,192,45959,5,0
256,240,46312,1,2
192,312,47018,2,0,B|224:344|256:344|288:344|320:312,3,140,0|2|0|4
296,216,49841,1,0
256,192,50194,1,0
216,168,50547,1,8
143,227,51253,6,0,B|104:224|64:224|24:192|8:160|24:128|64:96|104:96|153:96,1,280,0|2
240,96,53371,1,4
336,96,54077,2,0,B|400:96|400:168|456:168,1,140,0|2
448,96,55488,2,0,B|384:96|384:168|328:168,1,140,0|8
280,168,56547,1,2
232,168,56900,5,4
168,240,57606,1,2
232,312,58312,1,4
299,242,59018,2,2,B|296:272|320:288|344:288|368:288|392:272|392:240,1,140,2|0
344,152,60429,1,4
296,152,60782,2,0,B|248:152,4,35,0|2|0|2|0
344,152,61841,6,0,B|384:152|424:192|424:264|384:304|344:304,1,210,6|0
304,304,63253,1,8
232,232,63959,5,0
232,136,64665,1,8
148,184,65371,1,0
148,184,65724,2,0,B|288:184,1,140,2|2
64,56,68194,5,0
128,128,68900,1,8
224,128,69606,2,0,B|120:232,1,140,0|8
88,264,70665,1,0
56,296,71018,1,0
152,296,71724,1,8
248,296,72429,2,0,B|273:326|312:329|352:328|380:287,1,140,0|8
372,296,73488,1,0
256,192,73841,12,8,75959
256,192,76665,5,0
256,192,77371,1,2
256,192,78077,1,0
160,192,78782,6,0,B|72:192,1,70,8|0
40,192,79488,1,2
40,288,80194,1,8
40,192,80900,1,0
40,96,81606,1,8
136,96,82312,2,0,B|240:200,1,140,0|2
136,200,83724,2,0,B|234:299,1,140,0|8
235,299,84782,1,0
256,192,85135,12,8,87253
256,192,87959,6,0,B|208:192|184:168|184:136|200:104|240:104|272:104|296:136|320:160,2,210,0|0|8
256,192,90429,1,2
344,232,91135,5,0
376,272,91488,2,0,B|304:272,1,70,2|0
256,272,92194,1,2
208,272,92547,1,0
160,272,92900,1,2
112,272,93253,2,0,B|40:224|72:128,1,140,2|0
80,104,94312,1,2
112,64,94665,2,0,B|184:64|184:192,1,140,2|0
184,216,95724,5,8
184,312,96429,1,0
272,264,97135,1,8
184,216,97841,1,0
184,312,98547,1,8
256,192,99253,12,4,102077
256,240,102782,6,0,B|256:272|256:272|256:304|256:304|256:336|216:376,2,140,0|0|8
256,152,104900,2,0,B|256:120|256:120|256:88|256:88|256:56|296:16,2,140,0|2|8
160,152,107018,5,0
80,96,107724,2,0,B|24:168|96:224,1,140,0|8
223,216,109135,2,0,B|289:166|233:94,1,140,0|8
160,32,110547,2,0,B|160:184,1,140,0|2
160,272,111959,1,0
256,272,112665,6,0,B|328:272,1,70,2|2
376,272,113371,1,4
456,328,114077,2,0,B|392:384|318:321,1,140,0|4
272,248,115488,2,0,B|209:194|145:250,1,140,0|0
72,312,116900,1,8
72,216,117606,1,0
152,264,118312,2,0,B|296:264,3,140,8|0|2|0
336,264,120782,2,0,B|424:264,2,70,0|8|0
288,264,121841,2,0,B|240:264|200:224|200:168,2,140,0|0|0
384,264,123959,5,0
472,216,124665,2,0,B|520:168|520:88|456:24|352:24|264:160|184:32,1,420,4|0
120,16,127488,2,0,B|17:64|17:216|73:272|137:336|208:264|232:240,1,420,4|0
280,176,130312,2,0,B|344:112|408:64|488:144|512:192|440:328|320:280,1,420,4|2
282,272,132782,1,2
225,291,133135,2,0,B|125:333|53:197|77:149|157:69|221:117|285:181,1,420,0|4
336,256,135959,6,0,B|384:304|456:304|504:256|504:120,1,280,4|0
512,40,138077,2,0,B|480:0|456:-16|432:8|400:40,1,140,0|0
336,112,139488,1,2
272,184,140194,1,4
208,256,140900,2,0,B|176:297|152:313|128:289|96:257,2,140,0|0|4
272,184,143018,1,4
256,192,143371,12,0,146547
256,169,147253,5,4
256,169,147606,2,0,C|328:169,2,70,0|2|0
208,169,148665,2,0,B|136:169,2,70,0|0|2
256,169,149724,2,0,C|248:177|256:185|256:185|264:193|256:201|256:201|248:209|256:217|256:217|264:225|256:233|256:233|248:241|256:249|256:249|256:257|256:265,2,140,0|0|0
256,121,151488,1,2
216,33,152194,6,0,B|120:33|136:129,1,140,0|4
136,169,153253,1,0
136,217,153606,1,0
135,265,153959,2,0,B|121:352|217:352,1,140,0|0
263,351,155018,2,0,B|411:351,1,140,8|0
480,288,156429,2,0,B|336:288,1,140,2|0
288,288,157488,5,8
240,288,157841,1,2
240,288,158194,1,2
192,288,158547,1,4
120,224,159253,2,0,B|232:112,1,140,0|4
168,80,160312,1,0
120,124,160665,2,0,B|219:223,1,140,0|0
280,296,162077,2,0,B|227:342|211:342|158:292,1,140,0|2
223,219,163488,5,2
280,139,164194,2,0,B|232:91|211:93|158:143,1,140,0|2
108,221,165606,5,0
108,221,165959,2,0,B|253:221,1,140,2|0
297,222,167018,1,0
346,222,167371,2,0,B|428:222,2,70,2|0|0
256,105,169135,6,0,B|256:87,8,17.5,8|0|0|0|0|0|0|0|4
256,152,170194,5,0
256,200,170547,1,2
256,248,170900,1,0
256,296,171253,2,0,B|256:375,2,70,0|0|2
256,248,172312,1,0
256,200,172665,1,2
296,176,173018,1,0
256,144,173371,1,8
216,176,173724,1,0
256,200,174077,1,4
256,296,174782,5,0
352,296,175488,2,0,B|352:128,1,140,0|2
288,80,176900,2,0,B|288:248,1,140,0|8
224,296,178312,2,0,B|224:128,1,140,0|2
224,104,179371,1,0
224,56,179724,1,0
126,56,180429,6,0,B|58:124,1,70,8|2
44,142,181135,1,4
44,240,181841,2,0,B|28:339|159:310,1,140,0|4
176,312,182900,1,0
214,284,183253,1,0
254,252,183606,2,0,B|291:204|334:204|374:244|382:276,1,140,0|0
312,328,185018,1,0
312,328,185371,2,0,B|312:168,1,140,2|8
360,104,186782,6,0,B|424:104|424:216,2,140,0|2|0
312,104,188546,1,0
264,104,188899,1,8
176,152,189605,1,0
176,152,189959,2,0,B|131:170|107:194|107:226|123:258|163:258|195:258|216:256|248:256,1,210,2|0
272,256,191370,2,0,B|296:256|302:258|334:258|374:258|390:226|390:194|366:170|321:152,1,210,2|4
280,128,192782,5,0
232,112,193135,1,0
184,128,193488,1,0
144,160,193841,2,0,B|112:192|96:224|104:264|144:296|184:296|232:288|256:256|256:232|256:216|256:200,1,280
261,161,195605,1,0
296,40,197370,5,0
344,24,197723,1,0
392,40,198076,2,0,B|424:72|440:104|432:144|392:176|392:152|336:168|344:136|336:104|288:112|248:112,1,280
152,112,200193,1,0
56,112,200899,2,0,B|24:144|8:176|16:216|56:232|80:216|112:240|104:208|128:184|168:176|208:184,1,280
400,184,203723,5,0
344,264,204429,2,0,B|304:304|256:304|209:253,1,140
160,200,205665,1,0
224,200,206106,2,0,C|231:208|239:200|239:200|247:192|255:200|255:200|263:208|271:200|271:200|279:192|287:200|287:200|295:208|303:200|303:200|312:192|328:208,1,157.5
452,276,208664,6,0,B|452:88|340:-24|172:-24|60:88|60:282,1,700
256,274,213252,1,0
