osu file format v5

[General]
AudioFilename: Super_Gals_-_Aitsu.mp3
AudioLeadIn: 0
PreviewTime: -1
Countdown: 1
SampleSet: Normal
StackLeniency: 0.7
Mode: 0
EditorBookmarks: 27510,40758,56794,62720

[Metadata]
Title:Aitsu
Artist:Dicot
Creator:captain humphrey
Version:Hard
Source:
Tags:

[Difficulty]
HPDrainRate:5
CircleSize:5
OverallDifficulty:5
SliderMultiplier:1.1
SliderTickRate:2

[Events]
//Background and Video events
0,0,"gls041.jpg"
//Break Periods
2,27550,39906
2,56644,62223
//Storyboard Layer 0 (Background)
//Storyboard Layer 1 (Failing)
//Storyboard Layer 2 (Passing)
//Storyboard Layer 3 (Foreground)
//Storyboard Sound Samples
//Background Colour Transformations
3,100,163,162,255

[TimingPoints]
19144,348.613011152416,4,1,0,100

[HitObjects]
64,64,19143,1,0
128,64,19492,1,0
224,64,19950,1,0
256,64,20144,1,0
288,64,20310,1,0
352,64,20716,1,0
384,64,21057,1,6
352,128,21372,5,0
288,160,21584,1,0
288,160,21761,1,0
288,160,21932,1,0
288,160,22121,1,0
352,224,22418,5,0
384,288,22710,1,0
384,288,22978,1,6
307,306,23327,1,0
306,305,23675,1,0
306,306,24024,5,0
218,285,24373,2,0,B|94:216,1,110
170,130,25070,2,0,B|282:134,1,110
352,128,25790,2,0,B|384:160|384:192|352:224|320:256,2,110
352,128,26613,1,0
352,128,26779,1,0
322,64,27162,1,0
383,65,27350,1,2
64,160,41106,6,0,B|252:77|480:165,1,330
352,192,42501,1,0
288,192,42849,1,0
224,192,43198,1,0
160,192,43546,1,0
192,256,43895,2,2,B|320:320,4,110
192,224,46119,1,0
192,224,46294,1,0
192,224,46483,1,0
268,222,46684,2,2,B|364:158|364:30|204:30,1,220
178,46,48032,5,0
128,96,48362,1,0
192,128,48776,2,0,B|256:160|320:128|352:128,1,110
352,192,49473,1,0
288,224,49821,1,0
256,256,49952,1,0
192,192,50118,1,0
160,224,50306,1,0
122,268,50632,1,0
122,268,52163,6,0,B|64:128|96:32|192:32,1,220
240,31,53492,1,0
268,57,53655,1,2
215,105,53810,1,0
243,142,53963,1,2
189,171,54146,1,0
209,205,54359,1,2
266,242,54507,5,0
328,222,54675,1,0
364,173,54857,1,0
386,115,55022,1,0
434,165,55399,2,2,L|480:288,3,110
96,64,63423,5,2
160,64,63613,1,0
224,64,63792,1,2
288,64,63969,2,0,B|320:128|320:192|224:224,1,192.5
218,158,64806,2,2,B|174:158|142:190|186:254,1,110
242,245,65335,1,0
318,228,65683,1,0
385,177,65980,1,0
412,134,66206,6,2,B|333:65|204:61|203:63,1,220
136,84,67078,2,2,B|100:111|101:150|100:150,1,55
160,192,67497,2,0,B|224:160|288:192,2,110
148,270,68431,1,0
229,318,68821,1,2
315,317,68995,2,2,B|469:288|434:88|446:140,1,247.5
347,64,70371,5,0
263,53,71087,2,0,B|194:19|158:67|163:69,2,110
271,123,71958,2,0,B|214:166|156:122,1,110
316,72,74050,6,0,B|372:92|360:159,1,82.5
384,205,74509,1,2
345,239,74682,1,2
297,214,74846,1,2
288,128,75217,1,0
183,123,75532,1,0
112,163,75706,2,2,B|55:195|74:244|71:239,1,82.5
69,229,76142,5,0
155,286,76490,2,0,B|232:322|323:278,1,165
364,226,77188,1,0
375,150,77362,1,0
320,96,77536,1,0
256,64,77679,2,0,B|128:64|96:192,1,220
97,188,78518,5,2
97,188,78669,1,2
97,188,78843,2,2,B|128:256|224:256,1,137.5
271,206,79558,1,0
324,311,80133,6,2,B|388:311|388:247,1,82.5
390,205,80697,1,0
377,105,80969,1,0
358,81,81150,1,0
256,64,81504,1,0
256,64,81720,1,0
256,192,81894,12,0,83986
256,192,84283,6,0,B|288:224|320:192,1,55
352,160,84633,2,0,B|384:128|352:96,1,55
320,64,84962,2,0,B|288:32|247:60,1,55
211,64,85298,2,0,B|179:64|167:104,1,55
156,152,85641,2,0,B|136:184|169:226,1,55
189,256,85990,2,0,B|221:288|263:264,1,55
300,266,86309,2,0,B|331:262|362:227,1,55
