osu file format v14

[General]
AudioFilename: 123456.mp3
AudioLeadIn: 0
PreviewTime: 68042
Countdown: 0
SampleSet: Soft
StackLeniency: 0.7
Mode: 0
LetterboxInBreaks: 1
WidescreenStoryboard: 0

[Editor]
Bookmarks: 104042,105917,127792,180042,184042
DistanceSpacing: 1.6
BeatDivisor: 4
GridSize: 4
TimelineZoom: 1.9

[Metadata]
Title:Yume no Akuma
TitleUnicode:夢の惡魔
Artist:Diarays
ArtistUnicode:Diarays
Creator:Rizia
Version:o
Source:
Tags:vocaloid megurine luka ia lily mayu ルカ kawaiwkyik
BeatmapID:850636
BeatmapSetID:166217

[Difficulty]
HPDrainRate:5
CircleSize:4
OverallDifficulty:9
ApproachRate:9.2
SliderMultiplier:1.9
SliderTickRate:2

[Events]
//Background and Video events
0,0,"BG.png",0,0
Video,-120,"yau.flv"
//Break Periods
2,104238,105468
//Storyboard Layer 0 (Background)
//Storyboard Layer 1 (Fail)
//Storyboard Layer 2 (Pass)
//Storyboard Layer 3 (Foreground)
//Storyboard Sound Samples

[TimingPoints]
14038,250,4,2,1,70,1,0
15788,-133.333333333333,4,2,1,70,0,0
16038,-100,4,2,1,70,0,0
32038,-125,4,2,1,70,0,0
34038,-100,4,2,1,70,0,0
68038,-100,4,2,1,80,0,1
84038,-125,4,2,1,70,0,1
86038,-100,4,2,1,70,0,1
87788,-66.6666666666667,4,2,1,70,0,1
88038,-100,4,2,1,70,0,0
106038,-100,4,2,1,70,0,0
107788,-100,4,2,1,70,0,0
122038,-100,4,2,1,70,0,1
137288,-83.3333333333333,4,2,1,70,0,1
137538,-71.4285714285714,4,2,1,70,0,1
137788,-62.5,4,2,1,70,0,1
137975,-50,4,2,1,70,0,0
138038,-83.3333333333333,4,2,1,70,0,1
160038,-100,4,2,1,70,0,0
164038,-100,4,2,1,70,0,0
172038,-83.3333333333333,4,2,1,70,0,1
180038,-142.857142857143,4,2,1,70,0,0

[Colours]
Combo1 : 255,128,192
Combo2 : 255,255,128
Combo3 : 242,242,0
Combo4 : 255,255,255

[HitObjects]
56,156,14038,5,2,0:0:0:0:
56,156,14538,1,2,0:0:0:0:
56,156,15038,5,2,0:0:0:0:
132,172,15288,1,2,0:0:0:0:
204,188,15538,1,2,0:0:0:0:
280,204,15788,2,0,L|408:184,1,106.875004076958,8|0,1:3|0:0,0:0:0:0:
412,164,16038,6,0,P|452:184|440:324,1,190,4|8,0:0|0:0,0:0:0:0:
360,352,16413,1,0,0:0:0:0:
260,304,16538,2,0,L|166:318,1,95
264,108,16788,1,8,0:0:0:0:
110,173,16913,2,0,L|203:187,1,95
356,268,17163,1,0,0:0:0:0:
96,376,17288,6,0,P|80:336|84:276,1,95,8|0,0:0|0:0,0:0:0:0:
288,136,17538,1,0,0:0:0:0:
104,204,17663,1,0,0:0:0:0:
360,192,17788,2,0,P|376:152|372:92,1,95,8|0,0:0|0:0,0:0:0:0:
188,52,18038,6,0,B|144:80|92:60|44:40|-4:76,2,190,0|8|0,0:0|0:0|0:0,0:0:0:0:
374,100,18663,1,0,0:0:0:0:
216,176,18788,2,0,L|224:280,1,95,8|0,0:0|0:0,0:0:0:0:
384,316,19038,5,0,0:0:0:0:
384,316,19163,1,0,0:0:0:0:
348,220,19288,1,8,0:0:0:0:
280,356,19413,1,0,0:0:0:0:
140,320,19538,2,0,L|132:216,1,95
440,72,19788,2,0,L|448:176,1,95,8|0,0:0|0:0,0:0:0:0:
144,224,20038,6,0,B|124:176|140:140|140:140|128:120|128:120|136:84|112:28,1,190,0|8,0:0|0:0,0:0:0:0:
362,128,20413,2,0,B|343:170|351:206|351:206|339:226|339:226|355:262|335:310,1,190
48,176,20788,2,0,P|92:128|212:140,1,190,8|0,0:0|0:0,0:0:0:0:
284,244,21163,1,0,0:0:0:0:
180,324,21288,6,0,L|68:312,1,95,8|0,0:0|0:0,0:0:0:0:
304,240,21538,2,0,L|416:228,1,95
218,42,21788,2,0,L|206:154,1,95,8|0,0:0|0:0,0:0:0:0:
272,328,22038,5,4,0:0:0:0:
336,152,22163,1,8,0:0:0:0:
336,152,22288,1,8,0:0:0:0:
152,184,22413,1,0,0:0:0:0:
364,264,22538,5,8,0:0:0:0:
164,300,22663,1,8,0:0:0:0:
232,112,22788,1,0,0:0:0:0:
232,112,22913,1,8,0:0:0:0:
84,212,23038,6,0,P|63:255|72:314,1,95,4|0,0:0|0:0,0:0:0:0:
444,301,23288,2,0,P|447:254|428:212,1,95,12|0,0:0|0:0,0:0:0:0:
304,48,23538,5,8,0:0:0:0:
112,144,23663,1,8,0:0:0:0:
208,336,23788,1,8,0:0:0:0:
400,240,23913,1,8,0:0:0:0:
248,104,24038,6,0,L|60:128,2,190,4|8|0,0:0|0:0|0:0,0:0:0:0:
432,48,24663,2,0,P|408:112|392:168,1,95,0|8,0:0|0:0,0:0:0:0:
400,240,24913,1,0,0:0:0:0:
276,176,25038,5,0,0:0:0:0:
276,176,25163,1,0,0:0:0:0:
208,336,25288,2,0,P|197:289|184:244,1,95,8|0,0:0|0:0,0:0:0:0:
400,240,25538,2,0,P|365:272|332:306,1,95
220,96,25788,2,0,P|265:109|311:121,1,95,8|0,0:0|0:0,0:0:0:0:
64,212,26038,6,0,P|36:172|68:72,1,142.5
88,60,26288,2,0,L|208:72,1,95,8|0,0:0|0:0,0:0:0:0:
342,310,26538,1,0,0:0:0:0:
276,176,26663,1,0,0:0:0:0:
124,360,26788,2,0,L|136:240,1,95,8|0,0:0|0:0,0:0:0:0:
352,216,27038,6,0,L|340:336,1,95
200,132,27288,2,0,L|212:12,1,95,8|0,0:0|0:0,0:0:0:0:
236,252,27538,2,0,L|116:240,1,95
320,100,27788,2,0,L|440:112,1,95,8|0,0:0|0:0,0:0:0:0:
220,348,28038,6,0,B|124:360|124:360|36:300,1,190,0|8,0:0|0:0,0:0:0:0:
292,36,28413,2,0,B|388:24|388:24|476:84,1,190
396,248,28788,2,0,L|384:148,1,95,8|0,0:0|0:0,0:0:0:0:
136,100,29038,6,0,P|142:144|147:194,1,95
288,148,29288,1,8,0:0:0:0:
264,332,29413,2,0,P|266:286|275:237,1,95
64,240,29663,1,0,0:0:0:0:
96,368,29788,2,0,P|141:370|190:379,1,95,8|0,0:0|0:0,0:0:0:0:
396,248,30038,5,4,0:0:0:0:
204,184,30163,1,8,0:0:0:0:
204,184,30288,1,8,0:0:0:0:
352,64,30413,1,0,0:0:0:0:
288,244,30538,5,8,0:0:0:0:
208,72,30663,1,8,0:0:0:0:
388,132,30788,1,0,0:0:0:0:
336,316,30913,1,8,0:0:0:0:
128,100,31038,6,0,P|129:49|179:-13,1,95,4|0,0:0|0:0,0:0:0:0:
288,244,31288,2,0,L|156:268,1,95,8|0,0:0|0:0,0:0:0:0:
440,88,31538,5,0,1:0:0:0:
468,125,31600,1,0,1:0:0:0:
472,171,31663,1,0,1:0:0:0:
451,213,31725,1,0,1:0:0:0:
411,238,31788,1,0,1:0:0:0:
364,237,31850,1,0,1:0:0:0:
324,212,31913,1,0,1:0:0:0:
280,200,31975,1,0,1:0:0:0:
232,208,32038,6,0,P|216:248|220:292,1,76,4|0,0:0|0:0,0:0:0:0:
280,176,32288,2,0,P|296:136|292:92,1,76,8|0,0:0|0:0,0:0:0:0:
272,216,32538,2,0,P|312:232|356:228,1,76
240,168,32788,2,0,P|200:152|156:156,1,76,8|0,0:0|0:0,0:0:0:0:
132,308,33038,6,0,P|155:344|193:366,1,76
372,316,33288,2,0,P|408:292|430:254,1,76,8|0,0:0|0:0,0:0:0:0:
380,76,33538,2,0,P|356:39|318:17,1,76
140,68,33788,2,0,P|103:91|81:129,1,76,8|0,0:0|0:0,0:0:0:0:
152,212,34038,5,4,0:0:0:0:
336,176,34163,2,0,L|392:180,2,47.5,8|8|8,0:0|0:0|0:0,0:0:0:0:
132,308,34413,1,8,0:0:0:0:
372,316,34538,5,0,0:0:0:0:
224,280,34663,1,0,0:0:0:0:
336,176,34788,1,8,0:0:0:0:
168,72,34913,1,8,0:0:0:0:
58,228,35038,6,0,L|152:212,1,95,4|0,0:0|0:0,0:0:0:0:
304,84,35288,2,0,L|397:100,1,95,12|0,0:0|0:0,0:0:0:0:
500,220,35538,1,0,0:0:0:0:
372,316,35663,1,0,0:0:0:0:
296,172,35788,1,8,0:0:0:0:
372,316,35913,1,8,0:0:0:0:
256,380,36038,6,0,L|162:363,1,95,4|0,0:0|0:0,0:0:0:0:
58,228,36288,2,0,P|110:204|174:220,1,95,8|0,0:0|0:0,0:0:0:0:
240,256,36538,1,0,0:0:0:0:
296,172,36663,2,0,L|280:56,1,95,0|8,0:0|0:0,0:0:0:0:
196,44,36913,6,0,L|221:232,1,190
324,284,37288,1,8,0:0:0:0:
385,183,37413,1,0,0:0:0:0:
385,183,37538,2,0,B|341:163|341:163|277:175,1,95
58,228,37788,2,0,B|102:248|102:248|166:236,1,95,8|0,0:0|0:0,0:0:0:0:
272,348,38038,6,0,P|280:292|204:176,1,190,0|8,0:0|0:0,0:0:0:0:
68,144,38413,1,0,0:0:0:0:
124,284,38538,2,0,P|140:240|128:176,1,95
124,68,38788,1,8,0:0:0:0:
68,144,38913,6,0,P|124:160|220:60,1,190
392,148,39288,2,0,L|284:132,1,95,8|0,0:0|0:0,0:0:0:0:
240,216,39538,2,0,L|333:229,2,95,0|0|8,0:0|0:0|0:0,0:0:0:0:
240,216,39913,1,0,0:0:0:0:
296,336,40038,6,0,P|340:348|464:284,1,190,0|8,0:0|0:0,0:0:0:0:
240,216,40413,2,0,P|196:228|72:164,1,190
188,76,40788,1,8,0:0:0:0:
188,76,40913,1,0,0:0:0:0:
256,132,41038,6,0,P|273:77|266:32,1,95
121,19,41288,2,0,P|103:73|110:118,1,95,8|0,0:0|0:0,0:0:0:0:
240,216,41538,2,0,L|436:192,2,190,0|8|0,0:0|0:0|0:0,0:0:0:0:
80,356,42288,5,8,0:0:0:0:
80,356,42413,2,0,P|48:304|96:192,1,190
240,216,42788,2,0,P|200:240|144:232,1,95,8|0,0:0|0:0,0:0:0:0:
36,140,43038,6,0,P|76:116|132:124,1,95
240,216,43288,2,0,L|248:116,1,95,8|0,0:0|0:0,0:0:0:0:
130,24,43538,2,0,L|122:124,1,95
336,176,43788,2,0,L|344:76,1,95,8|0,0:0|0:0,0:0:0:0:
320,276,44038,6,0,P|360:276|432:152,1,190,4|8,0:0|0:0,0:0:0:0:
264,124,44413,1,0,0:0:0:0:
220,244,44538,2,0,L|232:352,2,95,0|0|8,0:0|0:0|0:0,0:0:0:0:
288,32,44913,6,0,P|248:32|176:156,1,190
240,256,45288,1,8,0:0:0:0:
336,176,45413,2,0,L|436:156,1,95
264,124,45663,2,0,L|164:144,1,95,0|8,0:0|0:0,0:0:0:0:
320,276,45913,1,0,0:0:0:0:
432,184,46038,6,0,P|448:132|440:60,1,95
264,124,46288,2,0,P|249:79|248:31,1,95,8|0,0:0|0:0,0:0:0:0:
240,256,46538,1,0,0:0:0:0:
132,192,46663,1,0,0:0:0:0:
264,124,46788,1,8,0:0:0:0:
144,292,46913,6,0,P|132:240|88:104,1,190
90,109,47288,1,8,0:0:0:0:
28,236,47413,1,0,0:0:0:0:
144,292,47538,2,0,P|200:280|264:272,1,95
356,304,47788,2,0,P|344:248|336:184,1,95,8|0,0:0|0:0,0:0:0:0:
296,56,48038,6,0,P|244:52|200:172,1,190,0|8,0:0|0:0,0:0:0:0:
256,224,48413,1,0,0:0:0:0:
360,136,48538,5,0,0:0:0:0:
424,220,48663,1,0,0:0:0:0:
144,292,48788,1,8,0:0:0:0:
157,187,48913,1,0,0:0:0:0:
356,304,49038,6,0,P|276:312|228:320,1,95
161,234,49288,2,0,P|241:226|289:218,1,95,8|0,0:0|0:0,0:0:0:0:
424,220,49538,6,0,P|376:216|329:209,1,95
60,116,49788,2,0,P|107:112|154:105,1,95,8|0,0:0|0:0,0:0:0:0:
398,49,50038,6,0,P|377:91|359:135,1,95
182,378,50288,2,0,P|163:334|143:291,1,95,8|0,0:0|0:0,0:0:0:0:
114,49,50538,2,0,P|134:91|152:135,1,95
330,378,50788,2,0,P|348:334|368:291,1,95,8|0,0:0|0:0,0:0:0:0:
288,96,51038,5,0,0:0:0:0:
160,160,51163,1,0,0:0:0:0:
224,288,51288,1,8,0:0:0:0:
352,224,51413,1,0,0:0:0:0:
210,101,51538,5,4,0:0:0:0:
165,237,51663,1,0,0:0:0:0:
301,282,51788,1,8,0:0:0:0:
346,146,51913,1,0,0:0:0:0:
160,160,52038,6,0,L|60:172,2,95,4|0|8,0:0|0:0|0:0,0:0:0:0:
256,192,52413,1,0,0:0:0:0:
136,344,52538,1,0,0:0:0:0:
0,260,52663,2,0,L|94:248,1,95,0|8,0:0|0:0,0:0:0:0:
264,348,52913,6,0,P|312:356|420:272,1,190
356,56,53288,2,0,P|339:100|346:146,1,95,8|0,0:0|0:0,0:0:0:0:
512,120,53538,2,0,L|417:108,1,95
244,216,53788,2,0,L|338:227,1,95,8|0,0:0|0:0,0:0:0:0:
168,144,54038,5,0,0:0:0:0:
104,236,54163,1,0,0:0:0:0:
136,344,54288,1,8,0:0:0:0:
248,368,54413,2,0,P|292:368|344:328,1,95
384,224,54663,1,0,0:0:0:0:
192,60,54788,2,0,P|148:60|96:100,1,95,8|0,0:0|0:0,0:0:0:0:
104,236,55038,5,0,0:0:0:0:
308,148,55163,1,0,0:0:0:0:
248,368,55288,2,0,L|208:276,1,95,8|0,0:0|0:0,0:0:0:0:
335,57,55538,2,0,L|303:161,1,95
80,181,55788,2,0,L|172:141,1,95,8|0,0:0|0:0,0:0:0:0:
464,292,56038,6,0,P|404:256|260:252,1,190,4|8,0:0|0:0,0:0:0:0:
192,292,56413,1,0,0:0:0:0:
180,100,56538,2,0,P|196:156|200:212,1,95
288,352,56788,1,8,0:0:0:0:
192,292,56913,6,0,P|228:256|360:268,1,190
484,184,57288,2,0,L|376:164,1,95,8|0,0:0|0:0,0:0:0:0:
316,52,57538,2,0,L|296:160,1,95
192,292,57788,2,0,L|212:184,1,95,8|0,0:0|0:0,0:0:0:0:
100,88,58038,5,0,0:0:0:0:
8,156,58163,1,0,0:0:0:0:
112,208,58288,1,8,0:0:0:0:
172,80,58413,5,0,0:0:0:0:
80,148,58538,1,0,0:0:0:0:
184,200,58663,1,0,0:0:0:0:
236,76,58788,5,8,0:0:0:0:
144,144,58913,1,0,0:0:0:0:
248,196,59038,6,0,P|292:176|364:184,1,95
408,296,59288,2,0,L|300:276,1,95,8|0,0:0|0:0,0:0:0:0:
412,112,59538,2,0,P|436:160|416:232,1,95
232,348,59788,2,0,P|208:300|228:228,1,95,12|0,0:0|0:0,0:0:0:0:
323,45,60038,6,0,P|282:68|236:76,1,95,4|0,0:0|0:0,0:0:0:0:
56,113,60288,2,0,P|97:136|143:143,1,95,8|0,0:0|0:0,0:0:0:0:
332,236,60538,1,0,0:0:0:0:
144,364,60663,2,0,L|128:260,1,95,0|8,0:0|0:0,0:0:0:0:
248,60,60913,6,0,L|219:247,1,190
32,204,61288,2,0,P|88:196|136:180,1,95,8|0,0:0|0:0,0:0:0:0:
424,216,61538,2,0,P|368:224|320:240,1,95
144,364,61788,2,0,P|136:308|120:260,1,95,8|0,0:0|0:0,0:0:0:0:
248,60,62038,6,0,P|256:116|272:164,1,95,8|0,0:0|0:0,0:0:0:0:
326,310,62288,1,8,0:0:0:0:
350,322,62350,1,8,0:0:0:0:
378,326,62413,1,8,0:0:0:0:
406,322,62475,1,8,0:0:0:0:
430,310,62538,2,0,L|422:198,1,95
320,64,62788,1,8,0:0:0:0:
312,92,62850,1,8,0:0:0:0:
304,120,62913,1,8,0:0:0:0:
296,148,62975,1,8,0:0:0:0:
288,176,63038,6,0,L|188:156,1,95,4|0,0:1|0:0,0:0:0:0:
60,204,63288,1,8,0:0:0:0:
60,204,63350,1,8,0:0:0:0:
60,204,63413,1,8,0:0:0:0:
160,308,63538,2,0,L|260:328,1,95,4|0,0:0|0:0,0:0:0:0:
372,248,63788,1,8,0:0:0:0:
372,248,63850,1,8,0:0:0:0:
372,248,63913,1,8,0:0:0:0:
456,64,64038,6,0,P|444:112|440:172,1,95,4|0,0:0|0:0,0:0:0:0:
328,112,64288,1,8,0:0:0:0:
344,280,64413,1,0,0:0:0:0:
232,140,64538,1,8,0:0:0:0:
248,308,64663,1,0,0:0:0:0:
132,128,64788,1,8,0:0:0:0:
148,296,64913,1,0,0:0:0:0:
44,96,65038,6,0,P|28:152|20:204,1,95,8|0,0:0|0:0,0:0:0:0:
80,340,65288,1,8,0:0:0:0:
204,236,65413,1,0,0:0:0:0:
340,320,65538,1,8,0:0:0:0:
376,332,65600,1,8,0:0:0:0:
416,332,65663,1,8,0:0:0:0:
452,316,65725,1,8,0:0:0:0:
476,284,65788,1,8,0:0:0:0:
480,248,65850,1,8,0:0:0:0:
468,212,65913,1,8,0:0:0:0:
448,180,65975,1,8,0:0:0:0:
436,144,66038,6,0,P|448:88|464:40,1,95,12|0,0:0|0:0,0:0:0:0:
336,216,66288,2,0,P|322:170|312:124,1,95,8|0,0:0|0:0,0:0:0:0:
168,88,66538,1,8,0:0:0:0:
104,336,66663,1,8,0:0:0:0:
392,240,66788,1,0,0:0:0:0:
168,0,66913,6,0,P|108:24|112:156,1,190,4|0,0:0|0:0,0:0:0:0:
176,276,67288,2,0,L|276:256,1,95,8|0,0:0|0:0,0:0:0:0:
352,48,67538,6,0,L|364:108,1,47.5,8|8,0:0|0:0,0:0:0:0:
336,216,67663,2,0,L|324:156,1,47.5,8|8,0:0|0:0,0:0:0:0:
240,116,67788,2,0,L|286:106,1,47.5,8|8,0:0|0:0,0:0:0:0:
448,156,67913,2,0,L|401:165,1,47.5,8|8,0:0|0:0,0:0:0:0:
376,320,68038,6,0,P|328:308|276:328,1,95,4|0,0:0|0:0,0:0:0:0:
176,372,68288,2,0,P|126:375|78:346,1,95,8|0,0:0|0:0,0:0:0:0:
96,148,68538,1,0,0:0:0:0:
148,288,68663,1,0,0:0:0:0:
208,92,68788,1,8,0:0:0:0:
268,300,68913,6,0,P|320:324|432:248,1,190
326,140,69288,2,0,P|320:187|336:232,1,95,8|0,0:0|0:0,0:0:0:0:
500,188,69538,2,0,L|404:176,1,95
152,204,69788,2,0,L|248:216,1,95,8|0,0:0|0:0,0:0:0:0:
464,88,70038,6,0,L|262:62,1,190,0|8,0:0|0:0,0:0:0:0:
132,120,70413,1,0,0:0:0:0:
246,215,70538,5,0,0:0:0:0:
104,272,70663,1,0,0:0:0:0:
228,128,70788,1,8,0:0:0:0:
48,56,70913,2,0,P|28:104|40:164,1,95
184,328,71163,1,0,0:0:0:0:
312,272,71288,6,0,P|332:224|320:164,1,95,8|0,0:0|0:0,0:0:0:0:
158,69,71538,2,0,P|189:110|247:129,1,95
412,40,71788,2,0,P|360:46|314:87,1,95,8|0,0:0|0:0,0:0:0:0:
246,215,72038,6,0,P|194:203|146:199,1,95
24,236,72288,2,0,P|36:184|40:136,1,95,8|0,0:0|0:0,0:0:0:0:
158,69,72538,1,0,0:0:0:0:
184,328,72663,1,0,0:0:0:0:
354,69,72788,1,8,0:0:0:0:
328,328,72913,6,0,P|293:371|180:308,1,190
344,232,73288,2,0,L|444:240,1,95,8|0,0:0|0:0,0:0:0:0:
168,232,73538,2,0,L|68:240,1,95
308,136,73788,2,0,L|408:144,1,95,8|0,0:0|0:0,0:0:0:0:
204,136,74038,5,4,0:0:0:0:
52,124,74163,1,8,0:0:0:0:
148,4,74288,1,8,0:0:0:0:
232,140,74413,1,0,0:0:0:0:
168,232,74538,5,8,0:0:0:0:
28,104,74663,1,8,0:0:0:0:
208,48,74788,1,0,0:0:0:0:
204,328,74913,2,0,P|164:352|108:348,2,95,0|4|0,0:0|0:0|0:0,0:0:0:0:
144,272,75288,6,0,L|124:368,1,95,8|0,0:0|0:0,0:0:0:0:
391,301,75538,2,0,L|372:208,1,95,12|0,0:0|0:0,0:0:0:0:
80,112,75788,2,0,L|60:208,1,95,8|0,0:0|0:0,0:0:0:0:
464,272,76038,6,0,P|484:216|468:160,1,95,4|0,0:0|0:0,0:0:0:0:
322,46,76288,2,0,P|302:102|318:158,1,95,8|0,0:0|0:0,0:0:0:0:
372,208,76538,1,0,0:0:0:0:
504,104,76663,2,0,L|408:88,1,95,0|8,0:0|0:0,0:0:0:0:
188,208,76913,6,0,L|284:224,1,95
252,116,77163,1,0,0:0:0:0:
220,312,77288,2,0,L|124:296,1,95,8|0,0:0|0:0,0:0:0:0:
300,276,77538,2,0,P|308:332|288:372,1,95
112,248,77788,2,0,P|104:192|124:152,1,95,8|0,0:0|0:0,0:0:0:0:
238,30,78038,6,0,P|319:69|319:160,1,190,0|8,0:0|0:0,0:0:0:0:
188,208,78413,1,0,0:0:0:0:
300,276,78538,2,0,L|400:264,1,95
272,184,78788,1,8,0:0:0:0:
220,312,78913,1,0,0:0:0:0:
352,352,79038,6,0,L|452:340,1,95
136,304,79288,2,0,L|36:292,1,95,8|0,0:0|0:0,0:0:0:0:
360,176,79538,2,0,L|460:164,1,95
112,100,79788,2,0,L|12:88,1,95,8|0,0:0|0:0,0:0:0:0:
307,0,80038,6,0,P|291:60|271:192,1,190,0|8,0:0|0:0,0:0:0:0:
340,280,80413,1,0,0:0:0:0:
356,152,80538,2,0,P|368:92|380:48,1,95
176,160,80788,2,0,P|187:206|196:252,1,95,8|0,0:0|0:0,0:0:0:0:
340,280,81038,5,0,0:0:0:0:
340,280,81163,1,0,0:0:0:0:
256,348,81288,2,0,P|216:364|152:356,1,95,8|0,0:0|0:0,0:0:0:0:
120,80,81538,2,0,P|160:64|224:72,1,95
260,360,81788,2,0,P|220:376|156:368,1,95,8|0,0:0|0:0,0:0:0:0:
44,212,82038,5,4,0:0:0:0:
176,160,82163,1,8,0:0:0:0:
152,300,82288,1,8,0:0:0:0:
80,144,82413,5,0,0:0:0:0:
238,81,82538,1,8,0:0:0:0:
209,249,82663,1,8,0:0:0:0:
80,144,82788,1,0,0:0:0:0:
304,4,82913,6,0,P|352:52|324:180,1,190,8|0,0:0|0:0,0:0:0:0:
209,249,83288,1,8,0:0:0:0:
338,165,83413,1,0,0:0:0:0:
424,288,83538,1,8,0:0:0:0:
388,272,83600,1,8,0:0:0:0:
348,268,83663,1,8,0:0:0:0:
312,280,83725,1,8,0:0:0:0:
284,308,83788,1,8,0:0:0:0:
252,332,83850,1,8,0:0:0:0:
216,340,83913,1,8,0:0:0:0:
180,336,83975,1,8,0:0:0:0:
144,320,84038,6,0,P|120:264|120:236,1,76,6|0,0:0|0:0,0:0:0:0:
89,159,84288,2,0,P|125:110|149:96,1,76,8|0,0:0|0:0,0:0:0:0:
201,31,84538,2,0,P|261:38|285:52,1,76,2|0,0:0|0:0,0:0:0:0:
368,64,84788,2,0,P|392:120|392:148,1,76,8|0,0:0|0:0,0:0:0:0:
280,232,85038,6,0,P|256:176|256:148,1,76,2|0,0:0|0:0,0:0:0:0:
376,48,85288,2,0,P|400:104|400:132,1,76,8|0,0:0|0:0,0:0:0:0:
272,248,85538,2,0,L|184:240,1,76,2|0,0:0|0:0,0:0:0:0:
89,159,85788,2,0,L|177:151,1,76,8|0,0:0|0:0,0:0:0:0:
468,296,86038,5,4,0:0:0:0:
284,384,86163,1,8,0:0:0:0:
348,264,86288,5,0,0:0:0:0:
164,352,86413,1,8,0:0:0:0:
328,152,86538,5,0,0:0:0:0:
176,269,86663,2,0,L|192:176,1,95,0|8,0:0|0:0,0:0:0:0:
208,76,86913,1,8,0:0:0:0:
112,112,87038,5,0,0:0:0:0:
288,140,87163,1,0,0:0:0:0:
392,236,87288,5,8,0:0:0:0:
216,264,87413,1,0,0:0:0:0:
208,76,87538,5,8,0:0:0:0:
384,48,87663,1,8,0:0:0:0:
412,328,87788,6,0,L|340:316,1,71.2500027179719,8|0,0:0|0:0,0:0:0:0:
288,140,87913,2,0,L|360:152,1,71.2500027179719,8|0,0:0|0:0,0:0:0:0:
428,348,88038,6,0,L|240:316,1,190,4|8,0:0|0:0,0:0:0:0:
120,292,88413,1,0,0:0:0:0:
196,172,88538,1,0,0:0:0:0:
240,316,88663,1,0,0:0:0:0:
24,272,88788,1,8,0:0:0:0:
100,108,88913,6,0,L|288:140,1,190
384,48,89288,2,0,P|428:100|400:220,1,190,8|0,0:0|0:0,0:0:0:0:
240,232,89663,1,0,0:0:0:0:
344,140,89788,1,8,0:0:0:0:
372,324,89913,1,0,0:0:0:0:
184,330,90038,6,0,P|132:342|20:262,1,190,0|8,0:0|0:0,0:0:0:0:
100,108,90413,1,0,0:0:0:0:
124,244,90538,2,0,P|168:228|228:232,2,95,0|0|8,0:0|0:0|0:0,0:0:0:0:
276,312,90913,6,0,P|312:256|260:136,1,190
100,108,91288,2,0,P|112:180|128:228,1,95,8|0,0:0|0:0,0:0:0:0:
276,312,91538,5,0,0:0:0:0:
328,128,91663,1,0,0:0:0:0:
288,336,91788,1,8,0:0:0:0:
196,176,91913,1,0,0:0:0:0:
300,360,92038,6,0,B|376:348|376:348|424:356|424:356|496:344,1,190,0|8,0:0|0:0,0:0:0:0:
416,224,92413,1,0,0:0:0:0:
184,268,92538,5,0,0:0:0:0:
376,348,92663,1,0,0:0:0:0:
116,212,92788,1,8,0:0:0:0:
412,100,92913,1,0,0:0:0:0:
212,8,93038,6,0,P|224:72|240:212,1,190,0|8,0:0|0:0,0:0:0:0:
64,316,93413,1,0,0:0:0:0:
36,216,93538,1,0,0:0:0:0:
104,136,93663,1,0,0:0:0:0:
204,160,93788,1,8,0:0:0:0:
232,260,93913,1,0,0:0:0:0:
164,340,94038,6,0,L|60:320,1,95
304,184,94288,2,0,L|408:204,1,95,8|0,0:0|0:0,0:0:0:0:
129,233,94538,2,0,L|25:213,1,95
269,77,94788,2,0,L|373:97,1,95,8|0,0:0|0:0,0:0:0:0:
488,288,95038,6,0,B|460:304|460:304|432:288|432:288|380:332|292:308,1,190,0|8,0:0|0:0,0:0:0:0:
232,260,95413,1,0,0:0:0:0:
348,36,95538,1,8,0:0:0:0:
376,31,95600,1,8,0:0:0:0:
404,35,95663,1,8,0:0:0:0:
429,47,95725,1,8,0:0:0:0:
450,67,95788,1,8,0:0:0:0:
464,92,95850,1,8,0:0:0:0:
469,119,95913,1,8,0:0:0:0:
466,148,95975,1,8,0:0:0:0:
455,174,96038,6,0,L|320:156,1,95,4|2,0:0|0:1,0:0:0:0:
56,209,96288,2,0,L|192:228,1,95,8|2,0:0|0:1,0:0:0:0:
284,336,96538,1,0,0:0:0:0:
236,56,96663,2,0,L|217:191,1,95,2|8,0:1|0:0,0:0:0:0:
368,364,96913,6,0,P|420:376|504:264,1,190,4|0,0:0|0:0,0:0:0:0:
300,232,97288,1,8,0:0:0:0:
168,296,97413,1,2,0:1:0:0:
420,284,97538,1,0,0:0:0:0:
312,140,97663,2,0,B|300:96|300:96|320:28,1,95,2|8,0:1|0:0,0:0:0:0:
508,195,97913,2,0,B|520:239|520:239|500:307,1,95,2|4,0:1|0:0,0:0:0:0:
300,232,98163,5,2,0:1:0:0:
264,348,98288,2,0,L|156:332,1,95,8|2,0:0|0:1,0:0:0:0:
384,196,98538,2,0,L|492:212,1,95,0|2,0:0|0:1,0:0:0:0:
224,176,98788,1,8,0:0:0:0:
180,80,98913,6,0,P|132:128|152:264,1,190,4|0,0:0|0:0,0:0:0:0:
300,232,99288,1,8,0:0:0:0:
348,80,99413,1,2,0:1:0:0:
192,36,99538,1,0,0:0:0:0:
64,132,99663,5,2,0:1:0:0:
196,384,99788,1,8,0:0:0:0:
448,252,99913,1,2,0:1:0:0:
316,0,100038,6,0,P|252:-8|180:88,1,190,4|8,0:0|0:0,0:0:0:0:
300,232,100413,1,0,0:0:0:0:
388,188,100538,2,0,L|376:88,2,95,0|0|8,0:0|0:0|0:0,0:0:0:0:
204,212,100913,6,0,L|215:306,1,95
316,344,101163,1,0,0:0:0:0:
300,232,101288,1,8,0:0:0:0:
144,328,101413,1,0,0:0:0:0:
144,328,101475,1,0,0:0:0:0:
144,328,101538,1,0,0:0:0:0:
112,200,101663,1,0,0:0:0:0:
204,104,101788,2,0,L|316:120,1,95,8|0,0:0|0:0,0:0:0:0:
452,248,102038,6,0,P|472:204|464:152,1,95,12|0,0:0|0:0,0:0:0:0:
128,48,102288,2,0,P|108:92|116:144,1,95,8|0,0:0|0:0,0:0:0:0:
400,340,102538,5,8,0:0:0:0:
288,48,102663,1,8,0:0:0:0:
72,272,102788,1,0,0:0:0:0:
296,152,102913,5,0,0:0:0:0:
296,152,102975,1,0,0:0:0:0:
296,152,103038,2,0,P|252:136|200:144,1,95,8|0,0:0|0:0,0:0:0:0:
132,160,103225,1,0,0:0:0:0:
92,224,103288,2,0,P|45:229|1:213,1,95,8|0,0:0|0:0,0:0:0:0:
376,96,103538,5,0,1:0:0:0:
400,136,103600,1,0,1:0:0:0:
404,184,103663,1,0,1:0:0:0:
384,228,103725,1,0,1:0:0:0:
344,252,103788,1,0,1:0:0:0:
324,296,103850,1,0,1:0:0:0:
332,344,103913,1,0,1:0:0:0:
372,368,103975,1,0,1:0:0:0:
420,360,104038,1,4,0:0:0:0:
168,96,106038,5,2,0:0:0:0:
256,192,106288,1,0,0:0:0:0:
383,163,106538,5,2,0:0:0:0:
256,192,106788,1,0,0:0:0:0:
216,316,107038,5,2,0:0:0:0:
256,192,107288,1,0,0:0:0:0:
256,192,107788,1,8,0:0:0:0:
256,192,107850,1,8,0:0:0:0:
256,192,107913,1,8,0:0:0:0:
256,192,107975,1,8,0:0:0:0:
256,192,108038,6,0,L|152:208,1,95,4|0,0:0|0:0,0:0:0:0:
96,100,108288,2,0,L|200:84,1,95,8|0,0:0|0:0,0:0:0:0:
310,301,108538,1,0,0:0:0:0:
310,301,108663,2,0,L|206:317,1,95,0|8,0:0|0:0,0:0:0:0:
79,260,108913,6,0,P|47:208|95:100,1,190
189,85,109288,2,0,P|188:136|161:173,1,95,8|0,0:0|0:0,0:0:0:0:
328,236,109538,2,0,P|291:271|245:278,1,95
96,344,109788,2,0,P|45:343|8:316,1,95,8|0,0:0|0:0,0:0:0:0:
163,170,110038,6,0,L|360:192,1,190,0|8,0:0|0:0,0:0:0:0:
496,316,110413,2,0,P|440:336|328:272,1,190
352,84,110788,1,8,0:0:0:0:
441,138,110913,6,0,L|428:232,1,95
248,348,111163,1,0,0:0:0:0:
149,263,111288,2,0,L|162:169,1,95,8|0,0:0|0:0,0:0:0:0:
363,121,111538,2,0,L|349:214,1,95
100,100,111788,2,0,P|146:75|205:89,1,95,12|0,0:0|0:0,0:0:0:0:
412,284,112038,6,0,P|365:308|306:294,1,95,4|0,0:0|0:0,0:0:0:0:
126,354,112288,2,0,P|138:294|154:250,1,95,8|0,0:0|0:0,0:0:0:0:
236,124,112538,1,0,0:0:0:0:
236,124,112663,2,0,P|250:169|258:215,1,95,0|8,0:0|0:0,0:0:0:0:
0,216,112913,6,0,P|45:201|91:193,1,95
72,92,113163,1,0,0:0:0:0:
0,168,113288,2,0,P|45:182|91:190,1,95,8|0,0:0|0:0,0:0:0:0:
327,101,113538,2,0,P|280:109|235:123,1,95
192,336,113788,2,0,P|208:291|218:244,1,95,8|0,0:0|0:0,0:0:0:0:
180,24,114038,6,0,P|163:68|153:115,1,95,12|0,0:0|0:0,0:0:0:0:
184,224,114288,1,8,0:0:0:0:
304,200,114413,1,0,0:0:0:0:
304,200,114475,1,0,0:0:0:0:
304,200,114538,1,0,0:0:0:0:
384,296,114663,1,8,0:0:0:0:
480,220,114788,1,8,0:0:0:0:
476,192,114850,1,8,0:0:0:0:
472,164,114913,1,8,0:0:0:0:
468,136,114975,1,8,0:0:0:0:
464,108,115038,6,0,L|360:124,1,95
292,48,115288,1,8,0:0:0:0:
292,48,115350,1,8,0:0:0:0:
292,48,115413,2,0,L|188:64,1,95,8|0,0:0|0:0,0:0:0:0:
76,80,115663,1,0,0:0:0:0:
152,176,115788,1,8,0:0:0:0:
152,176,115850,1,8,0:0:0:0:
152,176,115913,1,8,0:0:0:0:
52,248,116038,6,0,P|64:308|68:356,1,95,4|0,0:0|0:0,0:0:0:0:
152,176,116288,1,8,0:0:0:0:
184,296,116413,1,0,0:0:0:0:
264,160,116538,1,8,0:0:0:0:
296,308,116663,1,0,0:0:0:0:
368,140,116788,1,8,0:0:0:0:
404,324,116913,1,0,0:0:0:0:
476,120,117038,6,0,P|484:176|488:228,1,95,8|0,0:0|0:0,0:0:0:0:
368,140,117288,2,0,P|361:196|351:247,1,95,8|0,0:0|0:0,0:0:0:0:
236,356,117538,1,8,0:0:0:0:
204,372,117600,1,8,0:0:0:0:
164,372,117663,1,8,0:0:0:0:
132,352,117725,1,8,0:0:0:0:
112,320,117788,1,8,0:0:0:0:
108,284,117850,1,8,0:0:0:0:
120,248,117913,1,8,0:0:0:0:
152,228,117975,1,8,0:0:0:0:
192,224,118038,6,0,L|312:244,1,95,4|0,0:0|0:0,0:0:0:0:
497,308,118288,2,0,L|403:323,1,95,8|0,0:0|0:0,0:0:0:0:
268,124,118538,1,8,0:0:0:0:
436,36,118663,1,8,0:0:0:0:
424,220,118788,1,0,0:0:0:0:
268,124,118913,6,0,P|216:104|152:108,1,95,12|0,0:0|0:0,0:0:0:0:
24,216,119163,1,8,0:0:0:0:
24,216,119225,1,8,0:0:0:0:
24,216,119288,1,8,0:0:0:0:
104,320,119413,1,0,0:0:0:0:
228,268,119538,5,8,0:0:0:0:
256,264,119600,1,8,0:0:0:0:
284,260,119663,1,8,0:0:0:0:
312,256,119725,1,8,0:0:0:0:
336,268,119788,1,8,0:0:0:0:
364,264,119850,1,8,0:0:0:0:
392,260,119913,1,8,0:0:0:0:
420,256,119975,1,8,0:0:0:0:
444,272,120038,5,4,0:0:0:0:
256,192,120100,12,2,120913,0:0:0:0:
136,128,122038,6,0,L|152:256,1,95,4|0,0:0|0:0,0:0:0:0:
288,160,122288,2,0,L|304:288,1,95,8|0,0:0|0:0,0:0:0:0:
412,300,122538,1,0,0:0:0:0:
424,80,122663,2,0,L|440:208,1,95,0|8,0:0|0:0,0:0:0:0:
196,132,122913,6,0,P|220:92|356:96,1,190
412,300,123288,2,0,L|312:288,1,95,8|0,0:0|0:0,0:0:0:0:
100,336,123538,2,0,L|200:324,1,95
444,212,123788,2,0,L|344:200,1,95,8|0,0:0|0:0,0:0:0:0:
104,200,124038,6,0,P|80:156|92:16,2,190,0|8|0,0:0|0:0|0:0,0:0:0:0:
264,228,124663,1,0,0:0:0:0:
200,132,124788,1,8,0:0:0:0:
168,292,124913,1,0,0:0:0:0:
328,320,125038,6,0,P|372:304|432:316,1,95
465,119,125288,2,0,L|441:223,1,95,8|0,0:0|0:0,0:0:0:0:
292,104,125538,2,0,L|268:208,1,95
120,88,125788,2,0,L|96:192,1,95,8|0,0:0|0:0,0:0:0:0:
36,296,126038,6,0,P|84:312|148:296,1,95
180,24,126288,2,0,P|132:8|68:24,1,95,8|0,0:0|0:0,0:0:0:0:
244,200,126538,1,0,0:0:0:0:
364,160,126663,2,0,L|380:44,1,95,0|8,0:0|0:0,0:0:0:0:
244,200,126913,2,0,L|231:294,1,95
344,360,127163,1,0,0:0:0:0:
416,264,127288,6,0,P|376:244|308:248,1,95,8|0,0:0|0:0,0:0:0:0:
56,308,127538,2,0,P|96:328|164:324,1,95
280,115,127788,2,0,P|253:150|245:218,1,95,8|0,0:0|0:0,0:0:0:0:
352,360,128038,5,4,0:0:0:0:
456,192,128163,1,8,0:0:0:0:
352,24,128288,1,8,0:0:0:0:
160,24,128413,1,0,0:0:0:0:
56,192,128538,1,12,0:0:0:0:
160,360,128663,1,8,0:0:0:0:
352,360,128788,1,0,0:0:0:0:
256,192,128913,6,0,P|200:176|96:276,1,190,8|0,0:0|0:0,0:0:0:0:
258,342,129288,2,0,L|386:366,1,95,8|0,0:0|0:0,0:0:0:0:
445,6,129538,2,0,L|351:23,1,95,12|0,0:0|0:0,0:0:0:0:
228,240,129788,2,0,L|356:264,1,95,8|0,0:0|0:0,0:0:0:0:
504,88,130038,6,0,L|410:105,1,95,4|0,0:0|0:0,0:0:0:0:
184,164,130288,2,0,L|90:146,1,95,8|0,0:0|0:0,0:0:0:0:
276,96,130538,1,0,0:0:0:0:
324,280,130663,1,0,0:0:0:0:
142,330,130788,1,8,0:0:0:0:
90,146,130913,2,0,P|82:98|102:50,1,95
276,96,131163,1,0,0:0:0:0:
400,240,131288,6,0,P|408:288|388:336,1,95,8|0,0:0|0:0,0:0:0:0:
176,254,131538,2,0,P|168:206|188:158,1,95
360,56,131788,2,0,P|368:104|348:152,1,95,8|0,0:0|0:0,0:0:0:0:
144,80,132038,6,0,P|80:64|8:168,1,190,0|8,0:0|0:0,0:0:0:0:
142,330,132413,1,0,0:0:0:0:
268,212,132538,2,0,L|168:224,1,95
90,146,132788,1,8,0:0:0:0:
344,328,132913,2,0,L|244:340,1,95
376,200,133163,5,0,0:0:0:0:
188,168,133288,1,8,0:0:0:0:
344,128,133413,5,0,0:0:0:0:
136,220,133538,1,0,0:0:0:0:
412,276,133663,5,0,0:0:0:0:
116,144,133788,2,0,P|112:96|148:40,1,95,8|0,0:0|0:0,0:0:0:0:
264,304,134038,6,0,B|196:296|196:296|152:316|152:316|76:304,1,190,0|8,0:0|0:0,0:0:0:0:
92,76,134413,1,0,0:0:0:0:
136,220,134538,1,0,0:0:0:0:
240,104,134663,1,0,0:0:0:0:
48,172,134788,1,8,0:0:0:0:
256,224,134913,2,0,L|356:208,1,95
468,188,135163,1,0,0:0:0:0:
392,56,135288,6,0,L|298:71,1,95,8|0,0:0|0:0,0:0:0:0:
72,304,135538,2,0,L|165:319,1,95
452,148,135788,2,0,L|358:163,1,95,8|0,0:0|0:0,0:0:0:0:
88,220,136038,5,4,0:0:0:0:
364,308,136163,1,8,0:0:0:0:
364,308,136288,1,8,0:0:0:0:
320,80,136413,1,0,0:0:0:0:
256,344,136538,5,12,0:0:0:0:
192,80,136663,1,8,0:0:0:0:
424,220,136788,1,0,0:0:0:0:
72,304,136913,6,0,P|40:260|68:124,1,190,8|0,0:0|0:0,0:0:0:0:
364,308,137288,2,0,L|250:321,1,113.999996520996,8|0,0:0|0:0,0:0:0:0:
116,172,137538,6,0,L|182:163,1,66.4999979705811,8|8,0:0|0:0,0:0:0:0:
396,212,137663,2,0,L|329:220,1,66.4999979705811,8|8,0:0|0:0,0:0:0:0:
276,52,137788,6,0,L|284:128,1,76,8|8,0:0|0:0,0:0:0:0:
236,332,137913,2,0,L|228:256,1,76,8|8,0:0|0:0,0:0:0:0:
192,80,138038,6,0,L|52:100,1,113.999996520996,4|0,0:0|0:0,0:0:0:0:
312,160,138288,2,0,L|452:140,1,113.999996520996,8|0,0:0|0:0,0:0:0:0:
176,220,138538,1,0,0:0:0:0:
296,48,138663,1,0,0:0:0:0:
336,248,138788,1,8,0:0:0:0:
120,284,138913,2,0,P|92:230|117:161,1,113.999996520996
192,80,139163,1,0,0:0:0:0:
312,160,139288,5,8,0:0:0:0:
176,220,139413,1,0,0:0:0:0:
116,104,139538,2,0,P|120:48|160:8,1,113.999996520996
412,224,139788,2,0,P|408:280|368:320,1,113.999996520996,8|0,0:0|0:0,0:0:0:0:
168,368,140038,6,0,L|44:352,1,113.999996520996
248,188,140288,1,8,0:0:0:0:
352,352,140413,1,0,0:0:0:0:
436,200,140538,2,0,P|432:136|420:64,1,113.999996520996
184,16,140788,1,8,0:0:0:0:
36,156,140913,6,0,P|60:208|216:192,1,227.999993041992
147,41,141288,2,0,P|123:92|132:148,1,113.999996520996,8|0,0:0|0:0,0:0:0:0:
380,147,141538,2,0,P|388:92|364:41,1,113.999996520996
131,236,141788,2,0,P|123:291|147:342,1,113.999996520996,8|0,0:0|0:0,0:0:0:0:
364,342,142038,6,0,P|388:291|380:236,1,113.999996520996
244,133,142288,2,0,L|112:149,1,113.999996520996,8|0,0:0|0:0,0:0:0:0:
44,260,142538,1,0,0:0:0:0:
256,364,142663,1,0,0:0:0:0:
468,260,142788,1,8,0:0:0:0:
320,204,142913,2,0,P|296:152|420:76,1,227.999993041992
500,248,143288,6,0,L|356:272,1,113.999996520996,8|0,0:0|0:0,0:0:0:0:
132,72,143538,2,0,L|276:48,1,113.999996520996
256,364,143788,2,0,L|112:388,1,113.999996520996,8|0,0:0|0:0,0:0:0:0:
44,260,144038,5,4,0:0:0:0:
132,72,144163,1,8,0:0:0:0:
132,72,144288,1,8,0:0:0:0:
380,72,144413,5,0,0:0:0:0:
468,260,144538,1,12,0:0:0:0:
468,260,144663,1,8,0:0:0:0:
256,364,144788,5,0,0:0:0:0:
165,173,144913,2,0,P|255:113|347:170,1,227.999993041992,8|0,0:0|0:0,0:0:0:0:
156,328,145288,2,0,P|88:324|36:300,1,113.999996520996,8|0,0:0|0:0,0:0:0:0:
256,32,145538,1,8,0:0:0:0:
428,180,145663,1,8,0:0:0:0:
428,180,145725,1,8,0:0:0:0:
428,180,145788,1,8,0:0:0:0:
208,236,145913,1,8,0:0:0:0:
410,67,146038,6,0,L|430:199,1,113.999996520996,4|0,0:0|0:0,0:0:0:0:
304,356,146288,2,0,L|284:224,1,113.999996520996,8|0,0:0|0:0,0:0:0:0:
56,268,146538,1,0,0:0:0:0:
116,64,146663,2,0,L|136:196,1,113.999996520996,0|8,0:0|0:0,0:0:0:0:
286,243,146913,6,0,P|330:259|430:123,1,227.999993041992
204,184,147288,2,0,P|186:246|205:308,1,113.999996520996,8|0,0:0|0:0,0:0:0:0:
344,160,147538,2,0,P|361:106|351:50,1,113.999996520996
116,320,147788,2,0,P|161:366|224:381,1,113.999996520996,8|0,0:0|0:0,0:0:0:0:
499,249,148038,6,0,B|451:213|451:213|271:245,1,227.999993041992,0|8,0:0|0:0,0:0:0:0:
116,124,148413,1,0,0:0:0:0:
280,284,148538,1,0,0:0:0:0:
272,152,148663,1,0,0:0:0:0:
56,232,148788,1,8,0:0:0:0:
216,368,148913,2,0,P|272:376|336:348,1,113.999996520996
344,160,149163,1,0,0:0:0:0:
139,12,149288,6,0,L|115:128,1,113.999996520996,8|0,0:0|0:0,0:0:0:0:
460,240,149538,2,0,L|436:128,1,113.999996520996
208,88,149788,2,0,L|184:204,1,113.999996520996,8|0,0:0|0:0,0:0:0:0:
388,312,150038,6,0,L|364:200,1,113.999996520996
120,260,150288,2,0,L|232:284,1,113.999996520996,8|0,0:0|0:0,0:0:0:0:
440,160,150538,1,0,0:0:0:0:
300,44,150663,1,0,0:0:0:0:
132,116,150788,1,8,0:0:0:0:
52,60,150913,6,0,P|32:120|164:212,1,227.999993041992
356,136,151288,2,0,P|364:80|320:16,1,113.999996520996,8|0,0:0|0:0,0:0:0:0:
156,248,151538,2,0,P|148:304|192:368,1,113.999996520996
448,304,151788,2,0,L|328:284,1,113.999996520996,8|0,0:0|0:0,0:0:0:0:
91,152,152038,5,4,0:0:0:0:
295,27,152163,1,8,0:0:0:0:
420,231,152288,1,8,0:0:0:0:
216,356,152413,1,0,0:0:0:0:
168,48,152538,5,12,0:0:0:0:
400,104,152663,1,8,0:0:0:0:
344,336,152788,1,0,0:0:0:0:
112,280,152913,1,8,0:0:0:0:
228,108,153038,5,0,0:0:0:0:
336,16,153163,1,0,0:0:0:0:
468,60,153288,2,0,P|484:92|492:176,1,113.999996520996,8|0,0:0|0:0,0:0:0:0:
256,360,153538,1,8,0:0:0:0:
217,371,153600,1,8,0:0:0:0:
178,370,153663,1,8,0:0:0:0:
140,357,153725,1,8,0:0:0:0:
108,333,153788,1,8,0:0:0:0:
85,301,153850,1,8,0:0:0:0:
73,263,153913,1,8,0:0:0:0:
72,223,153975,1,8,0:0:0:0:
84,185,154038,6,0,L|208:204,1,113.999996520996,4|0,0:0|0:0,0:0:0:0:
352,104,154288,2,0,L|228:85,1,113.999996520996,8|0,0:0|0:0,0:0:0:0:
196,324,154538,2,0,L|319:342,1,113.999996520996,8|0,0:0|0:0,0:0:0:0:
463,242,154788,2,0,L|339:223,1,113.999996520996,8|0,0:0|0:0,0:0:0:0:
101,72,155038,6,0,L|77:224,1,113.999996520996,8|0,0:0|0:0,0:0:0:0:
213,211,155288,2,0,L|189:363,1,113.999996520996,8|0,0:0|0:0,0:0:0:0:
352,104,155538,2,0,L|328:256,1,113.999996520996,8|0,0:0|0:0,0:0:0:0:
464,243,155788,2,0,L|440:395,1,113.999996520996,8|0,0:0|0:0,0:0:0:0:
112,248,156038,5,4,0:0:0:0:
334,216,156163,1,8,0:0:0:0:
136,64,156288,5,0,0:0:0:0:
195,323,156413,1,8,0:0:0:0:
376,64,156538,5,0,0:0:0:0:
317,323,156663,1,0,0:0:0:0:
72,152,156788,1,8,0:0:0:0:
440,152,156913,1,8,0:0:0:0:
256,368,157038,5,0,0:0:0:0:
256,336,157100,1,0,0:0:0:0:
256,300,157163,1,0,0:0:0:0:
256,268,157225,1,0,0:0:0:0:
256,232,157288,2,0,L|256:116,1,113.999996520996,8|0,0:0|0:0,0:0:0:0:
440,16,157538,1,8,0:3:0:0:
440,48,157600,1,8,0:3:0:0:
440,84,157663,1,8,0:3:0:0:
440,116,157725,1,8,0:3:0:0:
440,152,157788,2,0,L|440:268,1,113.999996520996,8|8,0:0|0:0,0:0:0:0:
440,352,157975,1,8,0:0:0:0:
440,352,158038,6,0,P|376:368|312:360,1,113.999996520996,12|0,0:0|0:0,0:0:0:0:
145,219,158288,2,0,P|199:234|256:231,1,113.999996520996,8|0,0:0|0:0,0:0:0:0:
360,44,158538,2,0,P|362:100|347:155,1,113.999996520996,8|0,0:0|0:0,0:0:0:0:
64,276,158788,2,0,P|48:221|51:164,1,113.999996520996,8|0,0:0|0:0,0:0:0:0:
376,340,159038,5,8,0:0:0:0:
136,340,159163,1,0,0:0:0:0:
376,240,159288,1,8,0:0:0:0:
136,240,159413,1,0,0:0:0:0:
376,140,159538,1,8,0:0:0:0:
136,140,159663,1,0,0:0:0:0:
376,40,159788,1,8,0:0:0:0:
136,40,159913,1,0,0:0:0:0:
256,200,160038,5,12,0:0:0:0:
376,140,160163,1,0,0:0:0:0:
376,140,160225,1,0,0:0:0:0:
376,140,160288,1,8,0:0:0:0:
376,340,160413,1,8,0:0:0:0:
376,340,160475,1,0,0:0:0:0:
376,340,160538,2,0,L|260:324,1,95,4|8,0:0|0:0,0:0:0:0:
172,276,160788,5,8,0:0:0:0:
60,328,160913,1,8,0:0:0:0:
76,204,161038,1,8,0:0:0:0:
72,176,161100,1,8,0:0:0:0:
68,148,161163,1,8,0:0:0:0:
216,140,161288,1,0,0:0:0:0:
220,112,161351,1,0,0:0:0:0:
224,84,161413,1,8,0:0:0:0:
228,56,161475,1,8,0:0:0:0:
232,28,161538,1,8,0:0:0:0:
372,36,162038,6,0,P|348:112|304:136,1,95,4|0,0:0|0:0,0:0:0:0:
440,254,162288,2,0,P|360:254|324:220,1,95,8|0,0:0|0:0,0:0:0:0:
253,386,162538,2,0,P|228:310|250:265,1,95,4|0,0:0|0:0,0:0:0:0:
70,250,162788,2,0,P|134:202|184:209,1,95,8|0,0:0|0:0,0:0:0:0:
143,33,163038,6,0,P|208:79|217:129,1,95,12|0,0:0|0:0,0:0:0:0:
128,380,163288,2,0,L|144:264,1,95,8|0,0:0|0:0,0:0:0:0:
368,33,163538,5,0,1:0:0:0:
394,53,163600,1,0,1:0:0:0:
417,78,163663,1,0,1:0:0:0:
434,106,163725,1,0,1:0:0:0:
446,137,163788,1,0,1:0:0:0:
453,169,163850,1,0,1:0:0:0:
454,203,163913,1,0,1:0:0:0:
449,235,163975,1,0,1:0:0:0:
436,268,164038,6,0,L|313:276,1,95,4|0,0:0|0:0,0:0:0:0:
252,204,164288,1,8,0:0:0:0:
220,312,164413,1,0,0:0:0:0:
316,76,164538,1,0,0:0:0:0:
348,184,164663,1,0,0:0:0:0:
136,228,164788,1,8,0:0:0:0:
167,119,164913,1,0,0:0:0:0:
442,173,165038,6,0,L|338:185,1,95
24,328,165288,2,0,L|128:340,1,95,8|0,0:0|0:0,0:0:0:0:
178,25,165538,2,0,L|166:129,1,95
334,359,165788,2,0,L|346:255,1,95,8|0,0:0|0:0,0:0:0:0:
224,184,166038,6,0,L|16:208,1,190,0|8,0:0|0:0,0:0:0:0:
84,304,166413,1,0,0:0:0:0:
132,96,166538,1,0,0:0:0:0:
35,205,166663,1,0,0:0:0:0:
192,292,166788,1,8,0:0:0:0:
324,168,166913,6,0,P|368:152|496:228,1,190
384,344,167288,2,0,L|392:244,1,95,8|0,0:0|0:0,0:0:0:0:
216,89,167538,2,0,L|223:183,1,95
448,120,167788,1,8,0:0:0:0:
448,120,167913,1,0,0:0:0:0:
472,320,168038,6,0,P|424:356|276:360,1,190,0|8,0:0|0:0,0:0:0:0:
40,64,168413,2,0,P|88:28|236:24,1,190
136,352,168788,2,0,P|112:304|124:244,1,95,8|0,0:0|0:0,0:0:0:0:
376,32,169038,6,0,P|400:80|388:140,1,95
176,176,169288,2,0,L|72:160,1,95,8|0,0:0|0:0,0:0:0:0:
336,208,169538,2,0,L|440:224,1,95
232,316,169788,1,8,0:0:0:0:
232,316,169913,1,0,0:0:0:0:
108,124,170038,5,4,0:0:0:0:
324,44,170163,1,8,0:0:0:0:
404,260,170288,1,8,0:0:0:0:
188,340,170413,1,0,0:0:0:0:
199,39,170538,5,12,0:0:0:0:
408,135,170663,1,8,0:0:0:0:
312,344,170788,1,0,0:0:0:0:
103,248,170913,1,8,0:0:0:0:
424,52,171038,6,0,P|444:104|436:168,1,95,4|0,0:0|0:0,0:0:0:0:
68,142,171288,2,0,P|69:95|88:52,1,95,12|0,0:0|0:0,0:0:0:0:
432,248,171538,1,8,0:0:0:0:
416,280,171600,1,8,0:0:0:0:
395,312,171663,1,8,0:0:0:0:
368,338,171725,1,8,0:0:0:0:
337,360,171788,1,8,0:0:0:0:
303,375,171850,1,8,0:0:0:0:
267,382,171913,1,8,0:0:0:0:
228,384,171975,1,8,0:0:0:0:
193,376,172038,6,0,P|140:368|52:344,1,113.999996520996,4|0,0:0|0:0,0:0:0:0:
318,7,172288,2,0,P|372:16|460:40,1,113.999996520996,8|0,0:0|0:0,0:0:0:0:
103,248,172538,2,0,P|92:195|85:104,1,113.999996520996
409,136,172788,2,0,P|419:188|426:279,1,113.999996520996,8|0,0:0|0:0,0:0:0:0:
192,108,173038,5,0,0:0:0:0:
340,128,173163,1,0,0:0:0:0:
320,276,173288,1,8,0:0:0:0:
172,256,173413,1,0,0:0:0:0:
116,144,173538,2,0,P|112:84|148:32,1,113.999996520996
396,240,173788,2,0,P|400:300|364:352,1,113.999996520996,8|0,0:0|0:0,0:0:0:0:
192,108,174038,5,0,0:0:0:0:
320,276,174163,1,0,0:0:0:0:
103,248,174288,2,0,L|119:372,1,113.999996520996,8|0,0:0|0:0,0:0:0:0:
410,126,174538,2,0,L|394:250,1,113.999996520996
101,30,174788,2,0,L|117:154,1,113.999996520996,8|0,0:0|0:0,0:0:0:0:
336,316,175038,6,0,P|384:336|488:220,1,227.999993041992,0|8,0:0|0:0,0:0:0:0:
256,200,175413,1,0,0:0:0:0:
176,316,175538,2,0,P|128:336|24:220,1,227.999993041992,0|8,0:0|0:0,0:0:0:0:
204,120,175913,1,0,0:0:0:0:
352,268,176038,6,0,B|376:228|372:188|372:188|392:148|392:148|372:100|408:40,1,227.999993041992,0|8,0:0|0:0,0:0:0:0:
110,52,176413,2,0,B|140:100|120:148|120:148|140:188|140:188|136:228|160:268,1,227.999993041992
302,345,176788,1,8,0:0:0:0:
457,255,176913,1,0,0:0:0:0:
299,172,177038,1,0,0:0:0:0:
208,345,177163,5,0,0:0:0:0:
53,255,177288,1,8,0:0:0:0:
211,172,177413,1,0,0:0:0:0:
350,266,177538,5,0,0:0:0:0:
160,266,177663,1,0,0:0:0:0:
256,104,177788,1,8,0:0:0:0:
256,357,177913,1,0,0:0:0:0:
64,168,178038,6,0,L|76:60,1,56.9999982604981,8|0,0:0|0:0,0:0:0:0:
172,144,178163,2,0,L|184:36,1,56.9999982604981
207,347,178288,6,0,L|214:291,1,56.9999982604981,8|0,0:0|0:0,0:0:0:0:
315,323,178413,2,0,L|322:267,1,56.9999982604981
52,256,178538,6,0,L|140:268,1,56.9999982604981,8|0,0:0|0:0,0:0:0:0:
212,172,178663,2,0,L|300:184,1,56.9999982604981,8|0,0:0|0:0,0:0:0:0:
8,124,178788,6,0,L|96:136,1,56.9999982604981,8|0,0:0|0:0,0:0:0:0:
168,40,178913,2,0,L|256:52,1,56.9999982604981,8|0,0:0|0:0,0:0:0:0:
344,48,179038,6,0,L|496:148,1,170.999994781494,12|0,0:0|0:0,0:0:0:0:
240,272,179288,2,0,L|250:90,1,170.999994781494,8|0,0:0|0:0,0:0:0:0:
440,304,179538,6,0,L|358:344,1,56.9999982604981,8|8,0:0|0:0,0:0:0:0:
176,344,179663,2,0,L|226:369,1,56.9999982604981,8|8,0:0|0:0,0:0:0:0:
432,204,179788,2,0,L|350:244,1,56.9999982604981,8|8,0:0|0:0,0:0:0:0:
168,244,179913,2,0,L|218:269,1,56.9999982604981,8|8,0:0|0:0,0:0:0:0:
360,160,180038,6,0,P|320:156|288:140,1,67.5000025749208,4|0,0:0|0:0,0:0:0:0:
208,7,180288,2,0,P|241:10|272:23,1,67.5000025749208,10|0,0:0|0:0,0:0:0:0:
207,155,180538,2,0,P|210:122|223:91,1,67.5000025749208
360,12,180788,2,0,P|356:52|340:84,1,67.5000025749208,10|0,0:0|0:0,0:0:0:0:
256,284,181038,6,0,P|289:281|320:268,1,67.5000025749208,0|0,0:0|0:0,0:0:0:0:
368,196,181288,1,10,0:0:0:0:
368,196,181413,1,0,0:0:0:0:
480,348,181538,2,0,L|400:332,1,67.5000025749208,0|0,0:0|0:0,0:0:0:0:
368,196,181788,1,10,0:0:0:0:
368,196,181913,1,0,0:0:0:0:
496,76,182038,6,0,L|480:156,1,67.5000025749208,4|0,0:0|0:0,0:0:0:0:
336,36,182288,2,0,L|362:113,1,67.5000025749208,8|0,0:0|0:0,0:0:0:0:
160,76,182538,2,0,L|221:129,1,67.5000025749208
46,195,182788,2,0,L|126:211,1,67.5000025749208,8|0,0:0|0:0,0:0:0:0:
56,308,183038,5,12,0:0:0:0:
188,280,183163,1,0,0:0:0:0:
308,340,183288,1,8,0:0:0:0:
308,340,183350,1,8,0:0:0:0:
308,340,183413,1,8,0:0:0:0:
404,220,183538,5,8,0:0:0:0:
240,204,183663,1,8,0:0:0:0:
404,316,183788,1,0,0:0:0:0:
328,164,183913,1,0,0:0:0:0:
220,300,184038,5,2,0:0:0:0:
