osu file format v14

[General]
AudioFilename: Vocal - Subbed.mp3
AudioLeadIn: 0
PreviewTime: 81325
Countdown: 1
SampleSet: Soft
StackLeniency: 0.7
Mode: 0
LetterboxInBreaks: 1
WidescreenStoryboard: 0

[Editor]
DistanceSpacing: 0.6
BeatDivisor: 3
GridSize: 4
TimelineZoom: 3.699998

[Metadata]
Title:Genki ni Natta Toki no Uta
TitleUnicode:げんきになったときのうた
Artist:Diao Ye Zong ft. Meramipop
ArtistUnicode:凋叶棕 ft. めらみぽっぷ
Creator:EscapeReality
Version:Kira-kira-kiiiira-rin~
Source:東方Project
Tags:touhou
BeatmapID:1009215
BeatmapSetID:472265

[Difficulty]
HPDrainRate:0
CircleSize:3.8
OverallDifficulty:8.3
ApproachRate:9.3
SliderMultiplier:1.5
SliderTickRate:1

[Events]
//Background and Video events
0,0,"marisa.jpg",0,0
//Break Periods
//Storyboard Layer 0 (Background)
//Storyboard Layer 1 (Fail)
//Storyboard Layer 2 (Pass)
//Storyboard Layer 3 (Foreground)
//Storyboard Sound Samples

[TimingPoints]
-739,387.096774193548,4,2,0,25,1,0
809,-133.333333333333,4,2,0,25,0,0
7002,-117.647058823529,4,2,0,25,0,0
7583,-105.263157894737,4,2,0,25,0,0
8164,-95.2380952380952,4,2,0,25,0,0
8551,-86.9565217391304,4,2,0,25,0,0
13196,-133.333333333333,4,2,0,10,0,0
15906,-100,4,2,0,10,0,0
17454,-80,4,2,0,10,0,0
19002,-66.6666666666667,4,2,0,10,0,0
19390,-50,4,2,0,10,0,0
19841,-133.333333333333,4,2,0,10,0,0
20744,-133.333333333333,4,2,0,20,0,0
21325,-100,4,2,0,20,0,0
31583,-166.666666666667,4,2,0,20,0,0
33131,-100,4,2,0,20,0,0
43970,-62.5,4,2,0,20,0,0
44551,-100,4,2,0,20,0,0
56357,-117.647058823529,4,2,0,20,0,0
56938,-100,4,2,0,20,0,0
68744,-50,4,2,0,20,0,0
68938,-166.666666666667,4,2,0,10,0,0
72035,-142.857142857143,4,2,0,14,0,0
73583,-125,4,2,0,18,0,0
74744,-125,4,2,0,12,0,0
75131,-111.111111111111,4,2,0,22,0,0
76680,-100,4,2,0,22,0,0
77454,-100,4,2,0,18,0,0
78228,-83.3333333333333,4,2,0,32,0,0
79002,-83.3333333333333,4,2,0,25,0,0
79777,-133.333333333333,4,2,0,40,0,0
82873,-133.333333333333,4,2,0,50,0,0
83260,-66.6666666666667,4,2,0,60,0,0
83648,-55.5555555555556,4,2,0,70,0,0
84035,-80,4,2,0,80,0,0
84422,-80,4,2,0,80,0,1
96422,-66.6666666666667,4,2,0,80,0,1
96809,-74.0740740740741,4,2,0,80,0,1
108615,-74.0740740740741,4,2,0,20,0,1
109196,-57.1428571428571,4,2,0,80,0,1
110357,-57.1428571428571,4,2,0,60,0,1
110551,-57.1428571428571,4,2,0,80,0,1
110744,-50,4,2,0,80,0,1
111712,-100,4,2,0,80,0,1
112293,-80,4,2,0,80,0,1
114422,-166.666666666667,4,2,0,80,0,1
115390,-133.333333333333,4,2,0,40,0,0
120809,-80,4,2,0,40,0,0
125454,-100,4,2,0,25,0,0
126228,-90.9090909090909,4,2,0,25,0,0
136873,-133.333333333333,4,2,0,25,0,0
138615,-90.9090909090909,4,2,0,25,0,0
147131,-76.9230769230769,4,2,0,25,0,0
149454,-133.333333333333,4,2,0,25,0,0
150615,-100,4,2,0,25,0,0
157196,-83.3333333333333,4,2,0,25,0,0
160293,-100,4,2,0,25,0,0
163777,-66.6666666666667,4,2,0,25,0,0
164938,-133.333333333333,4,2,0,25,0,1
176938,-133.333333333333,4,2,0,25,0,0
177325,-133.333333333333,4,2,0,25,0,1
189325,-133.333333333333,4,2,0,25,0,0
189712,-133.333333333333,4,2,0,25,0,1
195906,-133.333333333333,4,2,0,25,0,0
231519,384.615384615385,4,2,0,100,1,0
231519,-100,4,2,0,100,0,1
255749,-100,4,2,0,100,0,0
256134,-100,4,2,0,100,0,1
268057,-100,4,2,0,100,0,0
268442,-100,4,2,0,100,0,1
280749,-100,4,2,0,100,0,0
293057,-100,4,2,0,100,0,1
303826,-100,4,2,0,100,0,0
306903,-100,4,2,0,100,0,1
329980,-100,4,2,0,100,0,0
330365,-100,4,2,0,100,0,1
330749,-100,4,2,0,100,0,0
331519,-100,4,2,0,100,0,1
342288,-100,4,2,0,100,0,0
342672,-100,4,2,0,100,0,1
343057,-100,4,2,0,100,0,0
343826,-100,4,2,0,100,0,1
359211,-100,4,2,0,100,0,0

[HitObjects]
132,236,519,6,0,P|108:236|96:240,2,37.5
56,224,809,2,0,L|180:220,1,112.500004291535,2|0,0:0|0:0,0:0:0:0:
256,236,1390,2,0,B|300:244|300:244|380:240,1,112.500004291535,2|0,0:0|0:0,0:0:0:0:
408,196,1970,2,0,B|388:192|388:192|352:192,2,56.2500021457673,0|0|2,0:0|0:0|0:0,0:0:0:0:
312,280,2551,2,0,B|332:284|332:284|368:284,2,56.2500021457673
236,304,3131,5,0,0:0:0:0:
236,304,3325,2,0,B|188:296|188:296|152:304|152:304|120:304,1,112.500004291535,2|0,0:0|0:0,0:0:0:0:
56,304,3906,6,0,P|64:252|104:280,1,112.500004291535,2|0,0:0|0:0,0:0:0:0:
148,272,4486,2,0,B|181:272|209:256|209:256|257:264,1,112.500004291535,2|0,0:0|0:0,0:0:0:0:
316,320,5067,2,0,L|380:328,1,56.2500021457673,2|0,0:0|0:0,0:0:0:0:
432,300,5454,2,0,L|368:308,3,56.2500021457673,2|0|0|0,0:0|0:0|0:0|0:0,0:0:0:0:
308,220,6228,2,0,L|372:220,1,56.2500021457673,2|0,0:0|0:0,0:0:0:0:
384,200,6615,2,0,L|445:183,1,56.2500021457673,2|0,0:0|0:0,0:0:0:0:
400,96,7002,6,0,B|436:44|436:44|348:64,1,127.50000243187,4|0,0:0|0:0,0:0:0:0:
264,160,7583,2,0,B|340:140|379:160|379:160|427:145,1,142.49999619484,4|0,0:0|0:0,0:0:0:0:
212,240,8164,2,0,L|224:332,2,78.7499975967408,4|0|0,0:0|0:0|0:0,0:0:0:0:
340,160,8744,1,4,0:0:0:0:
336,156,8938,2,0,L|340:68,1,86.2500016450882
352,248,9325,5,6,0:0:0:0:
344,168,9519,1,0,0:0:0:0:
164,224,9712,5,6,0:0:0:0:
72,257,9906,1,0,0:0:0:0:
352,352,10099,5,2,0:0:0:0:
268,344,10486,1,0,0:0:0:0:
184,336,10873,1,0,0:0:0:0:
100,328,11260,1,0,0:0:0:0:
100,328,11648,5,0,0:0:0:0:
108,229,12035,1,0,0:0:0:0:
117,131,12422,1,0,0:0:0:0:
127,33,12809,1,2,0:0:0:0:
128,136,13196,6,0,L|132:176,10,28.1250010728836,4|0|0|0|0|0|0|0|0|0|0,0:0|0:0|0:0|0:0|0:0|0:0|0:0|0:0|0:0|0:0|0:0,0:0:0:0:
140,36,14357,6,0,L|148:124,1,84.3750032186509
184,232,14744,2,0,P|180:252|176:264,10,28.1250010728836,4|0|0|0|0|0|0|0|0|0|0,0:0|0:0|0:0|0:0|0:0|0:0|0:0|0:0|0:0|0:0|0:0,0:0:0:0:
72,272,15906,6,0,B|120:264|120:264|156:272|156:272|200:264,1,112.5,0|0,1:0|0:0,0:0:0:0:
332,300,16293,2,0,P|348:288|365:260,10,37.5,4|0|0|0|0|0|0|0|0|0|0,0:0|0:0|0:0|0:0|0:0|0:0|0:0|0:0|0:0|0:0|0:0,0:0:0:0:
396,356,17454,6,0,B|380:304|396:240|396:240|384:212,1,140.625,0|0,3:0|0:0,0:0:0:0:
356,0,17841,2,0,P|364:36|396:52,10,46.875,4|0|0|0|0|0|0|0|0|0|0,0:0|0:0|0:0|0:0|0:0|0:0|0:0|0:0|0:0|0:0|0:0,0:0:0:0:
300,140,19002,6,0,L|180:136,1,112.500004291535,2|0,0:0|0:0,0:0:0:0:
460,308,19293,1,0,0:0:0:0:
460,308,19390,2,0,P|444:280|428:340,1,150,2|0,3:0|0:0,0:0:0:0:
232,325,19841,6,2,L|204:327,2,18.7500007152558
247,187,20164,1,2,0:0:0:0:
260,324,20357,1,0,0:0:0:0:
259,206,20551,1,2,0:0:0:0:
381,237,20744,2,0,L|336:240,1,28.1250010728836
365,216,20938,5,4,0:0:0:0:
387,333,21131,1,0,0:0:0:0:
409,137,21325,2,0,L|417:221,1,75,2|0,0:0|0:0,0:0:0:0:
272,104,21712,2,0,B|208:96|208:96|164:108|164:108|108:100,1,150,0|2,0:0|0:0,0:0:0:0:
96,76,22293,2,0,L|100:160,1,75
136,320,22680,1,0,0:0:0:0:
192,220,22873,2,2,L|184:304,1,75,2|0,0:0|0:0,0:0:0:0:
460,164,23260,1,0,0:0:0:0:
360,180,23454,2,0,B|396:176|396:176|428:184|428:184|464:184,2,75,0|2|0,0:0|0:0|0:0,0:0:0:0:
272,140,24035,5,4,0:0:0:0:
376,128,24228,1,0,0:0:0:0:
168,72,24422,2,0,L|176:152,1,75,10|0,0:0|0:0,0:0:0:0:
328,152,24809,5,4,0:0:0:0:
431,167,25002,1,0,0:0:0:0:
248,204,25196,2,0,B|230:253|230:253|227:281,1,75,10|0,0:0|0:0,0:0:0:0:
356,232,25583,5,4,0:0:0:0:
336,132,25777,1,0,0:0:0:0:
240,256,25970,2,0,L|264:356,1,75,10|0,0:0|0:0,0:0:0:0:
256,340,26260,1,0,0:0:0:0:
256,348,26357,5,4,0:0:0:0:
292,187,26551,1,0,0:0:0:0:
181,154,26744,1,10,0:0:0:0:
404,65,26938,2,0,L|455:57,1,37.5
381,87,27131,5,4,0:0:0:0:
291,76,27325,1,0,0:0:0:0:
82,57,27519,2,0,L|160:52,1,75,2|0,0:0|0:0,0:0:0:0:
325,148,27906,2,0,B|219:136|219:136|261:176,1,150,0|2,0:0|0:0,0:0:0:0:
469,327,28486,2,0,L|390:336,1,75
310,353,28873,1,0,0:0:0:0:
338,167,29067,2,0,B|335:143|335:143|338:124|338:124|335:109|335:109|337:92,1,75,2|0,0:0|0:0,0:0:0:0:
345,80,29357,1,0,0:0:0:0:
345,80,29454,1,0,0:0:0:0:
388,256,29648,1,0,0:0:0:0:
364,176,29841,1,2,0:0:0:0:
317,318,30035,2,0,L|263:324,1,37.5
245,317,30228,5,4,0:0:0:0:
332,312,30422,1,0,0:0:0:0:
121,337,30615,2,0,L|37:328,1,75,2|4,0:0|0:0,0:0:0:0:
230,311,31196,5,6,0:0:0:0:
344,319,31390,1,6,0:0:0:0:
126,333,31583,2,0,B|121:298|121:298|131:273|131:273|125:253|125:253|137:287,1,112.499996566773,2|0,3:0|0:0,0:0:0:0:
146,273,32164,5,2,0:0:0:0:
316,312,32357,1,2,3:0:0:0:
316,312,32744,5,2,0:0:0:0:
436,300,32937,1,2,3:0:0:0:
348,312,33131,2,0,L|354:263,1,37.5
336,260,33325,5,6,3:0:0:0:
440,200,33519,1,0,0:0:0:0:
196,96,33712,2,0,L|272:92,1,75,2|0,0:0|0:0,0:0:0:0:
270,92,34099,1,0,0:0:0:0:
420,144,34293,2,0,B|434:130|434:130|376:134,1,75,0|2,0:0|0:0,0:0:0:0:
272,200,34680,2,0,B|228:196|228:196|160:208|160:208|116:204,1,150
40,184,35260,2,0,L|124:176,1,75,2|0,0:0|0:0,0:0:0:0:
312,208,35648,1,0,0:0:0:0:
476,192,35841,2,0,B|445:183|445:183|424:188|424:188|377:173,2,75,0|2|0,0:0|0:0|0:0,0:0:0:0:
288,184,36422,5,4,0:0:0:0:
408,176,36615,1,0,0:0:0:0:
236,264,36809,2,0,L|228:340,1,75,10|0,0:0|0:0,0:0:0:0:
320,156,37196,5,4,0:0:0:0:
428,196,37390,1,0,0:0:0:0:
180,192,37583,2,0,L|184:272,1,75,10|0,0:0|0:0,0:0:0:0:
276,204,37970,5,4,0:0:0:0:
420,176,38164,1,0,0:0:0:0:
168,104,38357,2,0,L|156:184,1,75,10|0,0:0|0:0,0:0:0:0:
172,200,38648,1,0,0:0:0:0:
172,200,38744,5,0,3:0:0:0:
312,144,38938,1,0,0:0:0:0:
216,100,39131,1,10,0:0:0:0:
424,72,39325,2,0,L|472:76,1,37.5
488,96,39519,6,0,B|444:100|444:100|412:84|376:92|376:92|420:72,1,150,4|2,0:0|0:0,0:0:0:0:
488,64,40099,1,0,0:0:0:0:
464,204,40293,2,0,B|484:232|484:232|452:284|468:352,1,150,0|2,0:0|0:0,0:0:0:0:
132,336,40873,2,0,L|52:332,2,75,2|0|0,0:0|0:0|0:0,0:0:0:0:
128,216,41454,6,0,L|208:208,1,75,2|0,0:0|0:0,0:0:0:0:
228,216,41841,2,0,L|276:224,1,37.5
324,128,42035,2,0,L|276:136,1,37.5,2|0,0:0|0:0,0:0:0:0:
316,108,42228,6,0,B|344:111|344:111|327:79|326:27,1,112.5,2|0,0:0|0:0,0:0:0:0:
296,24,42615,6,0,L|304:64,1,37.5,4|0,0:0|0:0,0:0:0:0:
376,256,42809,2,0,B|380:312|380:312|360:348,1,75,2|0,0:0|0:0,0:0:0:0:
348,344,43196,6,0,L|356:304,1,37.5,4|0,0:0|0:0,0:0:0:0:
296,116,43390,2,0,B|292:60|292:60|312:24,1,75,2|0,0:0|0:0,0:0:0:0:
320,40,43777,1,4,0:0:0:0:
104,284,43970,5,2,0:0:0:0:
104,296,44551,6,0,L|112:240,1,37.5,2|0,0:0|0:0,0:0:0:0:
68,164,44744,1,0,0:0:0:0:
104,104,44938,6,0,L|96:160,1,37.5,2|0,0:0|0:0,0:0:0:0:
140,292,45131,1,0,0:0:0:0:
64,76,45325,6,0,B|53:93|53:93|51:109,1,37.5,2|0,0:0|0:0,0:0:0:0:
128,352,45519,2,0,B|138:334|138:334|140:318,1,37.5
48,248,45712,5,4,0:0:0:0:
180,312,45906,1,0,0:0:0:0:
308,284,46099,2,0,L|228:292,1,75,2|0,0:0|0:0,0:0:0:0:
424,312,46486,2,0,B|416:268|416:268|428:244|412:196|412:196|416:164,1,150,0|2,0:0|0:0,0:0:0:0:
388,140,47067,6,0,L|464:132,1,75
476,136,47454,1,0,0:0:0:0:
152,188,47648,2,0,L|72:184,1,75,2|0,0:0|0:0,0:0:0:0:
348,276,48035,1,0,0:0:0:0:
264,296,48228,2,0,B|272:294|272:294|304:298|304:298|336:286,2,75,0|2|0,0:0|0:0|0:0,0:0:0:0:
248,284,48809,5,4,0:0:0:0:
252,164,49002,1,0,0:0:0:0:
376,232,49196,2,0,B|377:260|377:260|369:311,1,75,10|0,0:0|0:0,0:0:0:0:
236,260,49583,5,4,0:0:0:0:
224,128,49776,1,0,0:0:0:0:
432,176,49970,2,0,B|428:204|428:204|411:253,1,75,10|0,0:0|0:0,0:0:0:0:
252,240,50357,5,4,0:0:0:0:
136,156,50551,1,0,0:0:0:0:
408,84,50744,2,0,B|396:110|396:110|387:161,1,75,10|0,0:0|0:0,0:0:0:0:
404,176,51035,1,0,0:0:0:0:
404,176,51131,5,4,0:0:0:0:
460,308,51325,6,0,L|464:352,2,37.5,0|0|10,0:0|0:0|0:0,0:0:0:0:
320,293,51712,6,0,L|324:256,1,37.5
336,136,51906,6,0,B|328:112|328:112|268:148|200:124,1,150,4|2,0:0|0:0,0:0:0:0:
192,144,52486,1,0,0:0:0:0:
412,172,52680,6,0,B|408:160|408:160|368:200|344:166,1,75
340,188,53067,1,2,0:0:0:0:
108,128,53260,2,0,L|60:124,1,37.5
60,144,53454,2,0,B|55:172|55:172|60:196|55:218,1,75,4|0,0:0|0:0,0:0:0:0:
272,348,53841,6,0,B|267:303|267:303|251:270|249:237,1,112.5,2|0,0:0|0:0,0:0:0:0:
260,220,54228,1,0,0:0:0:0:
128,296,54422,2,0,L|180:288,1,37.5
202,296,54615,2,0,B|245:285|245:285|282:301|282:301|336:296,1,112.5,2|0,0:0|0:0,0:0:0:0:
324,312,55002,5,4,0:0:0:0:
432,224,55196,1,0,0:0:0:0:
392,48,55390,2,0,L|400:128,2,75,2|4|0,0:0|0:0|0:0,0:0:0:0:
484,324,55970,5,6,0:0:0:0:
468,204,56164,1,6,0:0:0:0:
348,80,56357,2,0,B|355:129|355:129|340:164|340:164|349:192|349:192|332:144,1,159.375003039837,2|0,3:0|0:0,0:0:0:0:
304,152,56938,5,0,0:0:0:0:
44,48,57131,2,0,L|48:132,1,75,2|0,3:0|0:0,0:0:0:0:
68,132,57519,5,0,0:0:0:0:
392,56,57712,1,2,3:0:0:0:
364,168,57906,2,0,L|360:128,2,25
408,224,58099,5,4,0:0:0:0:
408,224,58293,2,0,L|320:216,1,75,2|0,0:0|0:0,0:0:0:0:
188,348,58680,2,0,L|276:340,1,75,2|0,0:0|0:0,0:0:0:0:
364,224,59067,2,0,L|276:216,1,75,2|0,0:0|0:0,0:0:0:0:
112,248,59454,2,0,L|196:256,1,75,2|0,0:0|0:0,0:0:0:0:
352,84,59841,6,0,L|278:88,1,75,2|0,0:0|0:0,0:0:0:0:
36,144,60228,2,0,L|28:56,1,75,2|0,0:0|0:0,0:0:0:0:
164,292,60615,6,0,L|238:298,1,75,2|0,0:0|0:0,0:0:0:0:
184,112,61002,5,2,0:0:0:0:
184,112,61196,1,6,0:0:0:0:
304,176,61390,2,0,L|312:256,1,75,2|0,0:0|0:0,0:0:0:0:
160,312,61777,2,0,L|80:304,1,75,2|0,0:0|0:0,0:0:0:0:
280,136,62164,2,0,L|368:132,1,75,2|0,0:0|0:0,0:0:0:0:
448,152,62454,1,0,0:0:0:0:
472,164,62551,6,0,L|316:160,1,150,2|2,0:0|0:0,0:0:0:0:
308,196,63131,5,0,0:0:0:0:
412,248,63325,1,2,0:0:0:0:
368,64,63519,5,0,0:0:0:0:
404,148,63712,1,2,0:0:0:0:
468,32,63906,5,6,0:0:0:0:
384,180,64099,5,0,0:0:0:0:
381,207,64196,1,0,0:0:0:0:
379,235,64293,1,0,0:0:0:0:
280,256,64486,5,2,0:0:0:0:
196,120,64680,6,0,L|200:72,2,37.5,0|0|2,0:0|0:0|0:0,0:0:0:0:
272,240,65067,6,0,L|272:296,1,37.5
288,304,65260,2,0,L|284:352,3,37.5,2|0|0|0,0:0|0:0|0:0|0:0,0:0:0:0:
156,316,65648,6,0,L|148:276,1,37.5,2|0,0:0|0:0,0:0:0:0:
168,256,65841,1,4,0:0:0:0:
460,268,66035,6,0,L|380:264,1,75,2|0,0:0|0:0,0:0:0:0:
88,104,66422,6,0,L|168:108,1,75,2|0,0:0|0:0,0:0:0:0:
368,348,66809,5,2,0:0:0:0:
284,324,67002,2,0,L|232:324,1,37.5
168,340,67196,2,0,L|116:335,1,37.5,2|0,0:0|0:0,0:0:0:0:
56,316,67390,5,4,0:0:0:0:
56,316,67583,5,2,0:0:0:0:
56,316,67777,5,0,0:0:0:0:
56,316,67970,5,6,0:0:0:0:
120,112,68164,6,0,B|132:144|132:144|116:180|116:208,1,75,2|0,0:0|0:0,0:0:0:0:
96,208,68551,5,0,0:0:0:0:
316,176,68744,1,6,0:0:0:0:
316,176,69131,5,0,0:0:0:0:
304,204,69325,1,0,0:0:0:0:
296,240,69519,1,0,0:0:0:0:
208,180,69712,6,0,L|216:240,1,44.999998626709,2|0,0:0|0:0,0:0:0:0:
312,116,70099,2,0,L|304:176,1,44.999998626709,2|0,0:0|0:0,0:0:0:0:
92,96,70486,6,0,L|32:100,2,44.999998626709,2|0|0,0:0|0:0|0:0,0:0:0:0:
168,64,71067,1,0,0:0:0:0:
168,64,71260,2,0,L|220:60,1,44.999998626709
272,120,71648,2,0,L|324:124,1,44.999998626709
232,232,72035,6,0,L|224:292,2,52.4999983978272,2|0|0,0:0|0:0|0:0,0:0:0:0:
348,216,72615,1,0,0:0:0:0:
348,216,72809,2,0,L|356:268,1,52.4999983978272
452,260,73196,2,0,L|444:312,1,52.4999983978272
384,88,73583,6,0,L|448:84,2,60,2|0|0,0:0|0:0|0:0,0:0:0:0:
208,72,74164,2,0,B|140:80|140:80|84:72,1,120
108,100,74744,1,2,0:0:0:0:
108,100,74938,1,0,0:0:0:0:
60,336,75131,6,0,L|56:260,2,67.4999979400635,2|0|0,0:0|0:0|0:0,0:0:0:0:
44,260,75712,1,0,0:0:0:0:
212,224,75906,2,0,L|204:304,1,67.4999979400635
308,272,76293,2,0,L|320:352,1,67.4999979400635
404,68,76680,6,0,B|426:68|426:68|446:64|446:64|478:68,2,75,2|0|0,0:0|0:0|0:0,0:0:0:0:
264,112,77260,1,0,0:0:0:0:
152,72,77454,5,2,0:0:0:0:
152,72,77648,1,0,0:0:0:0:
48,104,77841,5,2,0:0:0:0:
48,104,78035,1,0,0:0:0:0:
304,84,78228,6,0,B|330:84|330:84|354:79|354:79|393:84,2,89.9999972534181,2|0|0,0:0|0:0|0:0,0:0:0:0:
252,220,78809,1,0,0:0:0:0:
320,300,79002,5,2,0:0:0:0:
320,300,79196,1,0,0:0:0:0:
196,328,79390,5,2,0:0:0:0:
96,288,79583,2,0,L|52:292,1,44.999998626709
24,264,79777,6,0,B|68:260|68:260|104:268|104:268|128:272,1,84.3750032186509,0|0,3:0|0:0,0:0:0:0:
144,296,80164,6,0,B|188:300|188:300|224:292|224:292|248:288,1,84.3750032186509,0|0,3:0|0:0,0:0:0:0:
288,232,80551,6,0,B|291:231|291:231|327:223|327:223|371:227,1,84.3750032186509,0|0,3:0|0:0,0:0:0:0:
392,336,80938,6,0,B|395:336|395:336|431:344|431:344|475:340,1,84.3750032186509,0|0,3:0|0:0,0:0:0:0:
472,288,81325,6,0,L|484:324,5,28.1250010728836,2|0|0|0|0|0,0:0|0:0|0:0|0:0|0:0|0:0,0:0:0:0:
400,204,81906,6,0,L|401:166,5,28.1250010728836,2|0|0|0|0|0,0:0|0:0|0:0|0:0|0:0|0:0,0:0:0:0:
368,296,82486,6,0,L|324:304,3,28.1250010728836,2|0|0|0,0:0|0:0|0:0|0:0,0:0:0:0:
268,88,82873,5,6,0:0:0:0:
260,92,83260,6,0,L|268:156,1,56.2500021457673,2|0,0:0|0:0,0:0:0:0:
252,88,83648,6,0,L|262:171,1,67.4999979400635,2|0,0:0|0:0,0:0:0:0:
260,80,84035,6,0,L|260:104,9,15.625,2|0|0|0|0|0|0|0|0|0,0:0|0:0|0:0|0:0|0:0|0:0|0:0|0:0|0:0|0:0,0:0:0:0:
336,152,84422,5,4,0:0:0:0:
188,124,84615,1,0,0:0:0:0:
304,56,84809,2,0,L|296:160,1,93.75,8|0,0:0|0:0,0:0:0:0:
372,296,85196,5,2,0:0:0:0:
388,136,85390,1,0,0:0:0:0:
248,256,85583,1,8,0:0:0:0:
320,180,85777,2,0,L|368:176,1,46.875
384,212,85970,5,2,0:0:0:0:
292,76,86164,1,0,0:0:0:0:
396,120,86357,1,8,0:0:0:0:
196,232,86551,1,0,0:0:0:0:
200,208,86648,1,0,0:0:0:0:
204,184,86744,5,2,0:0:0:0:
320,240,86938,1,0,0:0:0:0:
180,304,87131,1,8,0:0:0:0:
304,328,87325,2,0,L|368:320,1,46.875,8|0,0:0|0:0,0:0:0:0:
372,332,87519,5,2,0:0:0:0:
280,184,87712,1,0,0:0:0:0:
376,240,87906,1,8,0:0:0:0:
228,304,88099,1,0,0:0:0:0:
204,300,88196,1,0,0:0:0:0:
184,296,88293,5,2,0:0:0:0:
356,224,88486,1,0,0:0:0:0:
152,148,88680,1,8,0:0:0:0:
420,56,88873,1,2,0:0:0:0:
220,64,89067,6,0,L|272:68,1,46.875,2|0,0:0|0:0,0:0:0:0:
460,220,89260,6,0,L|408:216,1,46.875,2|0,0:0|0:0,0:0:0:0:
324,144,89454,5,0,0:0:0:0:
196,96,89648,6,0,L|248:100,1,46.875,2|0,0:0|0:0,0:0:0:0:
144,244,89841,6,0,B|136:280|136:280|144:300|144:300|132:324|132:324|144:332|144:332|144:352,1,93.75,2|0,0:0|0:0,0:0:0:0:
372,160,90228,1,2,0:0:0:0:
372,160,90422,6,0,L|380:220,1,46.875,2|0,0:0|0:0,0:0:0:0:
160,36,90615,5,4,0:0:0:0:
188,184,90809,1,0,0:0:0:0:
40,152,91002,2,0,L|140:144,1,93.75,8|0,0:0|0:0,0:0:0:0:
224,320,91390,5,2,0:0:0:0:
216,148,91584,1,0,0:0:0:0:
408,264,91777,2,0,L|308:272,1,93.75,8|0,0:0|0:0,0:0:0:0:
240,296,92164,5,2,0:0:0:0:
236,136,92357,1,0,0:0:0:0:
72,232,92551,1,8,0:0:0:0:
212,300,92744,1,0,0:0:0:0:
208,324,92841,1,0,0:0:0:0:
204,348,92937,1,2,0:0:0:0:
200,160,93131,5,0,0:0:0:0:
312,248,93325,1,8,0:0:0:0:
165,302,93519,2,0,L|229:298,1,46.875
228,308,93712,5,2,0:0:0:0:
364,280,93906,1,0,0:0:0:0:
164,176,94099,2,0,L|64:180,1,93.75,8|0,0:0|0:0,0:0:0:0:
248,256,94486,5,2,0:0:0:0:
436,204,94680,1,0,0:0:0:0:
104,148,94873,2,0,L|204:140,1,93.75,8|0,0:0|0:0,0:0:0:0:
212,140,95164,1,0,0:0:0:0:
212,140,95260,5,2,0:0:0:0:
232,268,95454,6,0,L|223:323,1,46.875,0|0,0:3|0:3,0:3:0:0:
212,324,95648,1,2,0:0:0:0:
404,132,95841,6,0,L|412:187,1,46.875
424,200,96035,1,2,0:0:0:0:
232,268,96228,6,0,B|210:265|210:265|186:269,1,46.875
52,248,96422,6,0,P|59:186|76:244,1,168.750006437302
76,260,96809,5,6,0:0:0:0:
48,48,97002,1,0,0:0:0:0:
196,224,97196,2,0,L|192:336,1,101.250000386238,8|0,0:0|0:0,0:0:0:0:
80,264,97583,5,6,0:0:0:0:
304,152,97777,1,0,0:0:0:0:
64,36,97970,1,8,0:0:0:0:
188,232,98164,2,0,L|184:288,1,50.6250001931191
192,296,98357,5,6,0:0:0:0:
64,100,98551,1,0,0:0:0:0:
296,168,98744,1,8,0:0:0:0:
72,328,98938,1,0,0:0:0:0:
112,324,99035,1,0,0:0:0:0:
156,320,99131,5,6,0:0:0:0:
188,188,99325,1,0,0:0:0:0:
76,236,99518,1,8,0:0:0:0:
268,344,99712,1,0,0:0:0:0:
236,341,99809,1,0,0:0:0:0:
208,341,99906,5,6,0:0:0:0:
348,220,100099,1,0,0:0:0:0:
76,160,100293,2,0,L|188:152,1,101.250000386238,8|0,0:0|0:0,0:0:0:0:
212,152,100583,1,0,0:0:0:0:
236,152,100680,5,6,0:0:0:0:
112,196,100873,1,0,0:0:0:0:
336,248,101067,1,8,0:0:0:0:
188,320,101260,1,0,0:0:0:0:
312,40,101454,6,0,L|320:104,1,50.6250001931191,2|0,0:0|0:0,0:0:0:0:
180,328,101648,6,0,L|172:264,1,50.6250001931191,2|0,0:0|0:0,0:0:0:0:
344,120,101841,5,0,0:0:0:0:
408,264,102035,6,0,L|468:268,1,50.6250001931191,2|0,0:0|0:0,0:0:0:0:
340,316,102228,5,4,0:0:0:0:
212,152,102422,5,2,0:0:0:0:
208,124,102519,1,0,0:0:0:0:
204,92,102615,1,2,0:0:0:0:
72,292,102809,6,0,L|64:236,1,50.6250001931191,2|0,0:0|0:0,0:0:0:0:
40,224,103002,5,6,0:0:0:0:
228,304,103196,1,0,0:0:0:0:
124,124,103390,2,0,L|136:232,1,101.250000386238,8|0,0:0|0:0,0:0:0:0:
44,76,103777,5,6,0:0:0:0:
256,40,103970,1,0,0:0:0:0:
152,280,104164,2,0,B|141:256|141:256|124:334,1,101.250000386238,8|0,0:0|0:0,0:0:0:0:
208,348,104551,5,6,0:0:0:0:
248,192,104744,1,2,0:0:0:0:
344,296,104938,1,8,0:0:0:0:
224,196,105131,2,0,L|168:200,1,50.6250001931191,2|0,0:0|0:0,0:0:0:0:
144,212,105325,5,6,0:0:0:0:
268,256,105519,1,0,0:0:0:0:
92,304,105712,1,8,0:0:0:0:
300,360,105906,2,0,L|356:356,1,50.6250001931191,8|0,0:0|0:0,0:0:0:0:
368,344,106099,5,6,0:0:0:0:
148,244,106293,1,0,0:0:0:0:
440,236,106486,2,0,L|332:228,1,101.250000386238,8|0,0:0|0:0,0:0:0:0:
328,312,106873,5,6,0:0:0:0:
152,120,107067,1,0,0:0:0:0:
476,248,107260,2,0,L|368:240,1,101.250000386238,8|0,0:0|0:0,0:0:0:0:
276,232,107648,6,0,L|225:228,1,50.6250001931191,2|0,0:0|0:0,0:0:0:0:
294,157,107841,6,0,L|344:160,1,50.6250001931191
360,304,108035,6,0,B|312:300|312:300|288:308|288:308|256:308,1,101.250000386238
176,280,108422,1,2,0:0:0:0:
176,280,108615,5,4,3:0:0:0:
181,222,108712,1,0,3:0:0:0:
186,165,108809,1,0,3:0:0:0:
192,107,108906,1,0,3:0:0:0:
197,51,109002,2,0,L|136:56,1,50.6250001931191
120,68,109196,6,0,B|96:60|96:60|68:68|68:68|52:48|52:48|64:84|64:84|80:96|80:96|80:120,1,131.250001251698,6|0,3:0|0:0,0:0:0:0:
344,144,109486,6,0,B|362:127|362:127|370:98|370:98|395:95|395:95|358:87|358:87|339:95|339:95|318:83,1,131.250001251698
176,244,109777,6,0,B|183:281|183:281|215:311|215:311|201:347|201:347|238:304|238:304|242:274|242:274|273:256,1,196.875001877546,2|0,0:0|0:0,0:0:0:0:
276,236,110164,5,0,0:0:0:0:
180,136,110357,5,2,0:0:0:0:
132,260,110551,5,0,0:0:0:0:
312,112,110744,6,0,B|306:87|306:87|286:67|286:67|295:43|295:43|270:71|270:71|268:91|268:91|247:103,1,150,6|0,3:0|0:0,0:0:0:0:
396,328,111034,6,0,B|419:335|419:335|448:327|448:327|463:347|463:347|451:311|451:311|435:299|435:299|435:275,1,150
92,260,111325,6,0,B|64:284|64:284|53:326|53:326|16:332|16:332|71:342|71:342|98:331|98:331|129:349,1,225,2|0,0:0|0:0,0:0:0:0:
144,320,111712,5,0,3:0:0:0:
240,144,111906,6,0,L|202:141,1,37.5,2|0,0:0|0:0,0:0:0:0:
256,280,112099,6,0,L|293:277,1,37.5
388,176,112293,6,0,B|403:135|403:135|421:121|421:121|406:91|406:91|424:85|424:85|420:38|420:38|397:57|397:57|382:70|382:70|394:89|394:89,1,234.375,6|0,3:0|0:0,3:0:0:0:
232,232,112873,6,0,B|197:206|197:206|177:217|177:217|153:215|153:215|144:204|144:204|125:211|125:211|91:198,1,140.625,4|0,2:0|0:0,0:0:0:0:
340,272,113260,6,0,L|348:316,2,31.25,0|0|0,3:0|3:0|3:0,3:0:0:0:
292,120,113454,6,0,L|280:172,1,46.875
384,80,113648,6,0,L|392:140,1,46.875
232,140,113841,6,0,B|215:137|215:137|196:142|196:142|174:140|174:140|215:152,1,93.75,6|0,3:0|0:0,3:0:0:0:
328,212,114131,6,0,B|344:214|344:214|364:209|364:209|385:212|385:212|344:200,1,93.75,0|0,3:0|0:0,3:0:0:0:
304,112,114422,6,0,B|301:90|301:90|307:65|307:65|304:37|304:37|319:90,1,112.499996566773,0|0,3:0|0:0,3:0:0:0:
272,248,115002,6,0,L|276:328,1,67.4999979400635,0|0,3:0|0:0,0:0:0:0:
288,344,115390,6,0,L|160:332,1,112.500004291535,2|0,3:0|0:0,0:0:0:0:
312,116,116164,6,0,B|320:152|320:152|316:168|316:168|320:184|320:184|320:212|320:212|324:236,1,112.500004291535,0|0,1:0|0:0,0:0:0:0:
364,304,116938,6,0,B|400:296|400:296|428:304|428:304|460:296,2,84.3750032186509,0|0|0,3:0|3:0|3:0,3:0:0:0:
208,264,117712,6,0,B|182:271|182:271|146:264|146:264|128:274|128:274|118:260|118:260|92:264,1,112.500004291535,0|0,1:0|0:0,0:0:0:0:
248,128,118486,6,0,B|280:120|280:120|304:128|304:128|364:112,1,112.500004291535,0|0,3:0|0:0,0:0:0:0:
160,64,119067,5,0,3:0:0:0:
54,307,119260,6,0,B|57:285|57:285|50:277|50:277|50:266|50:266|47:249|47:249|54:220|54:220|47:188,1,112.500004291535,0|0,1:0|0:0,0:0:0:0:
228,240,120035,6,0,B|216:236|216:236|204:240|204:240|196:232|196:232|192:244|192:244|176:240|176:240|168:244,1,56.2500021457673,2|0,0:0|0:0,0:0:0:0:
320,144,120325,6,0,B|329:135|329:135|332:123|332:123|342:120|342:120|334:110|334:110|346:98|346:98|346:90,1,56.2500021457673,2|0,0:0|0:0,0:0:0:0:
336,300,120615,6,0,B|337:309|337:309|345:315|345:315|342:323|342:323|351:322|351:322|356:334|356:334|361:337,1,56.2500021457673,2|0,0:0|1:0,0:0:0:0:
456,256,121002,5,0,3:0:0:0:
452,232,121099,1,0,3:0:0:0:
448,208,121196,1,0,3:0:0:0:
444,184,121293,1,0,3:0:0:0:
440,160,121390,1,0,3:0:0:0:
436,136,121486,1,0,3:0:0:0:
432,112,121583,5,6,0:0:0:0:
340,124,121970,1,0,0:0:0:0:
248,136,122357,1,0,0:0:0:0:
156,148,122744,1,0,0:0:0:0:
156,148,123131,5,0,0:0:0:0:
268,160,123519,1,0,0:0:0:0:
380,176,123906,1,0,0:0:0:0:
492,192,124293,1,2,0:0:0:0:
480,196,125454,6,0,L|484:240,3,37.5,2|0|0|0,0:0|0:0|0:0|0:0,0:0:0:0:
376,264,125841,6,0,L|391:305,3,37.5,2|0|0|0,0:0|0:0|0:0|0:0,0:0:0:0:
240,280,126228,5,4,0:0:0:0:
164,192,126422,1,0,0:0:0:0:
264,268,126615,2,0,L|348:272,1,82.5000025177003,2|0,0:0|0:0,0:0:0:0:
460,172,127002,2,0,L|376:176,1,82.5000025177003
476,156,127390,5,2,0:0:0:0:
436,40,127583,1,0,0:0:0:0:
428,272,127777,6,0,B|435:320|435:322|435:322|449:286,1,82.5000025177003
304,140,128164,6,0,B|296:92|296:89|296:89|282:125,1,82.5000025177003,2|0,0:0|0:0,0:0:0:0:
396,52,128551,5,0,0:0:0:0:
408,180,128744,1,0,0:0:0:0:
168,160,128938,2,0,B|216:156|216:156|260:168|260:168|312:168,1,123.75000377655,2|0,0:0|0:0,0:0:0:0:
304,156,129325,5,6,0:0:0:0:
420,144,129519,1,0,0:0:0:0:
220,256,129712,2,0,B|232:308|232:308|232:344,1,82.5000025177003,8|0,0:0|0:0,0:0:0:0:
268,168,130099,5,6,0:0:0:0:
374,215,130293,1,0,0:0:0:0:
145,212,130486,2,0,B|129:263|129:263|111:294,1,82.5000025177003,8|0,0:0|0:0,0:0:0:0:
244,120,130873,5,6,0:0:0:0:
312,213,131067,1,0,0:0:0:0:
276,88,131260,5,8,0:0:0:0:
252,224,131454,1,0,0:0:0:0:
360,136,131648,6,0,B|368:192|368:192|368:232,1,82.5000025177003,6|0,0:0|0:0,0:0:0:0:
352,228,131938,1,0,0:0:0:0:
272,180,132035,6,0,L|276:128,1,41.2500012588501,2|0,0:0|0:0,0:0:0:0:
420,280,132228,2,0,L|416:332,1,41.2500012588501,2|0,0:0|0:0,0:0:0:0:
436,336,132422,5,0,0:0:0:0:
408,208,132615,1,0,0:0:0:0:
436,96,132809,2,0,L|436:184,1,82.5000025177003,2|0,0:0|0:0,0:0:0:0:
308,236,133196,6,0,B|238:231|238:231|204:240|204:240|145:236,1,165.000005035401,0|2,0:0|0:0,0:0:0:0:
48,212,133777,1,0,0:0:0:0:
116,60,133970,6,0,B|120:96|120:96|112:124|112:124|112:148,1,82.5000025177003
212,320,134357,6,0,B|206:267|206:267|217:226|217:226|217:192,1,123.75000377655,2|0,0:0|0:0,0:0:0:0:
216,180,134744,1,2,0:0:0:0:
304,232,134938,1,0,0:0:0:0:
184,272,135131,1,2,0:0:0:0:
296,344,135325,2,0,L|340:340,1,41.2500012588501
360,328,135519,5,4,0:0:0:0:
348,212,135712,1,0,0:0:0:0:
372,348,135906,5,2,0:0:0:0:
380,168,136099,1,0,0:0:0:0:
376,148,136196,1,0,0:0:0:0:
372,128,136293,5,0,0:0:0:0:
276,196,136486,1,0,0:0:0:0:
432,272,136680,2,0,L|372:268,1,41.2500012588501
292,336,136873,2,0,B|248:346|248:346|221:346|221:346|199:341|199:341|172:352|172:352|145:346,1,140.625005364418,4|0,0:0|0:0,0:0:0:0:
144,328,137454,5,0,0:0:0:0:
152,140,137648,1,2,0:0:0:0:
152,140,138035,6,0,L|144:92,1,28.1250010728836
244,208,138228,6,0,L|236:256,3,28.1250010728836,2|0|2|0,0:0|0:0|0:0|0:0,0:0:0:0:
348,148,138615,5,4,0:0:0:0:
320,56,138809,1,0,0:0:0:0:
304,252,139002,2,0,L|312:344,1,82.5000025177003,2|0,0:0|0:0,0:0:0:0:
288,216,139390,5,0,0:0:0:0:
420,248,139583,1,0,0:0:0:0:
336,340,139777,2,0,L|236:332,1,82.5000025177003,2|0,0:0|0:0,0:0:0:0:
216,336,140067,1,0,0:0:0:0:
176,336,140164,6,0,B|120:328|120:328|160:312,1,82.5000025177003
188,176,140551,2,0,B|244:184|244:184|204:200,1,82.5000025177003,2|0,0:0|0:0,0:0:0:0:
112,232,140938,5,0,0:0:0:0:
112,92,141131,1,0,0:0:0:0:
112,268,141325,2,0,L|56:260,3,41.2500012588501,2|0|0|0,0:0|0:0|0:0|0:0,0:0:0:0:
192,248,141712,5,4,0:0:0:0:
296,196,141906,1,0,0:0:0:0:
448,296,142099,2,0,L|400:288,2,41.2500012588501,8|0|0,0:0|0:0|0:0,0:0:0:0:
220,236,142486,5,4,0:0:0:0:
322,215,142680,1,0,0:0:0:0:
400,320,142873,2,0,L|360:301,2,41.2500012588501,8|0|0,0:0|0:0|0:0,0:0:0:0:
224,272,143260,5,4,0:0:0:0:
300,224,143454,1,0,0:0:0:0:
196,100,143648,2,0,L|140:104,3,41.2500012588501,8|0|0|0,0:0|0:0|0:0|0:0,0:0:0:0:
360,160,144035,6,0,L|401:158,3,41.2500012588501,4|0|0|0,0:0|0:0|0:0|0:0,0:0:0:0:
244,244,144422,5,8,0:0:0:0:
248,248,144615,2,0,L|251:289,1,41.2500012588501
224,316,144809,5,4,0:0:0:0:
300,244,145002,1,2,0:0:0:0:
200,188,145196,6,0,L|196:236,3,41.2500012588501
308,144,145583,2,0,L|360:132,1,41.2500012588501
424,112,145777,6,0,B|380:108|380:108|340:120|340:120|272:112,1,123.75000377655
184,140,146164,2,0,L|132:132,1,41.2500012588501,2|0,0:0|0:0,0:0:0:0:
112,120,146357,6,0,L|120:164,5,27.5000008392334
228,252,146744,2,0,L|236:208,5,27.5000008392334
336,128,147131,6,0,B|276:128|276:128|316:108,1,97.4999955368044,2|0,0:0|0:0,0:0:0:0:
432,66,147519,1,0,0:0:0:0:
447,61,147615,1,0,0:0:0:0:
462,57,147712,1,0,0:0:0:0:
462,57,147906,6,0,L|457:110,1,48.7499977684022,4|0,0:0|0:0,0:0:0:0:
360,168,148099,2,0,L|355:118,1,48.7499977684022,2|0,0:0|0:0,0:0:0:0:
408,248,148293,5,0,0:0:0:0:
412,268,148390,1,0,0:0:0:0:
416,288,148486,1,0,0:0:0:0:
420,308,148583,1,0,0:0:0:0:
444,336,148680,6,0,L|384:332,1,48.7499977684022,4|0,0:0|0:0,0:0:0:0:
312,308,148873,2,0,L|252:312,1,48.7499977684022,2|0,0:0|0:0,0:0:0:0:
184,336,149067,2,0,L|124:332,1,48.7499977684022
64,276,149260,1,2,0:0:0:0:
64,276,149454,6,0,L|68:232,7,28.1250010728836
84,72,150228,5,2,0:0:0:0:
84,72,150422,2,0,L|120:64,1,28.1250010728836
204,144,150615,6,0,B|244:136|244:136|292:160|336:152,1,112.5,2|0,0:0|0:0,0:0:0:0:
328,180,151002,6,0,B|372:168|372:168|360:132,1,75,0|0,3:0|0:0,0:0:0:0:
160,196,151390,6,0,B|116:208|116:208|128:244,1,75,2|0,0:0|0:0,0:0:0:0:
352,188,151777,6,0,B|393:168|393:168|375:135,1,75
148,216,152165,6,0,B|106:235|106:235|124:268,1,75,2|0,0:0|0:0,0:0:0:0:
280,240,152551,6,0,B|332:225|332:225|318:182,1,75
212,192,152939,6,0,B|159:206|159:206|173:249,1,75,2|0,0:0|0:0,0:0:0:0:
252,248,153325,6,0,B|304:261|304:261|314:217,1,75
256,148,153712,5,2,0:0:0:0:
220,272,153906,1,0,0:0:0:0:
216,136,154099,6,0,B|204:80|204:80|196:120,1,75,0|0,3:0|0:0,0:0:0:0:
284,264,154486,6,0,B|296:320|296:320|304:280,1,75,2|0,0:0|0:0,0:0:0:0:
304,180,154873,6,0,B|292:124|292:124|284:164,1,75
204,220,155260,6,0,B|192:276|192:276|184:236,1,75,2|0,0:0|0:0,0:0:0:0:
344,228,155648,6,0,L|432:216,1,75
176,256,156035,6,0,L|88:244,1,75,2|0,0:0|0:0,0:0:0:0:
232,172,156422,5,0,0:0:0:0:
220,264,156615,5,0,0:0:0:0:
224,284,156712,1,0,0:0:0:0:
228,304,156809,1,2,0:0:0:0:
284,128,157002,5,0,0:0:0:0:
289,101,157099,1,0,0:0:0:0:
296,72,157196,6,0,B|312:132|312:132|328:96,1,89.9999972534181,0|0,3:0|0:0,0:0:0:0:
216,312,157583,2,0,B|200:252|200:252|184:288,1,89.9999972534181,2|0,0:0|0:0,0:0:0:0:
460,236,157970,6,0,B|400:252|400:252|436:268,1,89.9999972534181
104,172,158357,2,0,B|44:156|44:156|80:140,1,89.9999972534181,2|0,0:0|0:0,0:0:0:0:
180,64,158648,1,0,0:0:0:0:
184,52,158744,6,0,L|284:43,1,89.9999972534181
352,136,159131,5,2,0:0:0:0:
368,56,159325,1,0,0:0:0:0:
400,204,159519,5,2,0:0:0:0:
452,120,159713,1,0,0:0:0:0:
388,296,159906,5,2,0:0:0:0:
484,200,160100,1,0,0:0:0:0:
476,252,160196,1,0,0:0:0:0:
468,300,160293,6,0,B|424:296|424:296|400:308|400:308|344:304,1,112.5,0|0,3:0|0:0,0:0:0:0:
368,224,160680,6,0,B|324:220|324:220|300:232|300:232|244:228,1,112.5,0|0,3:0|0:0,0:0:0:0:
264,148,161067,6,0,B|237:145|237:145|223:152|223:152|189:150,1,75,0|0,3:0|0:0,0:0:0:0:
188,72,161357,1,0,0:0:0:0:
188,72,161454,2,0,B|144:68|144:68|120:80|120:80|64:76,1,112.5,0|0,3:0|0:0,0:0:0:0:
48,100,161841,6,0,L|140:92,1,75,4|0,0:0|0:0,0:0:0:0:
436,280,162228,2,0,L|344:272,1,75,4|0,0:0|0:0,0:0:0:0:
244,184,162615,1,4,0:0:0:0:
268,208,162809,5,0,0:0:0:0:
276,244,162906,1,0,0:0:0:0:
284,280,163002,1,4,0:0:0:0:
300,224,163196,5,0,0:0:0:0:
311,278,163293,1,0,0:0:0:0:
324,333,163389,5,6,0:0:0:0:
332,328,163777,5,0,0:0:0:0:
356,292,163906,1,0,0:0:0:0:
372,336,164035,1,0,0:0:0:0:
408,308,164164,5,2,0:0:0:0:
439,260,164293,1,0,0:0:0:0:
461,318,164422,1,0,0:0:0:0:
420,220,164551,5,0,0:0:0:0:
404,216,164615,1,0,0:0:0:0:
388,212,164680,1,0,0:0:0:0:
372,208,164744,1,0,0:0:0:0:
356,204,164809,1,0,0:0:0:0:
340,200,164873,1,0,0:0:0:0:
