osu file format v12

[General]
AudioFilename: [AMV]ONEWAYS - The Boy Who Murdered Love.mp3
AudioLeadIn: 0
PreviewTime: 47802
Countdown: 0
SampleSet: Soft
StackLeniency: 0.7
Mode: 0
LetterboxInBreaks: 0
WidescreenStoryboard: 1

[Editor]
DistanceSpacing: 1.3
BeatDivisor: 4
GridSize: 4
TimelineZoom: 1

[Metadata]
Title:The Boy Who Murdered Love
TitleUnicode:The Boy Who Murdered Love
Artist:Diana Vickers
ArtistUnicode:Diana Vickers
Creator:Chewin
Version:Hard
Source:
Tags:Hyouka ONEWAYS Songs from the Tainted Cherry Tree Indie Andrea osuplayer111 amv anime
BeatmapID:413545
BeatmapSetID:170775

[Difficulty]
HPDrainRate:6
CircleSize:4
OverallDifficulty:6
ApproachRate:7
SliderMultiplier:1.5
SliderTickRate:1

[Events]
//Background and Video events
0,0,"a.png",0,0
Video,0,"prova.avi"
//Break Periods
2,70915,76429
//Storyboard Layer 0 (Background)
//Storyboard Layer 1 (Fail)
//Storyboard Layer 2 (Pass)
//Storyboard Layer 3 (Foreground)
//Storyboard Sound Samples
//Background Colour Transformations
3,100,163,162,255

[TimingPoints]
2684,472.44094488189,4,2,3,30,1,0
10243,-100,4,2,3,40,0,0
18274,-100,4,2,3,50,0,0
27487,-100,4,2,3,50,0,0
48038,-80,4,1,3,60,0,1
63156,-100,4,1,3,60,0,0
64809,-100,4,1,3,80,0,0
65046,-100,4,1,3,60,0,0
66699,-100,4,1,3,80,0,0
66935,-100,4,1,3,60,0,0
70715,-100,4,2,3,50,0,0
78746,-100,4,2,3,50,0,0
87959,-100,4,2,3,40,0,0
88432,-100,4,2,3,40,0,0
93865,-100,4,2,3,50,0,0
108510,-80,4,1,3,60,0,1
123628,-100,4,1,3,60,0,0
125281,-100,4,1,3,80,0,0
125400,-100,4,1,3,60,0,0
127171,-100,4,1,3,80,0,0
127290,-100,4,1,3,60,0,0
131187,-90.9090909090909,4,1,3,60,0,1
132841,-90.9090909090909,4,1,3,80,0,1
132959,-90.9090909090909,4,1,3,60,0,1
134731,-90.9090909090909,4,1,3,80,0,1
134849,-90.9090909090909,4,1,3,60,0,1
138746,-100,4,2,3,40,0,0
139691,-100,4,2,3,30,0,0
140636,-100,4,2,3,20,0,0
141581,-100,4,2,3,10,0,0
142526,-100,4,2,3,5,0,0

[Colours]
Combo1 : 255,187,119
Combo2 : 255,47,255
Combo3 : 0,232,116
Combo4 : 251,251,251

[HitObjects]
144,316,2683,6,0,L|56:320,1,75,0|0,1:0|1:0,0:0:0:0:
200,248,3156,2,0,P|272:240|344:280,1,150,0|0,1:0|1:0,0:0:0:0:
256,336,3865,1,0,0:0:0:0:
200,248,4101,2,0,L|192:148,1,75,0|0,1:0|0:0,0:0:0:0:
128,104,4573,6,0,P|212:80|272:116,1,150,0|0,1:0|1:0,0:0:0:0:
300,196,5282,1,0,0:0:0:0:
364,124,5518,2,0,L|456:116,1,75,0|0,1:0|0:0,0:0:0:0:
492,208,5991,2,0,L|417:214,1,75,0|0,1:0|0:0,0:0:0:0:
352,300,6463,6,0,P|288:284|204:316,1,150,0|0,1:0|1:0,0:0:0:0:
128,364,7172,1,0,0:0:0:0:
64,292,7408,2,0,L|68:200,1,75,0|0,1:0|0:0,0:0:0:0:
168,152,7880,2,0,L|164:226,1,75,0|0,1:0|0:0,0:0:0:0:
112,80,8353,6,0,P|188:64|252:120,1,150,0|0,1:0|1:0,0:0:0:0:
260,200,9061,1,0,0:0:0:0:
164,226,9298,2,0,L|168:152,1,75,0|0,1:0|0:0,0:0:0:0:
264,126,9770,2,0,L|260:200,1,75,0|0,1:0|0:0,0:0:0:0:
352,164,10243,6,0,L|356:90,1,75,4|0,0:0|0:0,0:0:0:0:
440,152,10715,2,0,P|456:220|436:300,1,150,0|0,1:0|0:0,0:0:0:0:
368,364,11424,1,0,0:0:0:0:
312,284,11660,2,0,P|244:264|168:292,1,150,0|0,1:0|0:0,0:0:0:0:
100,356,12369,1,0,0:0:0:0:
40,280,12605,6,0,L|48:128,1,150,0|0,1:0|0:0,0:0:0:0:
116,64,13313,1,0,0:0:0:0:
172,144,13550,2,0,P|228:168|316:136,1,150,0|0,1:0|0:0,0:0:0:0:
372,68,14258,1,0,0:0:0:0:
432,144,14495,6,0,L|424:308,1,150,0|0,1:0|0:0,0:0:0:0:
360,368,15203,1,0,0:0:0:0:
308,284,15439,2,0,L|315:134,1,150,0|0,1:0|0:0,0:0:0:0:
252,60,16148,1,0,0:0:0:0:
200,144,16384,6,0,L|192:293,1,150,0|0,1:0|0:0,0:0:0:0:
116,356,17093,1,0,0:0:0:0:
88,264,17329,2,0,L|92:164,1,75,0|0,1:0|0:0,0:0:0:0:
96,92,17802,1,4,0:0:0:0:
280,32,18274,6,0,L|277:106,1,75,0|0,1:0|0:0,0:0:0:0:
204,172,18746,2,0,P|252:200|344:180,1,150,0|0,0:0|1:0,0:0:0:0:
412,116,19455,1,0,0:0:0:0:
476,192,19691,2,0,L|472:288,1,75,0|0,0:0|0:0,0:0:0:0:
408,340,20164,1,0,1:0:0:0:
408,340,20400,2,0,P|352:320|264:348,1,150,0|0,0:0|0:0,0:0:0:0:
172,340,21109,2,0,P|104:360|40:320,1,150,0|0,1:0|0:0,0:0:0:0:
64,128,22054,6,0,P|132:108|200:144,2,150,0|0|0,1:0|0:0|1:0,0:0:0:0:
124,204,23235,1,0,0:0:0:0:
199,143,23471,2,0,L|195:39,1,75,0|0,0:0|0:0,0:0:0:0:
296,16,23943,1,0,1:0:0:0:
296,16,24180,2,0,L|298:90,1,75,0|0,0:0|0:0,0:0:0:0:
400,140,24652,1,0,0:0:0:0:
400,140,24889,2,0,L|397:65,2,75,0|0|0,1:0|0:0|0:0,0:0:0:0:
452,328,25833,6,0,P|412:336|372:328,1,75,0|0,1:0|0:0,0:0:0:0:
284,352,26306,2,0,P|228:324|132:368,1,150,0|0,0:0|1:0,0:0:0:0:
64,300,27014,2,0,L|60:200,1,75,0|0,0:0|0:0,0:0:0:0:
160,156,27487,2,0,L|162:230,1,75,0|0,0:0|1:0,0:0:0:0:
64,128,27959,1,0,0:0:0:0:
64,128,28195,2,0,L|60:28,1,75,0|0,0:0|0:0,0:0:0:0:
160,156,28668,2,0,P|208:180|304:144,1,150,0|0,1:0|0:0,0:0:0:0:
464,336,29613,6,0,L|376:348,1,75,0|0,1:0|0:0,0:0:0:0:
296,328,30085,2,0,P|244:304|148:344,1,150,0|0,0:0|1:0,0:0:0:0:
64,356,30794,1,0,0:0:0:0:
80,260,31030,2,0,L|76:176,1,75,0|0,0:0|0:0,0:0:0:0:
168,152,31502,2,0,L|171:226,1,75,0|0,1:0|0:0,0:0:0:0:
256,272,31975,1,0,0:0:0:0:
272,176,32211,2,0,L|268:92,1,75,0|0,0:0|1:0,0:0:0:0:
408,32,32684,5,0,0:0:0:0:
408,32,32802,1,0,0:0:0:0:
408,32,32920,2,0,P|420:104|408:188,1,150,4|0,0:0|1:0,0:0:0:0:
336,240,33628,1,0,0:0:0:0:
388,324,33865,2,0,L|472:316,1,75,0|0,0:0|0:0,0:0:0:0:
336,240,34337,1,0,1:0:0:0:
288,352,34573,5,0,0:0:0:0:
288,352,34691,1,0,0:0:0:0:
288,352,34809,2,0,P|216:336|140:352,1,150,0|0,0:0|1:0,0:0:0:0:
60,296,35518,2,0,L|56:196,1,75,0|0,0:0|0:0,0:0:0:0:
156,168,35991,2,0,L|158:242,1,75,0|0,0:0|1:0,0:0:0:0:
260,180,36463,5,0,0:0:0:0:
260,180,36581,1,0,0:0:0:0:
260,180,36699,2,0,P|268:112|252:28,2,150,0|0|0,0:0|1:0|0:0,0:0:0:0:
196,256,37880,1,0,0:0:0:0:
240,344,38117,1,0,1:0:0:0:
324,300,38353,6,0,L|416:296,2,75,0|0|0,0:0|0:0|0:0,0:0:0:0:
240,344,39061,1,0,1:0:0:0:
196,256,39298,2,0,P|136:232|56:272,1,150,0|0,0:0|0:0,0:0:0:0:
132,332,40006,1,0,1:0:0:0:
196,256,40243,2,0,L|192:172,1,75,0|4,0:0|0:0,0:0:0:0:
336,48,40951,6,0,P|384:32|476:80,1,150,0|0,1:0|0:0,0:0:0:0:
392,128,41660,1,0,0:0:0:0:
320,192,41896,2,0,L|212:184,1,75,0|0,1:0|0:0,0:0:0:0:
200,272,42369,6,0,P|136:288|48:240,1,150,0|0,0:0|1:0,0:0:0:0:
76,160,43077,2,0,P|140:144|228:192,1,150,0|0,0:0|0:0,0:0:0:0:
200,272,43786,1,0,1:0:0:0:
372,368,44258,6,0,L|468:360,1,75,4|0,0:0|0:0,0:0:0:0:
404,272,44731,1,0,1:0:0:0:
308,296,44967,2,0,P|252:272|160:300,1,150,4|0,0:0|0:0,0:0:0:0:
92,352,45676,1,0,1:0:0:0:
60,260,45912,6,0,L|56:160,1,75,0|0,1:0|1:0,0:0:0:0:
152,124,46384,2,0,L|154:198,1,75,0|0,1:0|1:0,0:0:0:0:
224,268,46857,2,0,P|288:300|376:268,1,150,0|0,1:0|1:0,0:0:0:0:
400,192,47565,1,0,1:0:0:0:
155,54,48038,6,0,L|148:148,1,93.75,4|0,0:0|0:0,0:0:0:0:
36,192,48510,2,0,L|43:98,1,93.75,0|0,0:0|0:0,0:0:0:0:
256,176,48983,6,0,L|249:270,1,93.75,0|0,0:0|0:0,0:0:0:0:
137,314,49455,2,0,L|144:220,1,93.75,0|0,0:0|0:0,0:0:0:0:
368,276,49928,2,0,L|361:370,1,93.75,0|0,0:0|0:0,0:0:0:0:
249,270,50400,5,0,0:0:0:0:
312,168,50636,1,0,0:0:0:0:
368,276,50872,2,0,L|468:272,2,93.75,0|0|0,0:0|0:0|0:0,0:0:0:0:
272,352,51581,1,0,0:0:0:0:
272,352,51699,1,0,0:0:0:0:
272,352,51817,2,0,L|160:344,1,93.75,0|0,0:0|0:0,0:0:0:0:
72,284,52290,6,0,P|64:228|72:188,1,93.75,0|0,0:0|0:0,0:0:0:0:
20,216,52762,2,0,P|36:156|60:128,1,93.75,0|0,0:0|0:0,0:0:0:0:
0,116,53235,2,0,P|36:88|96:84,1,93.75,0|0,0:0|0:0,0:0:0:0:
44,40,53707,2,0,P|96:36|140:64,1,93.75,0|0,0:0|0:0,0:0:0:0:
164,164,54180,5,0,0:0:0:0:
252,80,54416,1,0,0:0:0:0:
252,80,54652,2,0,L|356:72,2,93.75,0|0|0,0:0|0:0|0:0,0:0:0:0:
164,164,55361,1,0,0:0:0:0:
164,164,55479,1,0,0:0:0:0:
164,164,55597,2,0,P|156:220|168:272,1,93.75,0|0,0:0|0:0,0:0:0:0:
252,340,56069,6,0,L|352:336,1,93.75,0|0,0:0|0:0,0:0:0:0:
392,224,56542,2,0,L|298:227,1,93.75,0|0,0:0|0:0,0:0:0:0:
236,332,57014,6,0,L|336:328,1,93.75,0|0,0:0|0:0,0:0:0:0:
376,216,57487,2,0,L|282:219,1,93.75,0|0,0:0|0:0,0:0:0:0:
184,148,57959,5,0,0:0:0:0:
128,256,58195,1,0,0:0:0:0:
60,156,58432,2,0,L|56:48,1,93.75,0|0,0:0|0:0,0:0:0:0:
184,148,58904,1,0,0:0:0:0:
184,148,59140,6,0,P|252:168|348:100,1,187.5,0|0,0:0|0:0,0:0:0:0:
244,40,59849,1,0,0:0:0:0:
184,148,60085,2,0,L|188:264,1,93.75,0|0,0:0|0:0,0:0:0:0:
256,344,60558,1,0,0:0:0:0:
256,344,60794,1,0,0:0:0:0:
356,272,61030,5,0,0:0:0:0:
244,40,61502,1,0,0:0:0:0:
40,192,61975,2,0,P|24:256|84:364,1,187.5,0|0,0:0|0:0,0:0:0:0:
140,260,62684,1,0,0:0:0:0:
140,260,63156,6,0,L|136:152,1,75,4|0,0:0|0:0,0:0:0:0:
212,316,63628,1,0,0:0:0:0:
232,220,63865,2,0,P|300:200|376:264,1,150,4|0,0:0|0:0,0:0:0:0:
288,300,64573,1,0,0:0:0:0:
232,220,64809,6,0,L|224:56,1,150,4|0,0:0|0:0,0:0:0:0:
132,40,65518,1,0,0:0:0:0:
132,40,65754,2,0,L|139:189,1,150,4|0,0:0|0:0,0:0:0:0:
44,212,66463,1,0,0:0:0:0:
44,212,66699,6,0,L|36:62,2,150,4|0|4,0:0|0:0|0:0,0:0:0:0:
44,308,67880,2,0,P|104:348|192:312,1,150,0|0,0:0|0:0,0:0:0:0:
256,280,68589,1,0,0:0:0:0:
332,340,68825,2,0,L|432:332,2,75,4|0|0,0:0|0:0|0:0,0:0:0:0:
204,192,69770,5,0,0:0:0:0:
380,108,70243,1,0,0:0:0:0:
384,304,70715,1,4,0:0:0:0:
320,144,77329,5,0,0:0:0:0:
408,108,77565,1,0,0:0:0:0:
408,204,77802,2,0,P|424:276|416:351,1,150,0|0,1:0|0:0,0:0:0:0:
328,308,78510,1,0,0:0:0:0:
235,278,78746,6,0,L|232:352,1,75,0|0,1:0|0:0,0:0:0:0:
308,212,79218,2,0,P|260:184|168:204,1,150,0|0,0:0|1:0,0:0:0:0:
100,268,79927,1,0,0:0:0:0:
40,192,80163,2,0,L|44:96,1,75,0|0,0:0|0:0,0:0:0:0:
104,44,80636,1,0,1:0:0:0:
104,44,80872,2,0,P|164:68|248:36,1,150,0|0,0:0|0:0,0:0:0:0:
336,68,81581,2,0,P|384:52|480:104,1,150,0|0,1:0|0:0,0:0:0:0:
380,264,82526,6,0,L|388:168,1,75,0|0,1:0|0:0,0:0:0:0:
292,212,82998,2,0,P|276:272|344:360,1,150,0|0,0:0|1:0,0:0:0:0:
380,264,83707,1,0,0:0:0:0:
292,212,83943,2,0,L|208:216,1,75,0|0,0:0|0:0,0:0:0:0:
176,304,84416,2,0,L|72:296,1,75,0|0,1:0|0:0,0:0:0:0:
48,216,84888,6,0,P|32:140|40:68,1,150,0|0,0:0|1:0,0:0:0:0:
132,32,85597,1,0,0:0:0:0:
184,116,85833,2,0,L|284:112,1,75,0|0,0:0|0:0,0:0:0:0:
344,160,86306,5,0,1:0:0:0:
408,88,86542,1,0,0:0:0:0:
468,164,86778,2,0,P|488:220|480:312,1,150,0|0,0:0|1:0,0:0:0:0:
392,352,87487,1,0,0:0:0:0:
300,324,87723,6,0,L|208:328,1,75,0|0,0:0|0:0,0:0:0:0:
140,376,88195,2,0,P|128:332|140:280,1,75,0|0,1:0|0:0,0:0:0:0:
196,232,88668,2,0,P|208:156|196:76,1,150,0|0,0:0|1:0,0:0:0:0:
120,24,89376,1,0,0:0:0:0:
48,92,89613,2,0,P|44:140|48:180,1,75,0|0,0:0|0:0,0:0:0:0:
68,260,90085,5,0,1:0:0:0:
68,260,90321,1,0,0:0:0:0:
140,324,90558,2,0,P|200:304|292:360,1,150,0|0,0:0|1:0,0:0:0:0:
360,288,91266,1,0,0:0:0:0:
428,356,91502,6,0,L|512:348,1,75,0|0,0:0|0:0,0:0:0:0:
456,264,91975,1,0,1:0:0:0:
360,288,92211,2,0,P|300:312|216:272,1,150,0|0,0:0|0:0,0:0:0:0:
208,184,92920,1,0,1:0:0:0:
300,156,93156,5,0,0:0:0:0:
300,156,93274,1,0,0:0:0:0:
300,156,93392,2,0,L|292:252,1,75,4|0,0:0|0:0,0:0:0:0:
208,184,93865,2,0,P|196:120|212:32,1,150,0|0,1:0|0:0,0:0:0:0:
300,0,94573,1,0,0:0:0:0:
352,84,94809,2,0,L|456:80,1,75,0|0,1:0|0:0,0:0:0:0:
468,168,95282,6,0,P|484:236|464:328,1,150,0|0,0:0|1:0,0:0:0:0:
380,356,95991,2,0,B|340:372|304:356|304:356|268:340|204:364,1,150,0|0,0:0|0:0,0:0:0:0:
196,268,96699,1,0,1:0:0:0:
288,232,96935,5,0,0:0:0:0:
288,232,97054,1,0,0:0:0:0:
288,232,97172,2,0,L|292:140,1,75,0|0,0:0|0:0,0:0:0:0:
202,118,97644,2,0,L|196:268,1,150,0|0,1:0|0:0,0:0:0:0:
128,336,98353,1,0,0:0:0:0:
128,336,98589,1,0,1:0:0:0:
60,268,98825,6,0,B|52:224|60:192|60:192|68:164|60:108,1,150,0|0,0:0|0:0,0:0:0:0:
132,52,99534,1,0,1:0:0:0:
204,120,99770,2,0,B|210:164|202:192|202:192|194:224|202:268,1,150,0|0,0:0|0:0,0:0:0:0:
276,332,100479,1,0,1:0:0:0:
344,260,100715,5,0,0:0:0:0:
344,260,100833,1,0,0:0:0:0:
344,260,100951,2,0,L|444:256,1,75,4|0,0:0|0:0,0:0:0:0:
276,332,101424,2,0,P|212:312|120:340,1,150,0|0,1:0|0:0,0:0:0:0:
40,364,102132,1,0,0:0:0:0:
60,268,102369,2,0,L|56:184,1,75,0|0,1:0|0:0,0:0:0:0:
0,112,102841,6,0,P|56:96|140:144,1,150,0|0,0:0|1:0,0:0:0:0:
204,204,103550,2,0,P|272:220|340:168,1,150,0|0,0:0|0:0,0:0:0:0:
356,84,104258,1,0,1:0:0:0:
204,204,104731,6,0,L|208:292,1,75,4|0,0:0|0:0,0:0:0:0:
268,356,105203,1,0,1:0:0:0:
328,280,105439,2,0,P|380:260|472:312,1,150,4|0,0:0|0:0,0:0:0:0:
384,356,106148,1,0,1:0:0:0:
328,280,106384,6,0,L|336:120,1,150,0|0,1:0|1:0,0:0:0:0:
280,48,107093,1,0,1:0:0:0:
224,128,107329,2,0,L|216:277,1,150,0|0,1:0|1:0,0:0:0:0:
272,360,108038,1,0,1:0:0:0:
448,192,108510,6,0,P|400:180|352:192,1,93.75,4|0,0:0|0:0,0:0:0:0:
308,76,108983,2,0,P|264:108|252:168,1,93.75,0|0,0:0|0:0,0:0:0:0:
132,112,109455,2,0,P|124:172|168:228,1,93.75,0|0,0:0|0:0,0:0:0:0:
64,300,109928,2,0,P|104:332|168:324,1,93.75,0|0,0:0|0:0,0:0:0:0:
256,280,110400,1,0,0:0:0:0:
256,280,110636,1,0,0:0:0:0:
367,333,110872,6,0,P|413:330|448:300,1,93.75,0|0,0:0|0:0,0:0:0:0:
388,192,111345,1,0,0:0:0:0:
448,84,111581,2,0,P|413:53|367:50,1,93.75,0|0,0:0|0:0,0:0:0:0:
284,140,112054,2,0,P|228:172|116:128,1,187.5,0|0,0:0|0:0,0:0:0:0:
208,48,112762,6,0,L|200:156,1,93.75,0|0,0:0|0:0,0:0:0:0:
296,216,113235,2,0,L|303:123,1,93.75,0|0,0:0|0:0,0:0:0:0:
192,32,113707,6,0,L|185:125,1,93.75,0|0,0:0|0:0,0:0:0:0:
312,236,114180,2,0,L|319:143,1,93.75,0|0,0:0|0:0,0:0:0:0:
388,44,114652,5,0,0:0:0:0:
388,44,114888,1,0,0:0:0:0:
452,156,115124,2,0,L|445:249,1,93.75,0|0,0:0|0:0,0:0:0:0:
368,344,115597,1,0,0:0:0:0:
288,252,115833,1,0,0:0:0:0:
288,252,115951,1,0,0:0:0:0:
288,252,116069,2,0,L|295:159,1,93.75,0|0,0:0|0:0,0:0:0:0:
236,52,116542,6,0,P|184:36|124:56,1,93.75
68,136,117014,2,0,L|60:244,1,93.75
172,284,117487,2,0,L|178:190,1,93.75
294,158,117959,2,0,L|288:252,1,93.75
344,360,118432,5,0,0:0:0:0:
344,360,118668,1,0,0:0:0:0:
412,260,118904,2,0,P|416:196|408:156,1,93.75
328,80,119376,1,0,0:0:0:0:
236,160,119613,6,0,P|168:192|68:136,1,187.5,0|0,0:0|0:0,0:0:0:0:
164,56,120321,1,0,0:0:0:0:
236,160,120558,2,0,L|232:288,1,93.75,0|0,0:0|0:0,0:0:0:0:
224,376,121030,1,0,0:0:0:0:
224,376,121266,1,0,0:0:0:0:
332,324,121502,5,0,0:0:0:0:
268,88,121975,1,0,0:0:0:0:
40,204,122447,2,0,P|24:268|84:376,1,187.5,0|0,0:0|0:0,0:0:0:0:
148,268,123157,1,0,0:0:0:0:
332,188,123628,6,0,L|336:80,1,75,4|0,0:0|0:0,0:0:0:0:
408,48,124100,1,0,0:0:0:0:
468,124,124337,2,0,P|488:188|464:276,1,150,4|0,0:0|0:0,0:0:0:0:
400,332,125045,1,0,0:0:0:0:
324,272,125282,6,0,P|256:264|160:304,1,150,4|0,0:0|0:0,0:0:0:0:
96,340,125990,1,0,0:0:0:0:
56,252,126227,2,0,P|40:180|60:96,1,150,4|0,0:0|0:0,0:0:0:0:
116,32,126935,1,0,0:0:0:0:
180,104,127172,6,0,L|336:92,2,150,4|0|4,0:0|0:0|0:0,0:0:0:0:
128,188,128353,2,0,P|108:252|136:340,1,150,0|0,0:0|0:0,0:0:0:0:
200,260,129061,1,0,0:0:0:0:
268,188,129298,2,0,L|264:92,2,75,4|0|0,0:0|0:0|0:0,0:0:0:0:
360,360,130243,5,0,0:0:0:0:
496,220,130715,1,0,0:0:0:0:
312,112,131187,6,0,L|320:12,2,82.5000025177003,4|0|0,0:0|0:0|0:0,0:0:0:0:
216,160,131896,2,0,P|196:216|212:328,1,165.000005035401,4|0,0:0|0:0,0:0:0:0:
304,368,132605,1,0,0:0:0:0:
392,308,132841,6,0,P|412:240|396:132,1,165.000005035401,4|0,0:0|0:0,0:0:0:0:
332,64,133550,1,0,0:0:0:0:
248,132,133786,2,0,P|232:204|252:304,1,165.000005035401,4|0,0:0|0:0,0:0:0:0:
304,368,134495,1,0,0:0:0:0:
392,308,134731,6,0,P|412:240|396:132,2,165.000005035401
304,368,135912,2,0,L|132:364,1,165.000005035401,0|0,0:0|0:0,0:0:0:0:
76,280,136621,1,0,0:0:0:0:
168,228,136857,2,0,P|172:176|164:124,1,82.5000025177003,4|0,0:0|0:0,0:0:0:0:
140,68,137329,5,0,0:0:0:0:
300,28,137802,1,0,0:0:0:0:
340,188,138274,1,0,0:0:0:0:
168,228,138746,1,4,0:0:0:0:
256,192,138865,12,0,142526,0:0:0:0:
