osu file format v14

[General]
AudioFilename: Spinning World.mp3
AudioLeadIn: 0
PreviewTime: 55696
Countdown: 0
SampleSet: Soft
StackLeniency: 0.7
Mode: 0
LetterboxInBreaks: 0
WidescreenStoryboard: 0

[Editor]
DistanceSpacing: 0.9
BeatDivisor: 4
GridSize: 4
TimelineZoom: 1.4

[Metadata]
Title:Spinning World (Anime Ver.)
TitleUnicode:Spinning World (Anime Ver.)
Artist:Diana Garnet
ArtistUnicode:ダイアナガーネット
Creator:-Sh1n1-
Version:Normal
Source:NARUTO-ナルト-疾風伝
Tags:Shippuden seventh team uzumaki uchiha sasuke haruno sakura hatake kakashi CSLM CSLMVenezuela Natsu Sotarks shini ending ed32
BeatmapID:909625
BeatmapSetID:420458

[Difficulty]
HPDrainRate:4.5
CircleSize:3.5
OverallDifficulty:4
ApproachRate:5
SliderMultiplier:1.2
SliderTickRate:1

[Events]
//Background and Video events
0,0,"NarutoBG.jpg",0,0
Video,0,"Naruto Shippuuden ED 32.avi"
//Break Periods
//Storyboard Layer 0 (Background)
//Storyboard Layer 1 (Fail)
//Storyboard Layer 2 (Pass)
//Storyboard Layer 3 (Foreground)
//Storyboard Sound Samples

[TimingPoints]
638,352.941176470588,4,2,1,50,1,0
10696,-100,4,2,1,40,0,0
11932,-100,4,2,2,50,0,0
17402,-100,4,2,1,40,0,0
17667,-100,4,2,2,50,0,0
22520,-100,4,2,2,40,0,0
23226,-100,4,2,1,50,0,0
32579,-100,4,2,2,50,0,0
32755,-100,4,2,1,50,0,0
32932,-100,4,2,2,50,0,0
33461,-100,4,2,1,50,0,0
33990,-100,4,2,1,40,0,0
34520,-100,4,2,1,50,0,1
34608,-100,4,2,1,50,0,0
45108,-100,4,2,1,60,0,0
45814,-100,4,2,1,50,0,0
51461,-100,4,2,1,40,0,0
52167,-100,4,2,1,50,0,0
52873,-100,4,2,1,60,0,0
53579,-100,4,2,1,70,0,0
54285,-100,4,2,1,80,0,0
54990,-100,4,2,1,85,0,0
55696,-100,4,2,1,35,0,0
56226,-100,4,2,1,50,0,0
56932,-100,4,2,1,60,0,1
66990,-100,4,2,1,60,0,0
68226,-100,4,2,1,60,0,1
79696,-100,4,2,1,80,0,0
80402,-100,4,2,1,80,0,0
81108,-100,4,2,1,70,0,0
81814,-100,4,2,1,60,0,0
82520,-100,4,2,1,50,0,0
86932,-100,4,2,1,40,0,0

[Colours]
Combo1 : 145,145,255
Combo2 : 255,255,128
Combo3 : 255,128,255
Combo4 : 133,133,133

[HitObjects]
160,344,638,6,0,B|140:288|140:288|153:223,1,120,6|8,0:0|0:0,0:0:0:0:
244,172,1343,2,0,P|304:164|364:172,1,120,2|8,0:0|0:0,0:0:0:0:
412,192,1873,1,0,0:0:0:0:
460,216,2049,2,0,P|488:160|488:104,1,120,2|8,0:0|0:0,0:0:0:0:
404,32,2755,2,0,B|364:28|364:28|324:36|324:36|284:32,1,120,2|8,0:0|0:0,0:0:0:0:
176,24,3461,6,0,P|115:28|64:74,1,120,2|8,0:0|0:0,0:0:0:0:
157,130,4167,2,0,B|164:184|164:184|160:256,1,120,2|8,0:0|0:0,0:0:0:0:
180,300,4696,1,0,0:0:0:0:
228,328,4873,2,0,B|288:344|288:344|356:332,1,120,2|8,0:0|0:0,0:0:0:0:
448,304,5579,2,0,P|464:240|468:180,1,120,2|8,0:0|0:0,0:0:0:0:
420,88,6285,6,0,B|352:76|352:76|288:92,1,120,6|8,0:0|0:0,0:0:0:0:
252,184,6990,2,0,B|184:196|184:196|120:180,1,120,2|8,0:0|0:0,0:0:0:0:
84,160,7520,1,0,0:0:0:0:
40,128,7696,2,0,L|24:252,1,120,2|8,0:0|0:0,0:0:0:0:
76,344,8402,2,0,P|132:336|204:356,1,120,2|8,0:0|0:0,0:0:0:0:
300,352,9108,6,0,B|312:272|312:272|296:216,1,120,6|8,0:0|0:0,0:0:0:0:
300,180,9637,2,0,P|368:180|420:200,1,120,0|0,0:0|0:0,0:0:0:0:
472,200,10167,2,0,B|504:112|436:112|472:20,2,180,8|8|2,0:0|0:0|0:0,0:0:0:0:
448,248,11402,2,0,L|420:376,1,120,8|8,0:0|0:0,0:0:0:0:
372,348,11932,6,0,P|308:340|252:356,1,120,6|2,0:0|0:0,0:0:0:0:
148,352,12637,2,0,P|128:292|132:228,1,120,2|2,0:0|0:0,0:0:0:0:
160,192,13167,1,0,0:0:0:0:
208,168,13343,2,0,B|268:156|268:180|328:168,1,120,2|2,0:0|0:0,0:0:0:0:
416,104,14049,2,0,L|384:44,2,60,2|0|2,0:0|0:0|0:0,0:0:0:0:
464,132,14579,1,0,0:0:0:0:
480,184,14755,6,0,P|472:248|432:296,1,120,2|2,0:0|0:0,0:0:0:0:
332,268,15461,2,0,B|276:256|276:256|212:268,1,120,2|2,0:0|0:0,0:0:0:0:
120,324,16167,1,2,0:0:0:0:
40,252,16520,1,2,0:0:0:0:
76,152,16873,1,2,0:0:0:0:
184,160,17226,2,0,L|244:148,1,60,2|8,0:0|0:0,0:0:0:0:
292,168,17579,6,0,P|356:164|404:136,1,120,8|2,0:0|0:0,0:0:0:0:
480,60,18285,2,0,B|500:120|500:120|496:188,1,120,2|2,0:0|0:0,0:0:0:0:
480,228,18814,1,0,0:0:0:0:
464,280,18990,2,0,B|344:304,1,120,2|2,0:0|0:0,0:0:0:0:
248,264,19696,1,2,0:0:0:0:
148,308,20049,1,2,0:0:0:0:
60,244,20402,6,0,P|56:178|68:120,1,120,2|2,0:0|0:0,0:0:0:0:
104,84,20932,2,0,B|164:64|164:100|224:84,1,120,0|0,0:0|0:0,0:0:0:0:
324,52,21637,2,0,L|312:176,1,120,0|0,0:0|0:0,0:0:0:0:
308,224,22167,1,2,0:0:0:0:
244,312,22520,2,0,P|188:280|132:284,1,120,2|2,0:0|0:0,0:0:0:0:
88,256,23049,1,2,0:0:0:0:
60,208,23226,6,0,B|52:136|52:136|64:76,1,120,6|8,0:0|0:0,0:0:0:0:
160,44,23932,2,0,B|196:40|196:40|244:48|244:48|280:44,1,120,2|8,0:0|0:0,0:0:0:0:
352,124,24637,2,0,B|339:181|339:181|351:245,1,120,2|8,0:0|0:0,0:0:0:0:
372,292,25167,2,0,B|320:324|320:324|260:336,1,120,0|0,0:0|0:0,0:0:0:0:
208,324,25696,1,8,0:0:0:0:
112,276,26049,6,0,B|96:212|96:212|97:155,1,120,2|8,0:0|0:0,0:0:0:0:
172,80,26755,2,0,B|187:143|187:143|186:200,1,120,2|8,0:0|0:0,0:0:0:0:
188,252,27285,2,0,P|244:244|308:256,1,120,0|0,0:0|0:0,0:0:0:0:
356,272,27814,1,8,0:0:0:0:
460,300,28167,6,0,B|472:236|472:236|464:180,1,120,2|8,0:0|0:0,0:0:0:0:
436,136,28696,2,0,B|388:120|388:120|348:124|312:120,1,120,0|2,0:0|0:0,0:0:0:0:
264,108,29226,1,8,0:0:0:0:
168,60,29579,2,0,L|128:176,1,120,2|8,0:0|0:0,0:0:0:0:
172,204,30108,2,0,P|196:256|176:320,1,120,0|0,0:0|0:0,0:0:0:0:
160,364,30637,1,8,0:0:0:0:
268,364,30990,6,0,P|320:344|392:352,1,120,2|8,0:0|0:0,0:0:0:0:
436,360,31520,2,0,P|476:272|468:172,1,180,0|8,0:0|0:0,0:0:0:0:
420,96,32402,2,0,P|364:76|292:92,1,120,2|8,0:0|0:0,0:0:0:0:
208,132,33108,2,0,P|150:142|94:122,2,120,2|8|2,0:0|0:0|0:0,0:0:0:0:
305,85,34167,2,0,L|317:149,1,60,8|0,0:0|0:0,0:0:0:0:
352,184,34520,6,0,B|356:236|356:236|344:308,1,120,6|8,0:0|0:0,0:0:0:0:
336,356,35049,2,0,P|392:348|460:360,1,120,0|0,0:0|0:0,0:0:0:0:
496,256,35755,2,0,B|500:140|500:140|488:76,1,180,2|8,0:0|0:0,0:0:0:0:
384,104,36637,6,0,P|324:104|264:64,1,120,2|8,0:0|0:0,0:0:0:0:
184,12,37343,2,0,L|156:136,1,120,2|8,0:0|0:0,0:0:0:0:
208,152,37873,2,0,P|223:208|203:264,1,120,0|0,0:0|0:0,0:0:0:0:
124,340,38579,2,0,P|204:376|288:332,1,180,2|8,0:0|0:0,0:0:0:0:
300,232,39461,6,0,P|356:216|416:228,1,120,2|8,0:0|0:0,0:0:0:0:
508,280,40167,2,0,L|500:160,1,120,6|8,0:0|0:0,0:0:0:0:
484,108,40696,2,0,P|420:96|368:108,1,120,0|0,0:0|0:0,0:0:0:0:
316,132,41226,1,8,0:0:0:0:
268,152,41402,2,0,P|164:136|132:52,1,180,2|8,0:0|0:0,0:0:0:0:
40,20,42285,6,0,L|28:140,1,120,2|8,0:0|0:0,0:0:0:0:
124,192,42990,2,0,B|128:248|128:248|116:312,1,120,2|8,0:0|0:0,0:0:0:0:
116,364,43520,2,0,P|168:348|248:352,1,120,0|0,0:0|0:0,0:0:0:0:
288,356,44049,1,8,0:0:0:0:
340,364,44226,2,0,P|424:316|428:220,1,180,2|8,0:0|0:0,0:0:0:0:
356,168,45108,2,0,P|328:164|296:168,1,60,2|2,0:0|0:0,0:0:0:0:
244,180,45461,2,0,P|216:184|184:180,1,60,8|2,0:0|0:0,0:0:0:0:
136,160,45814,6,0,B|128:100|148:100|136:36,2,120,4|8|2,0:0|0:0|0:0,0:0:0:0:
144,268,46873,1,8,0:0:0:0:
244,304,47226,2,0,P|300:296|372:316,1,120,2|8,0:0|0:0,0:0:0:0:
464,340,47932,2,0,L|480:272,1,60,2|0,0:0|0:0,0:0:0:0:
448,236,48285,2,0,L|464:168,1,60,8|0,0:0|0:0,0:0:0:0:
432,132,48637,6,0,B|360:100|360:100|300:104,1,120,2|8,0:0|0:0,0:0:0:0:
232,168,49343,1,2,0:0:0:0:
132,124,49696,1,8,0:0:0:0:
40,180,50049,2,0,P|28:240|52:299,1,120,2|8,0:0|0:0,0:0:0:0:
144,348,50755,2,0,L|220:340,1,60,2|0,0:0|0:0,0:0:0:0:
252,316,51108,2,0,L|328:324,1,60,8|0,0:0|0:0,0:0:0:0:
364,328,51461,1,6,0:0:0:0:
472,332,51814,6,0,P|476:304|472:268,1,60,8|8,0:0|0:0,0:0:0:0:
428,240,52167,2,0,L|446:165,1,60,2|0,0:0|0:0,0:0:0:0:
408,142,52520,2,0,L|426:67,1,60,8|0,0:0|0:0,0:0:0:0:
396,36,52873,1,2,0:0:0:0:
308,100,53226,6,0,L|288:168,1,60,8|8,0:0|0:0,0:0:0:0:
240,172,53579,2,0,P|205:169|177:173,1,60,2|0,0:0|0:0,0:0:0:0:
133,201,53932,2,0,P|98:204|70:200,1,60,8|0,0:0|0:0,0:0:0:0:
24,176,54285,6,0,L|12:300,1,120,2|8,0:0|0:0,0:0:0:0:
92,368,54990,2,0,L|160:364,1,60,2|0,0:0|0:0,0:0:0:0:
196,336,55343,2,0,L|264:340,1,60,8|0,0:0|0:0,0:0:0:0:
304,364,55696,6,0,P|362:362|405:322,1,120,8|8,0:0|0:0,0:0:0:0:
376,217,56402,2,0,P|409:213|436:217,2,60,8|8|8,0:0|0:0|0:0,0:0:0:0:
324,224,56932,6,0,B|232:244|232:200|144:224,1,180,6|8,0:0|0:0,0:0:0:0:
92,216,57637,2,0,P|60:152|72:84,1,120,0|0,0:0|0:0,0:0:0:0:
84,56,58167,1,8,0:0:0:0:
124,20,58343,2,0,B|236:44|236:44|300:28,1,180,2|8,0:0|0:0,0:0:0:0:
352,20,59049,2,0,L|472:68,1,120,0|0,0:0|0:0,0:0:0:0:
404,156,59755,6,0,P|344:228|384:304,1,180,2|8,0:0|0:0,0:0:0:0:
416,336,60461,2,0,L|292:356,1,120,0|0,0:0|0:0,0:0:0:0:
212,288,61167,2,0,B|204:208|204:208|216:160,1,120,2|0,0:0|0:0,0:0:0:0:
232,120,61696,1,8,0:0:0:0:
124,116,62049,6,0,B|136:52,2,60,2|0|8,0:0|0:0|0:0,0:0:0:0:
84,152,62579,2,0,P|68:224|84:276,1,120,6|0,0:0|0:0,0:0:0:0:
120,304,63108,1,8,0:0:0:0:
224,276,63461,2,0,B|224:244|224:244|220:212,2,60,2|0|8,0:0|0:0|0:0,0:0:0:0:
256,320,63991,2,0,P|312:332|372:320,1,120,4|0,0:0|0:0,0:0:0:0:
424,300,64520,1,8,0:0:0:0:
492,216,64873,6,0,B|496:184|496:184|492:156,1,60,2|0,0:0|0:0,0:0:0:0:
473,105,65226,1,8,0:0:0:0:
428,76,65402,2,0,L|300:64,1,120,0|0,0:0|0:0,0:0:0:0:
200,48,66108,1,0,0:0:0:0:
172,92,66285,2,0,P|168:120|172:156,1,60,2|0,0:0|0:0,0:0:0:0:
204,192,66637,2,0,P|208:220|204:256,1,60,8|0,0:0|0:0,0:0:0:0:
200,304,66990,6,0,P|256:316|332:296,1,120,12|8,0:0|0:0,0:0:0:0:
424,284,67696,2,0,B|424:316|424:316|420:352,2,60,6|8|8,0:0|0:0|0:0,0:0:0:0:
400,236,68226,6,0,P|368:156|392:64,1,180,6|8,0:0|0:0,0:0:0:0:
424,28,68931,1,0,0:0:0:0:
316,28,69284,2,0,L|256:28,1,60,0|8,0:0|0:0,0:0:0:0:
200,32,69637,2,0,P|168:100|196:204,1,180,2|8,0:0|0:0,0:0:0:0:
244,196,70343,2,0,B|304:176|304:212|368:192,1,120,0|0,0:0|0:0,0:0:0:0:
412,176,70873,1,8,0:0:0:0:
464,160,71049,6,0,B|490:274|490:274|474:334,1,180,2|8,0:0|0:0,0:0:0:0:
420,344,71755,2,0,P|360:328|304:344,1,120,0|0,0:0|0:0,0:0:0:0:
200,360,72461,2,0,B|180:296|180:296|184:240,1,120,6|0,0:0|0:0,0:0:0:0:
196,192,72990,1,8,0:0:0:0:
272,116,73343,2,0,L|280:44,2,60,2|2|8,0:0|0:0|0:0,0:0:0:0:
304,160,73873,6,0,P|364:204|456:144,1,180,4|8,0:0|0:0,0:0:0:0:
476,116,74579,2,0,B|472:240|472:240|480:304,1,180,4|8,0:0|0:0,0:0:0:0:
496,348,75285,2,0,B|440:356|440:356|368:344|368:344|316:348,1,180,4|8,0:0|0:0,0:0:0:0:
268,364,75990,2,0,P|200:372|156:348,1,120
88,264,76696,1,0,0:0:0:0:
108,212,76873,6,0,L|167:212,2,60,6|8|8,0:0|0:0|0:0,0:0:0:0:
88,160,77402,1,2,0:0:0:0:
72,108,77579,2,0,L|12:108,2,60,6|8|8,0:0|0:0|0:0,0:0:0:0:
92,56,78108,1,2,0:0:0:0:
140,28,78285,6,0,P|200:16|272:36,1,120,6|8,0:0|0:0,0:0:0:0:
296,128,78990,2,0,P|332:140|368:144,1,60,8|8,0:0|0:0,0:0:0:0:
408,144,79343,1,8,0:0:0:0:
460,132,79520,1,8,0:0:0:0:
256,192,79696,12,8,82167,0:0:0:0:
80,248,83579,6,0,P|36:168|80:84,1,180,8|0,0:0|0:0,0:0:0:0:
120,76,84285,2,0,P|148:72|180:76,1,60,8|0,0:0|0:0,0:0:0:0:
232,88,84637,2,0,P|260:92|292:88,1,60,2|0,0:0|0:0,0:0:0:0:
344,72,84990,1,8,0:0:0:0:
448,44,85343,6,0,P|472:92|472:164,1,120,6|8,0:0|0:0,0:0:0:0:
456,208,85873,2,0,P|448:236|448:272,1,60,0|2,0:0|0:0,0:0:0:0:
440,376,86402,2,0,P|380:348|324:344,1,120,8|2,0:0|0:0,0:0:0:0:
272,352,86932,2,0,P|212:346|159:319,1,120,8|0,0:0|0:0,0:0:0:0:
120,280,87461,6,0,B|104:188|140:188|120:100,1,180,8|0,0:0|0:0,0:0:0:0:
108,48,88167,1,2,0:0:0:0:
