osu file format v5

[General]
AudioFilename: 01 Ballrog Boogie.mp3
AudioLeadIn: 0
PreviewTime: 68828
Countdown: 1
SampleSet: Normal
StackLeniency: 0.7
Mode: 0
LetterboxInBreaks: 1
EditorBookmarks: 15867,26457,37046,47635,142935,164113

[Metadata]
Title:Balrog Boogie
Artist:Diablo Swing Orchestra
Creator:CheeseWarlock
Version:Swing Dancer
Source:
Tags:avant-garde metal swing dancing demon

[Difficulty]
HPDrainRate:4
CircleSize:4
OverallDifficulty:4
SliderMultiplier:1.3
SliderTickRate:1

[Events]
//Background and Video events
0,0,"Paramount_June_2004_frm stg.jpg"
//Break Periods
2,37272,46299
2,90196,99276
2,111396,120449
//Storyboard Layer 0 (Background)
//Storyboard Layer 1 (Failing)
//Storyboard Layer 2 (Passing)
//Storyboard Layer 3 (Foreground)
//Storyboard Sound Samples
//Background Colour Transformations
3,100,70,36,36

[TimingPoints]
15878,329.107392314724,4,1,0,100,1
23796,330.207392314725,4,1,0,100,1
26481,331.821701139255,4,1,0,100,1
37072,330.578512396694,4,1,0,100,1
47643,330.578512396694,4,1,0,100,1
58246,330.578512396694,4,2,0,80,1
68604,-100,4,1,0,100,0
84690,330.906684315023,4,1,0,100,1
90008,331.491712707182,4,1,0,100,1
111202,330.578512396694,4,1,0,100,1
132360,331.491712707182,4,2,0,80,1
140304,330.906684315023,4,1,0,100,1
161482,330.906684315023,4,1,0,100,1
164134,330.961442991891,4,2,0,80,1
191583,330.906684315023,4,1,0,100,1
196877,220.604456210015,3,1,0,100,1
207801,220.271594876483,4,1,0,100,1
215510,330.407392314724,4,1,0,100,1
215730,329.40553261767,4,1,0,100,1
221012,335.60613264273,4,1,0,100,1

[Colours]
Combo1 : 239,208,31
Combo2 : 250,38,1
Combo3 : 118,214,31
Combo4 : 241,159,7

[HitObjects]
80,32,15878,1,0
208,128,16536,1,0
336,32,17194,1,0
416,128,17742,1,0
432,352,18510,1,0
336,256,19169,1,0
208,352,19827,1,0
128,256,20375,1,0
144,96,21143,5,0
368,96,21801,1,0
256,224,22460,1,0
256,352,23008,1,0
256,128,23796,1,0
32,224,25116,2,0,C|79:183|128:226|174:184|224:224|268:173|288:144,1,346.666666666667,0|4
384,96,26481,6,4,C|384:160|416:192,1,86.6666666666667,4|8
480,128,27034,1,8
400,240,27476,1,0
480,304,27808,2,8,C|364:290|320:160,1,216.666666666667
304,96,28803,1,8
192,48,29135,2,8,C|146:48|112:96,1,86.6666666666667,0|8
64,144,29688,1,8
96,272,30131,2,0,B|192:240|224:176,1,130,0|8
160,64,31790,6,0,C|148:128|112:144,1,86.6666666666667,0|8
224,128,32343,1,8
80,80,32785,1,0
96,208,33117,2,8,B|253:226|288:171|288:128,1,216.666666666667,8|8
432,144,34112,1,8
432,272,34444,2,0,B|432:336|368:352,1,86.6666666666667,0|8
256,352,34997,1,8
352,256,35440,2,8,C|316:225|277:260|240:224,3,130
112,48,37072,1,4
448,64,47643,6,0,C|452:135|400:192,1,130,4|0
336,224,48193,1,2
336,80,48634,1,8
224,32,48965,2,0,C|160:64|144:144,1,130
256,128,49516,1,2
144,208,49957,1,8
32,144,50287,6,0,C|32:64|96:16,1,130
144,96,50838,1,2
288,48,51279,1,8
416,48,51609,2,0,C|413:132|352:176,1,130
480,160,52160,1,2
384,272,52601,1,8
272,336,52932,2,0,C|256:208|176:304|24:272,1,390
128,176,54254,2,0,B|133:49|256:47|256:47|370:52|384:192,1,390
256,176,55576,2,0,B|256:320,1,130
192,336,57560,5,2
320,336,57890,1,2
256,240,58246,5,0
256,112,58576,1,0
352,112,58796,2,0,B|384:144|384:176,1,43.3333333333333
464,48,59237,1,0
480,144,59458,2,0,B|464:192,1,43.3333333333333
416,288,59898,1,0
336,192,60229,1,0
256,288,60560,1,0
136,288,60890,6,0,B|216:96|-8:272|56:80,1,260
168,64,61882,1,0
288,48,62212,2,0,B|400:48|272:240|464:240,1,260
304,336,63535,5,0
176,336,63865,1,0
224,256,64086,2,0,B|176:240,1,43.3333333333333
64,208,64526,1,0
64,112,64747,2,0,B|107:102,1,43.3333333333333
224,80,65188,1,0
288,144,65408,2,0,B|352:160,1,43.3333333333333
448,192,65849,1,0
416,288,66069,6,0,B|403:330,1,43.3333333333333
304,256,66510,1,8
176,192,66841,1,8
256,96,67171,1,8
256,192,67502,12,8,68493
64,112,68824,6,0,B|80:192|160:176,1,130,4|0
160,48,69485,1,2
160,176,69816,1,2
256,112,70146,2,0,B|352:112|352:176,1,130
448,112,70807,1,2
448,224,71138,1,2
448,336,71469,6,0,B|385:381|352:288,1,130
448,224,72130,1,2
352,288,72460,1,2
352,176,72791,2,0,B|288:128|280:219|192:144,1,130
112,160,73452,1,2
176,80,73783,1,2
288,80,74113,6,0,B|333:51|384:120|448:64,2,130,0|0|2
414,83,75105,1,2
352,176,75436,2,0,B|316:220|392:252|336:304,1,130
256,240,76097,1,2
256,128,76427,1,2
160,176,76758,6,0,B|123:97|32:144,1,130
80,240,77419,1,2
160,176,77750,1,2
160,304,78080,2,0,B|172:367|272:352,1,130
384,320,78741,1,2
304,256,79072,1,2
400,208,79403,6,0,B|464:144|416:48|256:32|128:112,1,390
48,160,80725,2,0,B|0:208|43:333|336:144,1,390
432,80,82047,2,0,B|367:49|304:48,1,130
192,64,82708,1,2
304,48,83039,1,2
256,144,83369,2,0,B|256:224|320:256,1,130
368,160,84031,1,2
432,240,84361,1,2
320,256,84690,6,0,B|360:330|272:352,1,130
320,256,85351,1,2
273,351,85682,1,2
208,272,86013,2,0,B|191:192|272:176,1,130
208,272,86675,5,2
269,176,87006,1,2
384,176,87337,2,0,B|445:117|384:64,1,130
384,176,87999,1,2
384,64,88329,1,2
272,64,88660,2,0,B|192:16|160:80,1,130
272,64,89322,1,4
160,78,89653,1,4
224,160,90008,1,4
112,128,100615,6,0,B|102:200|160:240,1,86.6666666666667,0|8
208,160,101168,1,8
352,160,101610,1,0
416,64,101941,2,8,B|492:171|416:288,1,216.666666666667
304,336,102936,1,8
176,336,103267,2,8,B|123:306|112:256,1,86.6666666666667,0|8
112,160,103820,1,8
256,192,104262,1,0
256,80,104593,1,8
464,64,105919,6,0,B|464:144|416:176,1,86.6666666666667,0|8
352,80,106472,1,8
352,224,106914,1,0
464,224,107245,2,8,B|483:314|415:347|320:336,1,216.666666666667
208,256,108240,1,0
208,144,108571,2,0,B|208:64|256:48,1,86.6666666666667,0|8
112,64,109124,1,8
80,208,109566,2,0,B|80:304|160:336,3,130
208,352,110781,2,0,B|263:304|169:253|240:176,1,173.333333333333,0|4
352,96,121780,6,0,C|414:127|432:208,1,130
336,192,122331,1,2
448,272,122772,1,8
320,336,123102,2,0,C|240:304|224:240,1,130
192,176,123653,1,2
320,256,124094,1,8
400,160,124425,6,0,C|400:96|320:80,1,130
304,176,124976,1,2
208,288,125416,1,8
112,208,125747,2,0,C|128:128|192:96,1,130
96,48,126298,1,2
32,176,126739,1,8
32,304,127069,6,0,C|73:284|115:305|160:272,1,130
208,224,127620,1,2
368,224,128061,1,8
432,128,128392,1,0
336,64,128722,1,0
208,64,129053,2,0,B|144:64|128:112,2,86.6666666666667
208,144,129714,2,0,B|304:144|304:240,1,130,0|8
304,288,131257,1,2
192,288,131697,1,2
144,176,132360,6,0,C|232:201|324:40|378:49|448:80,1,390
480,128,133575,1,0
480,128,133685,1,0
384,192,134017,1,0
480,256,134348,1,0
384,320,134680,1,0
272,288,135011,6,0,B|144:294|144:208,2,130
240,176,136006,1,0
128,128,136337,2,0,B|192:64|272:64|384:80,1,260
464,128,137221,6,0,B|464:176,1,43.3333333333333
368,176,137553,2,0,B|368:224,1,43.3333333333333
464,272,137995,1,0
64,336,138658,1,0
160,312,138879,2,0,B|160:264,1,43.3333333333333,0|0
64,208,139321,1,0
160,160,139652,1,0
64,96,139984,1,0
160,32,140304,1,4
256,192,140634,12,0,142620
80,128,142951,6,0,B|128:48|208:64,1,130,4|0
192,176,143613,1,2
80,128,143943,1,2
32,224,144274,2,0,B|32:288|112:336,1,130
144,224,144936,1,2
224,320,145267,1,2
352,352,145598,6,0,B|448:352|464:256,1,130
352,352,146260,1,2
352,224,146591,1,2
448,160,146922,2,0,B|448:64|336:80,1,130
256,32,147583,1,2
288,144,147914,1,2
160,112,148245,6,0,B|160:16|64:32,1,130
48,128,148907,1,2
112,208,149238,1,2
240,208,149569,2,0,B|216:297|144:320,1,130
288,320,150231,1,2
352,224,150562,1,2
480,240,150893,2,0,B|480:144|416:112,1,130
320,80,151554,2,0,B|124:39|250:233|256:62|128:208,2,260,4|2|2
288,192,153209,1,10
208,304,153540,6,0,B|108:301|128:208,1,130
160,144,154091,1,2
160,144,154202,1,2
240,64,154532,1,2
352,64,154863,2,0,B|464:64|448:160,1,130
352,176,155525,1,2
432,240,155856,1,2
336,304,156187,6,0,B|272:352|192:304,1,130
144,272,156739,1,2
144,272,156849,1,2
80,160,157180,1,2
144,64,157511,2,0,B|224:16|304:48,1,130
224,144,158172,2,0,B|288:160|384:112,1,130
448,48,158834,6,0,B|496:112|448:208,1,130
416,240,159386,1,2
416,240,159496,1,2
304,208,159827,1,2
240,320,160158,1,0
176,224,160489,1,8
112,336,160820,1,8
48,240,161151,1,8
96,128,161482,6,0,B|112:64|192:80,1,86.6666666666667,0|8
272,80,162033,1,8
240,128,162143,1,8
352,176,162474,2,0,B|352:256|288:256,1,86.6666666666667,0|8
192,256,163026,1,8
160,208,163136,1,8
288,192,163467,1,2
176,112,163798,1,0
256,32,164134,1,4
