osu file format v5

[General]
AudioFilename: 01 Ballrog Boogie.mp3
AudioLeadIn: 0
PreviewTime: 68828
Countdown: 0
SampleSet: Normal
StackLeniency: 0.7
Mode: 0
LetterboxInBreaks: 1
EditorBookmarks: 15867,26457,37046,47635,142935,164113

[Metadata]
Title:Balrog Boogie
Artist:Diablo Swing Orchestra
Creator:CheeseWarlock
Version:Summoner
Source:
Tags:avant-garde metal swing dancing demon

[Difficulty]
HPDrainRate:6
CircleSize:5
OverallDifficulty:7
SliderMultiplier:1.3
SliderTickRate:1

[Events]
//Background and Video events
0,0,"Paramount_June_2004_frm stg.jpg"
//Break Periods
2,26197,36172
2,90196,99696
2,142820,152640
2,187170,190903
//Storyboard Layer 0 (Background)
4,0,1,"\words\latin1.png",310,-234 V,0,0,1,1,1,1.2,1 M,0,42650,65220,310,716,310,-235 F,0,42650,49650,0,0.45 F,0,60220,65220,0.45,0
4,0,1,"\words\latin2.png",310,240 F,0,68166,68828,0,0.45 F,0,89344,90006,0.45,0
4,0,0,"summonsheet.png",654,304 M,1,800,1500,0,480,0,0 M,1,13425,13905,0,0,320,120 R,1,13425,13905,0,0.2 V,1,13425,14566,1,1,0.15,0.05 M,2,13905,14566,320,120,680,240 R,2,13905,14566,0.2,-0.1 M,2,14566,14896,680,240,680,300 M,1,14896,15227,680,300,500,330 R,1,14896,15227,-0.1,0.2 M,2,15227,15887,500,330,690,360 R,2,15227,15887,0.2,-0.2
4,0,0,"DarkPlace640.jpg",0,0 L,197212,14 M,0,0,541,0,0,0,0 M,0,542,662,0,0,-4,0 M,0,662,782,-4,0,4,0 M,0,782,902,4,0,-4,0 M,0,902,1022,-4,0,4,0 M,0,1022,1142,4,0,0,0 M,0,1142,1324,0,0,0,0 F,0,163791,164122,0,1 F,0,191707,191807,1,0 F,0,191807,192107,0,1 F,0,193031,193131,1,0 F,0,193131,193431,0,1 F,0,194354,194454,1,0 F,0,194454,194754,0,1 F,0,195678,195778,1,0 F,0,195778,196078,0,1 M,1,216391,216942,0,0,-7,-7 M,1,216942,217272,-7,-7,8,-7 M,1,217272,217933,8,-7,-6,5 M,1,217933,218043,-6,5,5,0 M,1,218043,218153,5,0,-6,0 M,1,218153,218263,-6,0,0,0 M,0,220686,220796,0,0,-8,0 M,0,220796,220907,-8,0,0,0 M,0,220907,221017,0,0,-8,0 M,0,221017,221127,-8,0,0,0 M,0,221347,221457,0,0,8,0 M,0,221457,221567,8,0,0,0 M,0,221567,221678,0,0,8,0 M,0,221678,221788,8,0,0,0 M,0,222008,222118,0,0,0,8 M,0,222118,222229,0,8,0,0 M,0,222229,222339,0,0,0,8 M,0,222339,222449,0,8,0,0 F,0,222339,222449,1,0 C,0,222450,222451,255,255,255,0,0,0 F,0,222452,222799,0,1 M,0,222999,233136,0,0,0,0 F,1,231137,233137,1,0
4,0,1,"\demon\0.png",320,280 F,0,222700,223000,0,1 F,0,224000,224001,1,0 F,0,225458,225459,0,1 F,0,229137,231137,1,0
6,0,1,"\demon\.png",320,280,28,150 F,0,223998,223999,0,1 F,0,225460,225461,1,0
4,0,1,"dust.png",320,390 M,1,222338,223000,320,390,320,240 F,2,222338,223400,1,0 S,1,222338,223400,0,2.8
6,0,1,"\bat\.png",700,130,6,150 M,0,174380,176500,700,130,-60,190
//Storyboard Layer 1 (Failing)
//Storyboard Layer 2 (Passing)
//Storyboard Layer 3 (Foreground)
//Storyboard Sound Samples
//Background Colour Transformations
3,100,163,162,255
3,100,163,162,255

[TimingPoints]
15878,329.107392314724,4,1,0,100,1
23796,330.207392314725,4,1,0,100,1
26481,331.821701139255,4,1,0,100,1
37072,330.578512396694,4,1,0,100,1
47643,330.578512396694,4,1,0,100,1
58246,330.578512396694,4,2,0,80,1
68604,-100,4,1,0,100,0
84690,330.906684315023,4,1,0,100,1
90008,331.491712707182,4,1,0,100,1
110534,220.840740699844,4,1,0,100,1
111202,330.578512396694,4,1,0,100,1
132360,331.491712707182,4,2,0,80,1
140304,330.906684315023,4,1,0,100,1
161482,220.604456210015,4,1,0,100,1
164134,330.961442991891,4,2,0,80,1
191583,330.906684315023,4,1,0,100,1
196877,220.604456210015,3,1,0,100,1
207801,220.271594876483,4,1,0,100,1
215510,330.407392314724,4,1,0,100,1
215730,329.40553261767,4,1,0,100,1
221012,335.60613264273,4,1,0,100,1

[Colours]
Combo1 : 239,208,31
Combo2 : 250,38,1
Combo3 : 118,214,31
Combo4 : 241,159,7

[HitObjects]
96,288,15878,1,4
208,208,16207,1,8
320,208,16426,2,0,B|368:208|368:160,1,43.3333333333333,0|4
432,80,16865,1,8
320,80,17084,2,0,B|272:80,1,43.3333333333333,0|4
112,80,17523,1,8
64,160,17742,1,4
304,336,18510,5,4
176,272,18839,1,8
256,208,19059,2,0,B|288:208|288:176,1,43.3333333333333,0|4
432,192,19498,1,8
368,112,19717,2,0,B|336:112|336:80,1,43.3333333333333,0|4
176,48,20156,1,8
128,128,20375,1,4
256,192,21143,12,4,23008
256,192,23118,12,4,23796
128,288,25006,5,0
192,288,25116,1,0
144,192,25336,1,0
80,192,25447,1,0
128,96,25667,1,0
192,96,25777,2,0,B|256:96|256:176,1,86.6666666666667
80,304,37072,6,0,B|144:304|160:240,1,86.6666666666667
96,240,37402,2,0,B|144:192|192:208,1,86.6666666666667
224,224,37733,2,0,B|272:224|304:176,1,86.6666666666667
240,160,38063,2,0,B|256:112|336:128,1,86.6666666666667
368,128,38394,2,0,B|368:176,3,43.3333333333333
448,144,38890,1,4
400,32,39275,1,8
400,32,39386,1,8
416,336,39716,6,0,B|336:336|304:288,1,86.6666666666667
384,272,40047,2,0,B|336:236|272:256,1,86.6666666666667
272,320,40377,2,0,B|192:320|160:272,1,86.6666666666667
240,256,40708,2,0,B|176:224|144:240,1,86.6666666666667
96,240,41038,2,0,B|48:256,3,43.3333333333333
64,160,41534,1,4
192,80,41920,1,8
192,80,42030,1,8
208,208,42361,6,0,B|208:288|256:304,1,86.6666666666667
272,240,42691,2,0,B|304:208|304:144,1,86.6666666666667
352,224,43022,2,0,B|352:304|400:320,1,86.6666666666667
416,256,43352,2,0,B|448:208|448:176,1,86.6666666666667
448,112,43683,2,0,B|400:112,3,43.3333333333333
488,200,44179,1,4
336,144,44565,1,8
336,144,44675,1,8
272,336,45005,6,0,B|208:336|208:272,1,86.6666666666667
272,272,45336,2,0,B|336:272|336:224,1,86.6666666666667
272,208,45667,2,0,B|208:208|192:160,1,86.6666666666667
272,144,45997,2,0,B|272:48,1,86.6666666666667
224,96,46328,2,0,B|192:128,3,43.3333333333333
152,184,46824,1,4
336,208,47209,1,8
336,208,47319,1,8
256,352,47643,6,0,B|336:352|336:288,1,86.6666666666667
288,272,47973,1,2
192,272,48193,1,0
128,272,48304,2,0,B|128:192|208:192,1,86.6666666666667
224,192,48634,1,2
320,192,48855,1,2
384,192,48965,6,0,B|384:128|304:128,1,86.6666666666667
272,128,49295,1,2
176,128,49516,1,0
112,128,49626,2,0,B|112:48|176:48,1,86.6666666666667
208,48,49957,1,2
304,48,50177,1,2
368,48,50287,6,0,B|368:112|416:128,1,86.6666666666667
464,128,50618,1,2
432,208,50838,1,0
368,208,50948,2,0,B|256:208,1,86.6666666666667
224,208,51279,1,2
128,208,51499,1,2
64,208,51609,6,0,B|64:304|112:304,1,86.6666666666667
128,288,51940,1,2
224,288,52160,1,0
272,288,52271,2,0,B|304:288|336:352,1,86.6666666666667
384,352,52601,1,2
480,352,52822,1,2
464,304,52932,6,0,B|416:272|352:288,1,86.6666666666667
400,224,53262,1,2
304,224,53483,1,0
256,224,53593,2,0,B|240:160|192:160,1,86.6666666666667
160,160,53923,1,2
64,160,54144,1,2
16,160,54254,6,0,B|32:80|96:96,1,86.6666666666667
112,96,54585,1,2
208,96,54805,1,0
256,96,54915,2,0,B|336:96|320:160,2,86.6666666666667,8|0|8
176,160,55576,2,0,B|176:256|288:240,1,130,0|8
400,240,56238,2,0,B|432:208,3,43.3333333333333
288,208,56899,1,0
240,336,57229,1,4
336,336,57450,1,4
96,112,58246,6,0,C|144:64|192:112|240:64|288:112|336:64|384:112,1,390
416,176,59458,1,0
416,176,59568,1,0
272,176,59898,1,0
128,176,60229,1,0
96,304,60560,1,0
248,320,60890,2,2,B|554:395|472:96,1,390,2|2
352,96,62212,2,2,B|128:80|272:272,1,260
144,320,63094,6,0,B|96:272,1,43.3333333333333
144,192,63425,2,0,B|96:144,1,43.3333333333333
48,32,63865,2,0,C|96:80|144:32|192:80|256:16,1,260
320,48,64747,2,0,C|352:80,1,43.3333333333333
320,160,65077,2,0,C|368:208,1,43.3333333333333
448,208,65408,1,0
304,320,65849,1,0
160,304,66179,2,2,B|4:338|32:112,1,260
160,160,67171,1,4
256,192,67502,12,0,68493
376,104,68824,6,0,B|434:25|488:120,1,130
424,184,69375,1,0
376,216,69485,2,0,B|296:264|392:344,1,130
376,216,70036,1,0
376,168,70146,2,0,B|311:105|248:184,3,130
88,160,71469,6,0,B|128:67|192:168,1,130
88,160,72020,1,0
136,168,72130,2,0,B|144:256|80:280,1,130
176,256,72681,1,0
176,208,72791,2,0,B|268:239|192:328,3,130
352,144,74113,6,0,B|408:96|472:144,1,130
408,64,74664,1,0
360,80,74774,2,0,B|441:112|400:192,1,130
456,104,75325,1,0
456,56,75436,2,0,B|384:16|320:48,1,130
240,64,75987,1,0
280,80,76097,2,0,B|352:120|312:200,1,130
456,192,76758,5,4
256,192,77088,1,8
56,192,77419,1,0
56,192,77529,1,0
56,192,77639,1,0
56,192,77750,1,8
56,336,78080,5,4
256,272,78411,1,8
456,336,78741,1,0
456,336,78852,1,0
456,336,78962,1,0
456,336,79072,1,8
320,160,79403,6,0,B|336:224|424:232,1,130
448,136,79953,1,0
400,152,80064,2,0,B|344:192|368:288,1,130
448,232,80615,1,0
392,224,80725,2,0,B|308:197|272:296,3,130
88,216,82047,6,0,B|88:152|200:144,1,130
176,240,82598,1,0
200,200,82708,2,0,B|272:160|208:80,1,130
120,112,83259,1,0
80,136,83369,2,0,B|16:200|64:272,1,130
160,152,84031,2,0,B|256:123|272:240,1,130
56,264,84690,6,0,C|109:304|156:266|212:305|252:266|310:308|360:256,1,390
400,184,85903,1,0
352,168,86013,2,0,C|299:128|252:166|196:127|156:166|98:124|48:176,1,390,0|0
256,192,87337,12,0,90008
224,120,100615,6,0,B|288:100|328:144,1,86.6666666666667,4|8
432,192,101168,1,8
384,208,101278,2,0,B|326:251|240:192,1,130
176,168,101831,1,0
176,168,101941,1,8
96,224,102162,2,0,B|136:296|224:288,1,130,0|8
304,184,102825,2,0,B|296:240|328:248,1,43.3333333333333,0|8
416,312,103267,6,0,B|456:256|448:192,1,86.6666666666667,0|8
320,296,103820,1,0
304,248,103930,2,0,B|224:192|152:264,2,130,8|0|8
392,208,104814,2,0,B|392:160|424:152,1,43.3333333333333,0|2
344,88,105146,2,0,B|304:112|312:152,1,43.3333333333333,0|2
208,168,105588,1,2
136,40,105919,6,0,B|80:56|80:128,1,86.6666666666667,0|8
80,240,106472,1,8
120,224,106582,2,0,B|192:208|232:280,1,130
320,240,107135,1,0
320,240,107245,1,8
416,232,107466,2,0,B|456:160|384:112,1,130,0|8
256,160,108129,1,0
256,160,108240,1,0
112,160,108571,6,0,B|48:184|72:264,1,86.6666666666667,0|8
200,280,109124,1,8
160,256,109234,2,0,B|200:176|160:112,1,130
264,96,109787,2,0,B|312:72|344:96,1,43.3333333333333,0|2
408,88,110118,2,0,B|448:64|432:24,1,43.3333333333333,0|2
360,120,110449,2,0,B|320:152|360:184,1,43.3333333333333,0|2
256,64,110754,2,2,B|296:48|208:16|248:104|168:128|336:152|240:288,1,260,2|4
368,184,111532,5,0
360,336,111863,1,0
216,288,112193,1,0
72,312,112524,2,0,B|32:304|32:256,3,43.3333333333333
32,208,113020,1,4
120,72,113405,1,8
120,72,113516,1,8
224,168,113846,6,0,B|280:168|296:120,1,86.6666666666667
344,160,114177,2,0,B|381:112|416:168,1,86.6666666666667
384,208,114507,2,0,B|440:240|416:296,1,86.6666666666667
360,280,114838,2,0,B|280:280|280:232,1,86.6666666666667
240,288,115168,2,0,B|232:328|184:312,3,43.3333333333333
184,232,115664,1,4
72,320,116050,1,8
72,320,116160,1,8
216,312,116491,6,0,B|264:312|296:264,1,86.6666666666667
232,240,116821,2,0,B|288:192|336:216,1,86.6666666666667
360,248,117152,2,0,B|400:200|352:152,1,86.6666666666667
312,136,117482,2,0,B|256:100|208:168,1,86.6666666666667
176,176,117813,2,0,B|128:208,3,43.3333333333333
168,280,118309,1,4
40,184,118695,1,8
40,184,118805,1,8
232,232,119135,6,0,B|248:184|312:176,1,86.6666666666667
360,200,119466,2,0,B|432:168|400:112,1,86.6666666666667
344,128,119797,2,0,B|288:96|240:136,1,86.6666666666667
200,144,120127,2,0,B|192:64|264:56,1,86.6666666666667
288,56,120458,2,0,B|360:40,3,43.3333333333333
416,104,121009,1,4
344,280,121339,1,8
344,280,121449,1,8
144,288,121780,6,0,B|64:288|56:224,1,86.6666666666667
64,208,122111,1,2
160,208,122331,1,2
208,208,122441,2,0,B|296:208|288:136,1,86.6666666666667
296,128,122772,1,2
200,128,122992,1,0
152,128,123102,6,0,C|110:106|80:136|40:104,2,130,0|2|0
248,128,123984,1,0
248,128,124094,1,2
344,128,124314,1,0
392,128,124425,6,0,B|402:212|328:216,1,86.6666666666667
320,216,124755,1,2
224,216,124976,1,2
176,216,125086,2,0,B|144:152|112:216,1,86.6666666666667
64,216,125416,1,2
32,312,125637,1,0
80,312,125747,6,0,B|112:376|144:312,1,86.6666666666667
192,312,126078,1,2
288,312,126298,1,2
336,312,126408,2,0,B|400:312|400:248,1,86.6666666666667
400,216,126739,1,2
304,216,126959,1,0
256,216,127069,6,0,B|176:216|192:136,1,86.6666666666667
192,120,127400,1,2
288,120,127620,1,2
336,120,127730,2,0,B|400:120|416:40,1,86.6666666666667
368,32,128061,1,2
272,32,128281,1,0
224,32,128392,6,0,B|80:32,2,130,4|0|4
192,128,129273,2,8,B|243:172|272:112,2,86.6666666666667
224,272,130044,1,4
256,192,130375,12,2,132028
416,112,132360,6,0,C|360:72|318:110|264:73|214:111|160:72|80:128,1,390
80,192,133575,1,0
128,192,133685,1,0
224,288,134017,1,0
336,192,134348,1,0
448,288,134680,1,0
456,152,135011,2,2,B|512:27|256:40,1,260,2|2
112,64,136006,1,0
64,192,136337,2,2,B|208:128|352:192,1,260
240,240,137221,6,0,B|272:288,1,43.3333333333333
368,272,137553,2,0,B|336:224,1,43.3333333333333
432,352,137995,2,0,B|480:288|464:128|336:144,1,260
272,144,138879,1,0
272,144,138989,1,0
128,144,139321,1,8
192,272,139652,1,8
336,272,139984,1,8
256,192,140304,12,0,142620
56,64,153540,6,0,B|168:8|144:96|144:96|256:72|224:152|224:152|304:144|232:232|352:184,1,390
464,120,154863,6,0,B|328:112|464:280|288:272|288:272|240:200|192:304|160:224,1,390
176,112,156187,6,0,B|240:64|304:80,1,130
384,128,156739,1,0
352,160,156849,2,0,B|256:144|208:208,1,130
224,288,157400,1,0
272,272,157511,2,0,B|320:224|432:256,3,130
272,336,158834,6,0,B|160:336|160:240,1,130,2|0
256,256,159386,1,0
304,240,159496,2,0,B|272:160|176:176,1,130,2|0
128,224,160048,1,0
80,240,160158,2,0,B|80:128|160:112,1,130,2|0
224,112,160709,1,0
272,112,160820,2,0,B|352:96|376:200,1,130,2|0
400,320,161482,6,0,B|328:320|256:304,1,130,0|2
128,296,162033,1,8
128,296,162143,1,8
32,192,162474,2,0,B|104:184|168:168,1,130,0|2
304,152,163026,1,8
304,152,163136,1,8
256,16,163467,1,0
256,192,163688,12,4,164134
112,208,164685,5,0
256,304,165126,2,0,B|320:304|384:272,1,130
448,224,165678,2,0,B|448:177|416:160,1,43.3333333333333
344,184,166009,2,0,B|328:136,1,43.3333333333333
232,144,166340,2,0,B|216:96,1,43.3333333333333
120,104,166671,2,4,B|85:130|85:130|214:181|243:269|243:269|135:247|126:340|168:346|224:344,1,433.333333333333,0|4
72,104,169429,6,0,B|152:8|224:216|224:216|280:152|336:296|216:296,1,390
472,144,171635,2,0,L|456:96,1,43.3333333333333
360,104,171966,2,0,B|336:88|328:72|328:72|297:116|255:104|255:104|271:144|271:144|223:155|197:184|197:184|81:64|94:207|94:207|124:244|171:228|171:228|138:341|311:356|220:248|220:248|277:276|320:272,1,780
384,88,174724,5,0
88,168,175276,1,0
256,312,175717,1,0
384,312,176048,2,0,B|464:312|496:256,2,130
424,232,176931,6,0,B|408:184,1,43.3333333333333
312,104,177372,2,0,B|268:70|200:104,1,86.6666666666667
296,200,177924,2,0,B|216:248|144:216,1,130
48,192,178585,2,0,B|40:264|80:240,1,43.3333333333333
120,288,178916,2,0,B|160:328|184:304,1,43.3333333333333
240,312,179247,1,0
384,48,180020,6,0,B|432:104|392:144,1,86.6666666666667,8|0
360,112,180351,2,0,B|320:176|368:216,1,86.6666666666667,0|8
456,272,180902,2,0,B|440:304|408:312,3,43.3333333333333
384,320,181343,2,0,B|312:352|272:312,1,86.6666666666667,8|0
328,288,181674,2,0,B|256:248|208:296,1,86.6666666666667,0|8
120,312,182226,2,0,B|72:328,3,43.3333333333333
56,288,182667,6,0,B|40:224|80:192,1,86.6666666666667,8|0
96,168,182998,2,0,B|160:144|168:232,1,86.6666666666667,0|8
264,280,183550,2,0,B|296:296|328:288,1,43.3333333333333
384,256,183881,2,0,B|424:216|376:176|376:176|344:144|400:72|465:150|465:150|516:218|440:344,1,433.333333333333,8|0
216,160,185977,6,0,B|265:112|312:176,1,86.6666666666667
392,240,186529,2,0,B|432:296|328:336,1,130,4|0
296,344,186970,1,0
256,72,191803,5,2
304,72,191913,2,0,B|384:112|312:192,3,130
232,144,193127,1,2
184,144,193237,2,0,B|120:200|192:280,3,130
256,216,194450,1,2
304,216,194561,2,0,B|374:268|296:336,3,130
224,280,195774,1,0
176,280,195884,2,0,B|120:216|184:152,3,130
264,136,197097,6,0,B|360:200|344:72|416:56,1,195
472,40,197538,1,2
464,168,197759,1,0
456,232,197869,2,8,B|448:280|416:224|408:288,3,65
336,168,198421,2,0,B|248:208|288:344,1,195
336,296,198862,1,2
216,232,199083,1,0
216,296,199193,2,8,B|168:296|216:336|136:336,3,65
88,224,199744,6,0,B|40:144|192:64,1,195
232,40,200186,1,2
336,120,200406,1,0
344,184,200516,2,8,B|312:208|360:224|312:240,3,65
224,328,201068,2,2,B|152:368|200:192|304:360,1,195
416,336,201730,1,0
352,320,201840,2,2,B|384:256|360:296|288:224,1,130
456,120,202392,6,0,B|456:232|312:112,1,195
368,80,202833,1,2
248,128,203053,1,0
264,176,203164,2,8,B|240:216|184:208,3,65
216,336,203715,2,0,B|192:248|96:360|56:264,1,195
32,208,204156,1,2
64,80,204377,1,0
112,120,204487,2,8,B|160:104|128:152|192:128,3,65
296,152,205039,6,0,B|200:48|376:32,1,195
424,40,205480,1,2
456,168,205701,1,0
440,232,205811,2,8,B|432:272|480:248|464:296,3,65
336,288,206362,2,2,B|256:256|224:328|224:328|104:264,1,260
72,144,207024,1,0
136,136,207135,2,2,B|192:120|160:72|160:72|232:72,1,130
400,112,207686,6,0,B|416:200|184:224,1,260,0|2
384,248,208461,1,8
384,248,208571,1,8
384,248,208682,1,8
384,248,208792,1,8
272,312,209012,6,0,B|192:360|160:296|160:296|72:336|40:272,1,260,0|2
208,168,209783,1,8
208,168,209893,1,8
208,168,210003,1,8
208,168,210113,1,8
336,192,210334,6,0,B|512:120|192:32,1,260,0|2
40,56,211105,1,8
40,56,211215,1,8
40,56,211325,1,8
40,56,211435,1,8
160,104,211655,6,0,C|136:160|232:128|184:208,1,260,0|2
32,328,212426,1,8
40,280,212536,1,8
64,248,212646,1,8
112,256,212757,1,8
216,336,212977,6,0,B|400:368|64:136|384:256,1,260,0|2
456,360,213748,1,8
480,320,213858,1,8
480,272,213968,1,8
472,224,214078,1,8
360,160,214299,6,0,B|352:8|440:136|176:112,1,260,0|2
96,288,215069,1,8
72,240,215180,1,8
64,192,215290,1,8
64,144,215400,1,8
168,96,215620,6,0,B|272:48|344:112,1,173.333333333333,0|2
208,176,216388,2,8,B|288:248|424:168,1,216.666666666667
360,296,217267,2,0,B|337:202|256:393|161:194|120:320,1,260,8|4
192,192,218255,5,8
336,168,218584,1,8
256,48,218914,2,0,B|256:104,4,43.3333333333333
256,144,219573,1,2
256,288,219902,1,2
384,232,220231,2,0,B|408:216|408:176,1,43.3333333333333
416,56,220671,5,0
368,56,220780,1,0
320,48,220890,1,0
272,32,221012,1,4
64,168,221347,1,0
112,168,221459,1,0
160,160,221571,1,0
208,144,221683,1,4
256,304,222018,2,4,C|256:232,3,43.3333333333333
